osu file format v14

[General]
AudioFilename: audio.mp3
AudioLeadIn: 0
PreviewTime: 24125
Countdown: 0
SampleSet: Soft
StackLeniency: 0.3
Mode: 0
LetterboxInBreaks: 0
WidescreenStoryboard: 1

[Editor]
Bookmarks: 15921,17129
DistanceSpacing: 1
BeatDivisor: 4
GridSize: 32
TimelineZoom: 1.9

[Metadata]
Title:teclitas locas (Short Ver.)
TitleUnicode:teclitas locas (Short Ver.)
Artist:pm04034
ArtistUnicode:pm04034
Creator:pewdekz
Version:normal
Source:
Tags:piano instrumental electronic crazy keyboard rainbow
BeatmapID:3068819
BeatmapSetID:1141064

[Difficulty]
HPDrainRate:3
CircleSize:3.2
OverallDifficulty:4
ApproachRate:4.5
SliderMultiplier:1.1
SliderTickRate:0.5

[Events]
//Background and Video events
0,0,"rainbow piano.jpg",0,0
//Break Periods
//Storyboard Layer 0 (Background)
//Storyboard Layer 1 (Fail)
//Storyboard Layer 2 (Pass)
//Storyboard Layer 3 (Foreground)
//Storyboard Layer 4 (Overlay)
//Storyboard Sound Samples

[TimingPoints]
15,402.684563758389,4,2,1,5,1,0
417,-100,4,2,1,10,0,0
820,-100,4,2,1,15,0,0
1223,-100,4,2,1,20,0,0
1625,-100,4,2,1,25,0,0
2028,-100,4,2,1,30,0,0
2431,-100,4,2,1,35,0,0
2833,-100,4,2,1,40,0,0
3236,-100,4,2,1,45,0,0
6457,-100,4,2,1,45,0,0
9679,-97.0873786407767,4,2,1,50,0,0
10384,-97.0873786407767,4,2,1,50,0,0
11290,-97.0873786407767,4,2,1,50,0,0
12699,-97.0873786407767,4,2,1,50,0,0
12900,-97.0873786407767,4,2,1,50,0,0
16323,-97.0873786407767,4,2,1,50,0,0
16827,-97.0873786407767,4,2,1,50,0,0
17733,-97.0873786407767,4,2,1,50,0,0
19142,-97.0873786407767,4,2,1,50,0,0
19343,-97.0873786407767,4,2,1,50,0,0
21457,-97.0873786407767,4,2,1,50,0,0
21860,-97.0873786407767,4,2,1,50,0,0
22061,-97.0873786407767,4,2,1,50,0,0
22363,-97.0873786407767,4,2,1,50,0,0
22666,-97.0873786407767,4,2,1,50,0,0
23068,-97.0873786407767,4,2,1,50,0,0
23270,-97.0873786407767,4,2,1,50,0,0
23370,-97.0873786407767,4,2,1,5,0,0
24176,-95.2380952380952,4,2,1,55,0,1
24377,-95.2380952380952,4,2,1,55,0,1
24981,-95.2380952380952,4,2,1,55,0,1
25182,-95.2380952380952,4,2,1,55,0,1
25786,-95.2380952380952,4,2,1,55,0,1
25988,-95.2380952380952,4,2,1,55,0,1
27095,-95.2380952380952,4,2,1,55,0,0
27347,-95.2380952380952,4,2,1,5,0,0
27397,-95.2380952380952,4,2,1,55,0,1
27598,-95.2380952380952,4,2,1,55,0,1
28202,-95.2380952380952,4,2,1,55,0,1
28403,-95.2380952380952,4,2,1,55,0,1
29008,-95.2380952380952,4,2,1,55,0,1
29209,-95.2380952380952,4,2,1,55,0,1
29813,-97.0873786407767,4,2,1,55,0,0
30317,-95.2380952380952,4,2,1,55,0,0
30619,-95.2380952380952,4,2,1,55,0,1
30820,-95.2380952380952,4,2,1,55,0,1
31424,-95.2380952380952,4,2,1,55,0,1
32229,-95.2380952380952,4,2,1,55,0,1
32431,-95.2380952380952,4,2,1,55,0,1
33538,-95.2380952380952,4,2,1,55,0,0
33790,-95.2380952380952,4,2,1,5,0,0
33840,-95.2380952380952,4,2,1,55,0,1
34243,-95.2380952380952,4,2,1,55,0,0
34444,-95.2380952380952,4,2,1,55,0,1
34847,-95.2380952380952,4,2,1,55,0,0
35048,-95.2380952380952,4,2,1,55,0,1
35249,-95.2380952380952,4,2,1,55,0,0
35350,-95.2380952380952,4,2,1,55,0,1
35551,-95.2380952380952,4,2,1,55,0,0
35652,-95.2380952380952,4,2,1,55,0,1
35853,-95.2380952380952,4,2,1,55,0,0
35954,-95.2380952380952,4,2,1,55,0,1
36155,-62.5,4,2,1,55,0,0
36256,-76.9230769230769,4,2,1,40,0,0
36659,-76.9230769230769,4,2,1,35,0,0
37061,-76.9230769230769,4,2,1,30,0,0
37464,-76.9230769230769,4,2,1,25,0,0
37867,-76.9230769230769,4,2,1,20,0,0
38270,-25,4,2,1,15,0,0
38672,-25,4,2,1,10,0,0
39075,-25,4,2,1,5,0,0
39377,-76.9230769230769,4,2,1,30,0,0

[Colours]
Combo1 : 255,0,0
Combo2 : 191,191,0
Combo3 : 0,255,64
Combo4 : 0,98,196

[HitObjects]
256,192,15,12,8,3236,0:2:0:0:
77,82,4041,6,0,L|143:82,1,55,0|2,0:2|0:2,0:0:0:0:
173,118,4444,1,2,0:2:0:0:
216,219,4847,2,0,L|216:293,1,55,2|0,0:2|0:2,0:0:0:0:
251,315,5249,2,0,P|306:297|360:317,1,110,2|0,0:2|0:2,0:0:0:0:
401,285,5853,2,0,L|401:190,1,82.5,2|2,0:0|0:2,0:0:0:0:
364,128,6457,6,0,B|310:152|310:103|238:128,1,110,2|2,0:2|0:2,0:0:0:0:
208,150,7061,1,2,0:2:0:0:
165,114,7263,2,0,L|165:34,1,55,0|2,0:2|0:2,0:0:0:0:
141,9,7666,2,0,P|98:52|31:53,1,110,2|2,0:2|0:2,0:0:0:0:
10,160,8471,1,2,0:2:0:0:
53,261,8874,2,0,B|94:249|94:249|137:263,2,82.5,2|2|2,0:2|0:2|0:2,0:0:0:0:
5,291,9679,6,0,L|5:361,1,56.6499995245743,14|2,0:2|0:2,0:0:0:0:
52,378,10082,2,0,L|161:378,1,84.9749992868614,2|10,1:2|0:2,0:0:0:0:
192,313,10686,1,10,0:2:0:0:
168,231,10988,1,2,0:2:0:0:
220,163,11290,2,0,P|270:191|337:188,1,113.299999049149,2|2,0:2|1:2,0:0:0:0:
434,237,12095,1,10,0:2:0:0:
434,237,12296,2,0,L|434:360,1,113.299999049149,2|10,1:2|0:2,0:0:0:0:
386,380,12900,6,0,P|344:344|274:331,1,113.299999049149,14|2,0:2|1:2,0:0:0:0:
234,348,13504,1,2,0:2:0:0:
191,310,13706,2,0,P|186:283|196:237,1,56.6499995245743,2|10,0:2|0:2,0:0:0:0:
234,219,14108,2,0,P|239:192|229:146,1,56.6499995245743,2|0,1:2|0:0,0:0:0:0:
203,115,14511,1,2,0:2:0:0:
238,7,14914,1,2,1:2:0:0:
348,34,15317,2,0,L|348:130,1,84.9749992868614,10|10,0:2|0:2,0:0:0:0:
266,312,16323,5,14,0:0:0:0:
224,273,16525,2,0,L|121:273,1,84.9749992868614,2|10,1:2|0:2,0:0:0:0:
64,231,17129,1,10,0:2:0:0:
47,147,17431,1,2,0:2:0:0:
115,96,17733,2,0,L|184:96,1,56.6499995245743,2|8,0:2|0:2,0:0:0:0:
219,126,18135,1,2,1:2:0:0:
241,241,18538,1,10,0:2:0:0:
241,241,18739,2,0,P|287:208|352:205,1,113.299999049149,2|10,1:2|0:2,0:0:0:0:
390,173,19343,6,0,L|390:47,1,113.299999049149,14|2,0:2|1:2,0:0:0:0:
363,15,19947,1,2,0:2:0:0:
363,15,20149,2,0,L|295:15,1,56.6499995245743,2|10,0:2|0:2,0:0:0:0:
260,47,20551,2,0,L|194:47,1,56.6499995245743,2|0,1:2|0:0,0:0:0:0:
152,73,20954,1,10,0:2:0:0:
240,183,21457,6,0,L|411:183,1,169.949998573723,10|10,0:2|0:2,0:0:0:0:
510,320,22666,2,0,L|338:320,1,169.949998573723,10|10,0:2|0:2,0:0:0:0:
196,363,24176,6,0,L|196:236,1,115.49999647522,14|0,0:2|1:2,0:0:0:0:
228,199,24780,1,2,0:2:0:0:
255,148,24981,2,0,L|255:68,1,57.7499982376099,0|10,0:2|0:2,0:0:0:0:
227,39,25384,2,0,L|147:39,1,57.7499982376099,2|2,1:2|0:2,0:0:0:0:
121,70,25786,2,0,B|136:129|97:129|121:183,1,115.49999647522,2|0,0:2|1:2,0:0:0:0:
162,230,26390,1,0,0:2:0:0:
162,230,26592,2,0,L|162:310,2,57.7499982376099,8|0|0,0:2|1:2|0:2,0:0:0:0:
311,311,27397,6,0,B|364:311|364:311|377:326|377:326|430:326,1,115.49999647522,14|0,0:2|1:2,0:0:0:0:
469,293,28001,1,2,0:2:0:0:
493,241,28202,2,0,P|486:214|495:178,1,57.7499982376099,0|10,0:2|0:2,0:0:0:0:
445,149,28605,1,2,1:2:0:0:
401,111,28806,1,2,0:2:0:0:
358,150,29008,2,0,B|299:167|299:167|242:145,1,115.49999647522,2|0,0:2|1:2,0:0:0:0:
214,100,29612,2,0,L|214:37,1,57.7499982376099,0|0,0:2|0:2,0:0:0:0:
51,145,30619,6,0,P|62:197|41:263,1,115.49999647522,14|0,0:2|1:2,0:0:0:0:
20,309,31223,1,2,0:2:0:0:
63,347,31424,2,0,P|92:341|130:348,1,57.7499982376099,0|10,0:2|0:2,0:0:0:0:
174,362,31827,2,0,P|203:368|241:361,1,57.7499982376099,2|2,1:2|0:2,0:0:0:0:
257,314,32229,2,0,B|224:286|224:286|224:196,1,115.49999647522,2|0,0:2|1:2,0:0:0:0:
238,160,32833,1,0,0:2:0:0:
238,160,33035,2,0,L|299:160,2,57.7499982376099,8|0|0,0:2|1:2|0:2,0:0:0:0:
307,60,33840,6,0,B|366:45|366:45|424:62,1,115.49999647522,14|0,0:2|1:2,0:0:0:0:
455,102,34444,2,0,B|455:154|455:154|448:167|448:167|448:230,1,115.49999647522,14|0,0:2|1:2,0:0:0:0:
423,268,35048,2,0,L|315:268,1,86.6249973564149,14|14,0:2|0:2,0:0:0:0:
280,202,35652,2,0,L|280:115,1,86.6249973564149,14|14,0:2|0:2,0:0:0:0:
236,32,36256,5,10,0:2:0:0:
256,192,36457,12,2,39377,0:0:0:0:
