osu file format v14

[General]
AudioFilename: audio.mp3
AudioLeadIn: 0
PreviewTime: 24125
Countdown: 0
SampleSet: Soft
StackLeniency: 0.3
Mode: 0
LetterboxInBreaks: 0
WidescreenStoryboard: 1

[Editor]
Bookmarks: 15921,17129
DistanceSpacing: 1
BeatDivisor: 4
GridSize: 32
TimelineZoom: 1.9

[Metadata]
Title:teclitas locas (Short Ver.)
TitleUnicode:teclitas locas (Short Ver.)
Artist:pm04034
ArtistUnicode:pm04034
Creator:pewdekz
Version:hard
Source:
Tags:piano instrumental electronic crazy keyboard rainbow
BeatmapID:3071914
BeatmapSetID:1141064

[Difficulty]
HPDrainRate:3.5
CircleSize:3.5
OverallDifficulty:5
ApproachRate:6.5
SliderMultiplier:1.35
SliderTickRate:0.5

[Events]
//Background and Video events
0,0,"rainbow piano.jpg",0,0
//Break Periods
//Storyboard Layer 0 (Background)
//Storyboard Layer 1 (Fail)
//Storyboard Layer 2 (Pass)
//Storyboard Layer 3 (Foreground)
//Storyboard Layer 4 (Overlay)
//Storyboard Sound Samples

[TimingPoints]
15,402.684563758389,4,2,1,5,1,0
417,-25,4,2,1,10,0,0
820,-25,4,2,1,15,0,0
1223,-25,4,2,1,20,0,0
1625,-25,4,2,1,25,0,0
2028,-25,4,2,1,30,0,0
2431,-25,4,2,1,35,0,0
2833,-25,4,2,1,40,0,0
3236,-100,4,2,1,45,0,0
6457,-100,4,2,1,45,0,0
9679,-95.2380952380952,4,2,1,50,0,0
10384,-95.2380952380952,4,2,1,50,0,0
11290,-95.2380952380952,4,2,1,50,0,0
12699,-95.2380952380952,4,2,1,50,0,0
12900,-95.2380952380952,4,2,1,50,0,0
16323,-95.2380952380952,4,2,1,50,0,0
16827,-95.2380952380952,4,2,1,50,0,0
17733,-95.2380952380952,4,2,1,50,0,0
19142,-95.2380952380952,4,2,1,50,0,0
19343,-95.2380952380952,4,2,1,50,0,0
21457,-95.2380952380952,4,2,1,50,0,0
21860,-95.2380952380952,4,2,1,50,0,0
22061,-95.2380952380952,4,2,1,50,0,0
22363,-95.2380952380952,4,2,1,50,0,0
22666,-95.2380952380952,4,2,1,50,0,0
23068,-95.2380952380952,4,2,1,50,0,0
23270,-95.2380952380952,4,2,1,50,0,0
23370,-95.2380952380952,4,2,1,5,0,0
24176,-93.4579439252336,4,2,1,55,0,1
24377,-93.4579439252336,4,2,1,55,0,1
24981,-93.4579439252336,4,2,1,55,0,1
25182,-93.4579439252336,4,2,1,55,0,1
25786,-93.4579439252336,4,2,1,55,0,1
25988,-93.4579439252336,4,2,1,55,0,1
27095,-93.4579439252336,4,2,1,55,0,0
27347,-93.4579439252336,4,2,1,5,0,0
27397,-93.4579439252336,4,2,1,55,0,1
27598,-93.4579439252336,4,2,1,55,0,1
28202,-93.4579439252336,4,2,1,55,0,1
28403,-93.4579439252336,4,2,1,55,0,1
29008,-93.4579439252336,4,2,1,55,0,1
29209,-93.4579439252336,4,2,1,55,0,1
29813,-93.4579439252336,4,2,1,55,0,0
30317,-93.4579439252336,4,2,1,55,0,0
30619,-93.4579439252336,4,2,1,55,0,1
30820,-93.4579439252336,4,2,1,55,0,1
31424,-93.4579439252336,4,2,1,55,0,1
32229,-93.4579439252336,4,2,1,55,0,1
32431,-93.4579439252336,4,2,1,55,0,1
33538,-93.4579439252336,4,2,1,55,0,0
33790,-93.4579439252336,4,2,1,5,0,0
33840,-93.4579439252336,4,2,1,55,0,1
34243,-93.4579439252336,4,2,1,55,0,0
34444,-93.4579439252336,4,2,1,55,0,1
34847,-93.4579439252336,4,2,1,55,0,0
35048,-93.4579439252336,4,2,1,55,0,1
35249,-93.4579439252336,4,2,1,55,0,0
35350,-93.4579439252336,4,2,1,55,0,1
35551,-93.4579439252336,4,2,1,55,0,0
35652,-93.4579439252336,4,2,1,55,0,1
35853,-93.4579439252336,4,2,1,55,0,0
35954,-93.4579439252336,4,2,1,55,0,1
36155,-62.5,4,2,1,55,0,0
36256,-76.9230769230769,4,2,1,40,0,0
36659,-25,4,2,1,35,0,0
37061,-25,4,2,1,30,0,0
37464,-25,4,2,1,25,0,0
37867,-25,4,2,1,20,0,0
38270,-25,4,2,1,15,0,0
38672,-25,4,2,1,10,0,0
39075,-25,4,2,1,5,0,0
39377,-95.2380952380952,4,2,1,30,0,0

[Colours]
Combo1 : 255,128,64
Combo2 : 191,191,0
Combo3 : 0,255,64
Combo4 : 0,98,196

[HitObjects]
256,192,15,12,8,3236,0:2:0:0:
111,44,3639,6,0,L|31:44,1,67.5,2|0,0:2|0:2,0:0:0:0:
4,126,4041,1,0,0:2:0:0:
40,207,4243,2,0,P|70:186|117:180,1,67.5,2|2,0:2|0:2,0:0:0:0:
140,181,4545,2,0,P|181:183|223:166,1,67.5,2|2,0:2|0:2,0:0:0:0:
237,149,4847,1,2,0:2:0:0:
283,83,5048,1,0,0:2:0:0:
350,127,5249,2,0,B|399:143|399:143|450:128,1,101.25,2|0,0:2|0:2,0:0:0:0:
481,108,5652,1,0,0:2:0:0:
509,182,5853,2,0,L|509:301,1,101.25,2|2,0:0|0:2,0:0:0:0:
415,360,6457,6,0,P|387:352|349:359,1,67.5,2|2,0:2|0:2,0:0:0:0:
270,364,6860,2,0,L|270:255,1,101.25,2|0,0:2|0:2,0:0:0:0:
271,222,7263,1,0,0:2:0:0:
213,165,7464,2,0,P|177:182|144:183,1,67.5,2|2,0:2|0:2,0:0:0:0:
109,174,7767,2,0,P|73:157|40:156,1,67.5,2|0,0:2|0:2,0:0:0:0:
17,126,8068,2,0,L|17:41,1,67.5,2|0,0:2|0:2,0:0:0:0:
76,2,8471,2,0,B|141:31|141:-11|209:13,1,135,2|2,0:2|0:2,0:0:0:0:
306,68,9176,1,2,0:2:0:0:
405,19,9478,1,2,0:2:0:0:
474,68,9679,6,0,L|474:155,1,70.8749978370667,14|2,0:2|0:2,0:0:0:0:
424,208,10082,2,0,L|305:208,1,106.3124967556,2|10,1:2|0:2,0:0:0:0:
225,149,10686,1,10,0:2:0:0:
189,255,10988,1,2,0:2:0:0:
253,349,11290,6,0,L|330:349,1,70.8749978370667,2|8,0:2|0:2,0:0:0:0:
363,333,11592,1,0,0:2:0:0:
363,333,11692,2,0,P|383:276|364:223,1,106.3124967556,2|0,1:2|0:2,0:0:0:0:
346,198,12095,2,0,L|346:146,1,35.4374989185334,10|2,0:2|0:2,0:0:0:0:
329,123,12296,2,0,B|283:123|283:123|272:117|272:117|211:117,1,106.3124967556,2|0,1:2|0:2,0:0:0:0:
185,134,12699,1,10,0:2:0:0:
130,199,12900,6,0,P|137:243|126:287,1,70.8749978370667,14|2,0:2|0:2,0:0:0:0:
123,307,13202,1,2,0:2:0:0:
123,307,13303,1,2,1:2:0:0:
40,349,13504,1,2,0:2:0:0:
40,349,13605,1,10,0:2:0:0:
40,349,13706,2,0,L|40:288,1,35.4374989185334,2|2,0:2|0:2,0:0:0:0:
17,277,13907,2,0,L|17:182,1,70.8749978370667,10|2,0:2|1:2,0:0:0:0:
35,167,14209,2,0,P|74:177|110:164,1,70.8749978370667,2|2,0:2|1:2,0:0:0:0:
133,139,14511,5,2,0:2:0:0:
177,66,14712,2,0,L|177:22,2,35.4374989185334,8|2|2,0:2|0:2|1:2,0:0:0:0:
253,103,15115,1,0,0:2:0:0:
315,44,15317,2,0,L|437:44,1,106.3124967556,10|10,0:2|0:2,0:0:0:0:
421,44,16323,5,14,0:0:0:0:
471,112,16525,2,0,L|471:194,1,70.8749978370667,2|0,1:2|0:2,0:0:0:0:
440,212,16827,1,10,0:2:0:0:
337,163,17129,1,10,0:2:0:0:
286,260,17431,1,2,0:2:0:0:
194,189,17733,6,0,L|194:91,1,70.8749978370667,2|8,0:2|0:2,0:0:0:0:
187,77,18035,1,0,0:2:0:0:
159,56,18135,2,0,P|109:70|56:56,1,106.3124967556,2|0,1:2|0:2,0:0:0:0:
27,77,18538,1,10,0:2:0:0:
27,77,18639,1,2,0:2:0:0:
27,77,18739,2,0,L|27:193,1,106.3124967556,2|0,1:2|0:2,0:0:0:0:
50,220,19142,1,10,0:2:0:0:
14,303,19343,6,0,P|49:312|90:303,1,70.8749978370667,14|2,0:2|0:2,0:0:0:0:
113,290,19645,1,2,0:2:0:0:
143,265,19746,2,0,P|178:256|219:265,1,70.8749978370667,2|2,1:2|0:2,0:0:0:0:
243,278,20048,1,10,0:2:0:0:
275,302,20149,2,0,L|337:302,1,35.4374989185334,2|2,0:2|0:2,0:0:0:0:
348,287,20350,2,0,L|348:193,1,70.8749978370667,10|2,0:2|1:2,0:0:0:0:
334,173,20652,2,0,B|295:185|295:185|255:169,1,70.8749978370667,2|2,0:2|1:2,0:0:0:0:
238,146,20954,5,10,0:2:0:0:
256,59,21155,2,0,L|206:59,2,35.4374989185334,0|0|0,0:2|0:2|1:2,0:0:0:0:
288,34,21457,1,10,0:2:0:0:
413,46,21759,2,0,L|413:100,2,35.4374989185334,0|0|0,0:2|0:2|1:2,0:0:0:0:
446,21,22061,1,10,0:2:0:0:
392,182,22363,2,0,L|338:182,2,35.4374989185334,0|0|0,0:2|0:2|1:2,0:0:0:0:
424,202,22666,1,10,0:2:0:0:
276,216,22968,2,0,L|276:269,2,35.4374989185334,0|0|0,0:2|0:2|1:2,0:0:0:0:
254,184,23270,1,10,0:2:0:0:
472,333,24176,6,0,B|412:333|412:333|403:345|403:345|325:345,1,144.449995591736,14|0,0:2|1:2,0:0:0:0:
271,279,24780,2,0,L|271:226,2,36.112498897934,2|10|0,0:2|0:2|0:2,0:0:0:0:
207,342,25182,2,0,B|170:331|170:331|126:343,1,72.224997795868,10|2,0:2|1:2,0:0:0:0:
103,325,25484,1,0,0:2:0:0:
103,325,25585,2,0,L|103:255,1,36.112498897934,2|2,0:2|1:2,0:0:0:0:
114,253,25786,6,0,P|135:186|111:108,1,144.449995591736,2|0,0:2|1:2,0:0:0:0:
91,85,26290,1,0,0:2:0:0:
104,46,26390,2,0,L|152:46,1,36.112498897934,0|2,0:2|0:2,0:0:0:0:
176,25,26592,2,0,L|271:25,1,72.224997795868,8|0,0:2|1:2,0:0:0:0:
340,12,26994,1,0,0:2:0:0:
340,12,27095,1,2,0:2:0:0:
383,159,27397,6,0,B|314:135|314:135|236:159,1,144.449995591736,14|0,0:2|1:2,0:0:0:0:
171,208,28001,1,2,0:2:0:0:
171,208,28102,1,10,0:2:0:0:
171,208,28202,1,0,0:2:0:0:
221,281,28404,2,0,P|263:287|305:273,1,72.224997795868,10|2,0:2|1:2,0:0:0:0:
322,256,28706,1,0,0:2:0:0:
356,235,28806,2,0,L|416:235,1,36.112498897934,2|2,0:2|1:2,0:0:0:0:
428,215,29008,6,0,B|428:159|428:159|449:133|449:133|449:77,1,144.449995591736,2|0,0:2|1:2,0:0:0:0:
446,42,29511,1,0,0:2:0:0:
446,42,29612,2,0,L|390:42,1,36.112498897934,0|2,0:2|0:2,0:0:0:0:
379,15,29813,2,0,L|226:15,1,144.449995591736,0|0,0:2|0:2,0:0:0:0:
211,44,30317,1,2,0:0:0:0:
64,42,30619,6,0,B|91:71|91:71|91:180,1,144.449995591736,14|0,0:2|1:2,0:0:0:0:
55,258,31223,2,0,L|4:258,2,36.112498897934,2|10|0,0:2|0:2|0:2,0:0:0:0:
108,330,31625,1,10,0:2:0:0:
190,291,31827,2,0,P|227:302|265:290,1,72.224997795868,2|2,1:2|0:2,0:0:0:0:
288,270,32129,1,2,1:2:0:0:
306,235,32229,6,0,B|282:159|326:159|306:92,1,144.449995591736,2|0,0:2|1:2,0:0:0:0:
335,60,32733,1,0,0:2:0:0:
335,60,32833,2,0,L|386:60,1,36.112498897934,0|2,0:2|0:2,0:0:0:0:
406,77,33035,2,0,P|419:116|401:166,1,72.224997795868,8|0,0:2|1:2,0:0:0:0:
441,236,33437,1,0,0:2:0:0:
441,236,33538,1,2,0:2:0:0:
441,359,33840,6,0,L|284:359,1,144.449995591736,14|0,0:2|1:2,0:0:0:0:
263,274,34444,2,0,L|420:274,1,144.449995591736,14|0,0:2|1:2,0:0:0:0:
459,199,35048,6,0,L|459:90,1,108.337496693802,14|14,0:2|0:2,0:0:0:0:
361,15,35652,1,14,0:2:0:0:
254,61,35954,1,14,0:2:0:0:
146,11,36256,5,10,0:2:0:0:
256,192,36457,12,0,38270,0:0:0:0:
256,204,39377,6,0,L|256:155,1,35.4374989185334,2|0,0:0|0:2,0:0:0:0:
