osu file format v14

[General]
AudioFilename: audio.mp3
AudioLeadIn: 0
PreviewTime: 24125
Countdown: 0
SampleSet: Soft
StackLeniency: 0.3
Mode: 0
LetterboxInBreaks: 0
WidescreenStoryboard: 1

[Editor]
Bookmarks: 12246,14108,15921,17129
DistanceSpacing: 1
BeatDivisor: 8
GridSize: 8
TimelineZoom: 1.9

[Metadata]
Title:teclitas locas (Short Ver.)
TitleUnicode:teclitas locas (Short Ver.)
Artist:pm04034
ArtistUnicode:pm04034
Creator:pewdekz
Version:extra
Source:
Tags:piano instrumental electronic crazy keyboard rainbow
BeatmapID:3234418
BeatmapSetID:1141064

[Difficulty]
HPDrainRate:5.5
CircleSize:4
OverallDifficulty:8
ApproachRate:9.3
SliderMultiplier:2
SliderTickRate:0.5

[Events]
//Background and Video events
0,0,"rainbow piano.jpg",0,0
//Break Periods
//Storyboard Layer 0 (Background)
//Storyboard Layer 1 (Fail)
//Storyboard Layer 2 (Pass)
//Storyboard Layer 3 (Foreground)
//Storyboard Layer 4 (Overlay)
//Storyboard Sound Samples

[TimingPoints]
15,402.684563758389,4,2,1,5,1,0
417,-100,4,2,1,10,0,0
820,-100,4,2,1,15,0,0
1223,-100,4,2,1,20,0,0
1625,-100,4,2,1,25,0,0
2028,-100,4,2,1,30,0,0
2431,-100,4,2,1,35,0,0
2833,-100,4,2,1,40,0,0
3236,-100,4,2,1,45,0,0
6457,-90.9090909090909,4,2,1,45,0,0
9679,-76.9230769230769,4,2,1,50,0,0
10384,-74.0740740740741,4,2,1,50,0,0
11290,-76.9230769230769,4,2,1,50,0,0
12699,-66.6666666666667,4,2,1,50,0,0
12850,-80,4,2,1,5,0,0
12900,-76.9230769230769,4,2,1,50,0,0
16323,-76.9230769230769,4,2,1,50,0,0
16827,-74.0740740740741,4,2,1,50,0,0
17733,-76.9230769230769,4,2,1,50,0,0
19142,-66.6666666666667,4,2,1,50,0,0
19293,-76.9230769230769,4,2,1,5,0,0
19343,-76.9230769230769,4,2,1,50,0,0
21457,-83.3333333333333,4,2,1,50,0,0
21860,-76.9230769230769,4,2,1,50,0,0
22061,-83.3333333333333,4,2,1,50,0,0
22363,-76.9230769230769,4,2,1,50,0,0
22666,-83.3333333333333,4,2,1,50,0,0
23068,-76.9230769230769,4,2,1,50,0,0
23270,-200,4,2,1,50,0,0
23370,-95.2380952380952,4,2,1,5,0,0
24176,-62.5,4,2,1,55,0,1
24377,-64.5161290322581,4,2,1,55,0,1
24981,-80,4,2,1,55,0,1
25182,-64.5161290322581,4,2,1,55,0,1
25786,-62.5,4,2,1,55,0,1
25988,-64.5161290322581,4,2,1,55,0,1
27095,-125,4,2,1,55,0,0
27296,-74.0740740740741,4,2,1,5,0,0
27397,-62.5,4,2,1,55,0,1
27598,-64.5161290322581,4,2,1,55,0,1
28202,-74.0740740740741,4,2,1,55,0,1
28403,-64.5161290322581,4,2,1,55,0,1
29008,-62.5,4,2,1,55,0,1
29209,-64.5161290322581,4,2,1,55,0,1
29813,-74.0740740740741,4,2,1,55,0,0
30317,-74.0740740740741,4,2,1,55,0,0
30619,-62.5,4,2,1,55,0,1
30820,-64.5161290322581,4,2,1,55,0,1
31424,-74.0740740740741,4,2,1,55,0,1
32229,-62.5,4,2,1,55,0,1
32431,-64.5161290322581,4,2,1,55,0,1
33538,-125,4,2,1,55,0,0
33739,-71.4285714285714,4,2,1,5,0,0
33840,-62.5,4,2,1,55,0,1
34243,-64.5161290322581,4,2,1,55,0,0
34444,-60.6060606060606,4,2,1,55,0,1
34847,-64.5161290322581,4,2,1,55,0,0
35048,-58.8235294117647,4,2,1,55,0,1
35249,-58.8235294117647,4,2,1,55,0,0
35350,-58.8235294117647,4,2,1,55,0,1
35551,-58.8235294117647,4,2,1,55,0,0
35652,-58.8235294117647,4,2,1,55,0,1
35853,-58.8235294117647,4,2,1,55,0,0
35954,-58.8235294117647,4,2,1,55,0,1
36155,-58.8235294117647,4,2,1,55,0,0
36256,-76.9230769230769,4,2,1,40,0,0
36659,-76.9230769230769,4,2,1,35,0,0
37061,-76.9230769230769,4,2,1,30,0,0
37464,-76.9230769230769,4,2,1,25,0,0
37867,-76.9230769230769,4,2,1,20,0,0
38270,-25,4,2,1,15,0,0
38672,-25,4,2,1,10,0,0
39075,-25,4,2,1,5,0,0
39377,-76.9230769230769,4,2,1,30,0,0

[Colours]
Combo1 : 255,128,64
Combo2 : 191,191,0
Combo3 : 0,255,64
Combo4 : 0,98,196

[HitObjects]
256,192,15,12,8,3236,0:2:0:0:
117,88,3437,5,2,0:2:0:0:
176,157,3538,1,2,0:2:0:0:
176,157,3639,2,0,L|176:202,2,25,2|0|2,0:2|0:2|0:2,0:0:0:0:
252,99,3840,1,0,0:2:0:0:
252,67,3941,2,0,L|317:67,1,50,2|0,0:2|0:2,0:0:0:0:
372,123,4142,1,2,0:2:0:0:
359,251,4243,2,0,P|388:210|439:192,1,100,2|2,0:2|0:2,0:0:0:0:
385,345,4545,2,0,P|334:344|290:313,1,100,2|2,0:2|0:2,0:0:0:0:
164,370,4847,6,0,L|164:261,1,100,2|0,0:2|0:2,0:0:0:0:
141,180,5149,1,2,0:2:0:0:
21,253,5249,2,0,B|84:253|84:253|100:270|100:270|164:270,1,150,2|0,0:2|0:2,0:0:0:0:
241,219,5652,1,0,0:2:0:0:
241,187,5753,1,2,0:2:0:0:
196,110,5853,1,2,0:0:0:0:
261,55,5954,2,0,L|303:55,2,25,0|0|0,0:2|0:2|0:2,0:0:0:0:
106,14,6155,2,0,L|106:127,1,100,2|0,0:2|0:0,0:0:0:0:
31,200,6457,6,0,B|84:220|85:187|138:207,1,110.000003356934,2|2,0:2|0:2,0:0:0:0:
203,260,6759,1,0,0:2:0:0:
264,192,6860,2,0,L|264:146,2,27.5000008392334,2|0|2,0:2|0:2|0:2,0:0:0:0:
328,323,7061,1,2,0:2:0:0:
328,323,7162,2,0,L|328:262,1,55.0000016784668,0|0,0:2|0:2,0:0:0:0:
391,202,7363,1,2,0:2:0:0:
481,295,7464,2,0,L|406:295,1,55.0000016784668,2|0,0:2|0:2,0:0:0:0:
391,202,7666,1,2,0:2:0:0:
501,71,7766,2,0,P|478:108|406:121,1,110.000003356934,2|0,0:2|0:2,0:0:0:0:
329,60,8068,6,0,B|282:60|282:60|270:73|270:73|211:73,1,110.000003356934,2|0,0:2|0:2,0:0:0:0:
167,1,8370,1,0,0:2:0:0:
224,73,8471,2,0,L|224:192,1,110.000003356934,2|0,0:2|0:2,0:0:0:0:
135,230,8773,1,0,0:2:0:0:
135,230,8874,2,0,L|135:156,1,55.0000016784668,2|0,0:2|0:2,0:0:0:0:
225,273,9075,1,0,0:2:0:0:
176,348,9176,2,0,B|98:316|98:383|14:347,1,165.000005035401,2|2,0:2|0:2,0:0:0:0:
80,123,9679,6,0,L|215:123,1,129.999994049073,14|2,0:2|0:2,0:0:0:0:
258,50,9981,1,2,0:2:0:0:
342,147,10082,1,2,1:2:0:0:
342,147,10132,1,2,0:2:0:0:
342,147,10182,2,0,L|342:233,1,64.9999970245363,2|0,0:2|0:2,0:0:0:0:
169,290,10384,6,0,P|191:228|253:207,1,135.000000514984,10|0,0:2|0:2,0:0:0:0:
252,373,10686,2,0,P|190:350|169:288,1,135.000000514984,10|0,0:2|1:2,0:0:0:0:
337,291,10988,2,0,P|314:352|252:373,1,135.000000514984,2|0,0:2|1:2,0:0:0:0:
252,206,11290,2,0,L|386:206,1,129.999994049073,2|8,0:2|0:2,0:0:0:0:
444,146,11592,1,0,0:2:0:0:
416,46,11692,6,0,B|323:46|323:46|296:22,1,129.999994049073,2|0,1:2|0:2,0:0:0:0:
200,17,11994,1,0,0:2:0:0:
231,142,12095,1,10,0:2:0:0:
231,111,12196,1,2,0:2:0:0:
90,29,12296,6,0,L|90:166,1,129.999994049073,2|0,1:2|0:2,0:0:0:0:
40,234,12598,1,0,0:2:0:0:
12,114,12699,2,0,B|-6:135|7:156|7:156|101:156,1,112.500004291535,10|0,0:2|0:2,0:0:0:0:
142,218,12900,6,0,B|142:279|142:279|135:291|135:291|135:354,1,129.999994049073,14|2,0:2|0:2,0:0:0:0:
214,384,13202,1,2,0:2:0:0:
267,316,13303,2,0,L|267:228,1,64.9999970245363,2|0,1:2|0:2,0:0:0:0:
358,347,13504,1,2,0:2:0:0:
412,252,13605,1,10,0:2:0:0:
413,281,13706,1,2,0:2:0:0:
434,165,13806,5,2,0:2:0:0:
340,193,13907,2,0,L|340:120,1,64.9999970245363,10|8,0:2|0:2,0:0:0:0:
434,165,14108,1,2,1:2:0:0:
291,36,14209,2,0,B|382:36|382:36|414:11,1,129.999994049073,2|2,0:2|1:2,0:0:0:0:
257,160,14511,2,0,P|220:102|144:81,1,129.999994049073,2|8,0:2|0:2,0:0:0:0:
168,176,14813,1,2,0:2:0:0:
73,39,14914,6,0,B|73:96|73:96|66:102|66:102|66:172,1,129.999994049073,2|0,1:2|0:2,0:0:0:0:
25,244,15216,1,0,0:2:0:0:
116,290,15317,1,10,0:2:0:0:
116,290,15417,2,0,L|116:243,2,32.4999985122681,2|0|0,0:2|0:2|1:2,0:0:0:0:
174,362,15619,1,10,0:2:0:0:
418,221,16323,6,0,B|357:245|357:194|293:221,1,129.999994049073,14|2,0:0|1:2,0:0:0:0:
292,221,16575,1,2,0:2:0:0:
292,221,16625,1,2,0:2:0:0:
250,139,16726,1,0,0:2:0:0:
182,220,16827,6,0,L|182:356,1,135.000000514984,10|0,0:2|0:2,0:0:0:0:
92,312,17129,2,0,L|92:176,1,135.000000514984,10|0,0:2|1:2,0:0:0:0:
6,215,17431,2,0,L|6:351,1,135.000000514984,2|0,0:2|1:2,0:0:0:0:
182,220,17733,2,0,B|182:153|182:153|247:153,1,129.999994049073,2|8,0:2|0:2,0:0:0:0:
273,236,18035,1,0,0:2:0:0:
317,71,18135,6,0,B|265:71|265:71|252:59|252:59|188:59,1,129.999994049073,2|0,1:2|0:2,0:0:0:0:
120,11,18437,1,0,0:2:0:0:
51,114,18538,1,10,0:2:0:0:
51,83,18639,1,2,0:2:0:0:
121,185,18739,6,0,B|250:185,1,129.999994049073,2|0,1:2|0:2,0:0:0:0:
300,118,19041,1,0,0:2:0:0:
326,243,19142,2,0,B|344:222|331:201|331:201|244:201,1,112.500004291535,10|0,0:2|0:2,0:0:0:0:
303,325,19343,6,0,B|363:325|363:325|370:316|370:316|436:316,1,129.999994049073,14|2,0:2|0:2,0:0:0:0:
471,237,19645,1,2,0:2:0:0:
385,170,19746,2,0,L|385:257,1,64.9999970245363,2|0,1:2|0:2,0:0:0:0:
458,95,19947,1,2,0:2:0:0:
383,40,20048,1,10,0:2:0:0:
319,95,20149,1,2,0:2:0:0:
254,39,20249,5,2,0:2:0:0:
192,110,20350,2,0,L|192:176,1,64.9999970245363,10|8,0:2|0:2,0:0:0:0:
254,39,20551,1,2,1:2:0:0:
112,41,20652,2,0,B|112:106|112:106|43:106,1,129.999994049073,2|2,0:2|1:2,0:0:0:0:
31,19,20954,5,10,0:2:0:0:
66,199,21155,1,0,0:2:0:0:
66,199,21256,2,0,L|144:199,1,64.9999970245363,0|0,0:2|1:2,0:0:0:0:
178,289,21457,6,0,L|54:289,1,119.999996337891,10|0,0:2|0:2,0:0:0:0:
270,343,21759,1,0,0:2:0:0:
270,343,21860,2,0,L|270:258,1,64.9999970245363,0|0,0:2|1:2,0:0:0:0:
361,228,22061,6,0,L|361:361,1,119.999996337891,10|0,0:2|0:2,0:0:0:0:
453,239,22363,1,0,0:2:0:0:
453,239,22464,2,0,L|453:159,1,64.9999970245363,0|0,0:2|1:2,0:0:0:0:
273,69,22666,6,0,L|273:195,1,119.999996337891,10|0,0:2|0:2,0:0:0:0:
429,69,22968,1,0,0:2:0:0:
429,69,23068,2,0,L|361:69,1,64.9999970245363,0|0,0:2|1:2,0:0:0:0:
190,53,23270,6,0,B|190:133|190:133|169:166|169:166|169:262,1,200,10|0,0:2|0:2,0:0:0:0:
220,333,24176,6,0,P|258:268|353:260,1,160,14|0,0:2|0:2,0:0:0:0:
404,314,24478,1,0,0:2:0:0:
474,187,24578,2,0,L|474:276,1,77.5000005912781,0|0,1:2|0:2,0:0:0:0:
389,170,24780,5,2,0:2:0:0:
389,137,24880,1,10,0:2:0:0:
301,79,24981,6,0,L|301:134,2,41.6666666666667,0|0|0,0:2|0:0|0:0,0:0:0:0:
207,52,25182,5,10,0:2:0:0:
207,85,25282,1,10,0:2:0:0:
229,209,25384,5,2,1:2:0:0:
229,177,25484,1,0,0:2:0:0:
321,223,25585,5,2,0:2:0:0:
321,256,25685,1,2,1:2:0:0:
260,327,25786,6,0,L|90:327,1,160,2|8,0:2|0:2,0:0:0:0:
21,269,26088,1,0,0:2:0:0:
80,169,26189,2,0,L|80:208,2,38.750000295639,0|0|0,1:2|0:2|0:2,0:0:0:0:
160,236,26390,1,0,0:2:0:0:
160,124,26491,5,2,0:2:0:0:
160,124,26592,2,0,P|132:95|90:79,1,77.5000005912781,8|2,0:2|0:2,0:0:0:0:
185,0,26793,1,0,1:2:0:0:
185,26,26894,1,10,0:2:0:0:
255,64,26994,1,0,0:2:0:0:
334,20,27095,6,0,L|334:134,1,100,2|0,0:2|0:2,0:0:0:0:
357,5,27397,6,0,B|357:65|357:65|346:86|346:86|346:166,1,160,14|0,0:2|0:2,0:0:0:0:
394,241,27699,1,0,0:2:0:0:
306,324,27800,2,0,L|306:236,1,77.5000005912781,0|0,1:2|0:2,0:0:0:0:
257,177,28001,5,2,0:2:0:0:
224,177,28101,1,10,0:2:0:0:
179,251,28202,6,0,L|125:251,2,45.0000001716614,0|0|0,0:2|0:0|0:0,0:0:0:0:
85,183,28403,5,10,0:2:0:0:
85,150,28503,1,10,0:2:0:0:
30,253,28605,5,2,1:2:0:0:
30,285,28705,1,0,0:2:0:0:
98,346,28806,5,2,0:2:0:0:
131,346,28906,1,2,1:2:0:0:
236,301,29008,6,0,B|205:269|205:269|205:137,1,160,2|8,0:2|0:2,0:0:0:0:
261,88,29310,1,0,0:2:0:0:
347,124,29410,2,0,L|347:213,1,77.5000005912781,0|0,1:2|0:2,0:0:0:0:
435,108,29612,5,0,0:2:0:0:
435,75,29712,1,2,0:2:0:0:
371,18,29813,1,0,0:2:0:0:
307,68,29914,2,0,L|307:120,2,33.750000128746,2|0|0,0:2|0:2|0:2,0:0:0:0:
223,30,30114,1,2,0:2:0:0:
223,30,30216,2,0,L|223:122,1,67.5000002574921,0|2,0:2|0:0,0:0:0:0:
29,177,30619,6,0,B|105:152|105:209|185:176,1,160,14|0,0:2|0:2,0:0:0:0:
268,223,30921,1,0,0:2:0:0:
195,346,31021,2,0,L|195:263,1,77.5000005912781,0|0,1:2|0:2,0:0:0:0:
331,309,31223,5,2,0:2:0:0:
298,309,31323,1,10,0:2:0:0:
412,291,31424,6,0,L|412:345,2,45.0000001716614,0|0|0,0:2|0:0|0:0,0:0:0:0:
468,228,31625,5,10,0:2:0:0:
468,195,31725,1,10,0:2:0:0:
365,166,31827,5,2,1:2:0:0:
365,199,31927,1,0,0:2:0:0:
464,105,32028,5,2,0:2:0:0:
431,105,32128,1,2,1:2:0:0:
364,28,32229,6,0,B|237:28|237:28|211:9,1,160,2|8,0:2|0:2,0:0:0:0:
138,51,32531,1,0,0:2:0:0:
54,17,32632,2,0,L|54:82,2,38.750000295639,0|0|0,1:2|0:2|0:2,0:0:0:0:
8,123,32833,1,0,0:2:0:0:
48,202,32934,5,2,0:2:0:0:
48,202,33035,2,0,B|36:237|36:237|46:277,1,77.5000005912781,8|2,0:2|0:2,0:0:0:0:
119,349,33236,1,0,1:2:0:0:
119,321,33337,1,10,0:2:0:0:
194,281,33437,1,0,0:2:0:0:
278,324,33538,6,0,L|278:238,1,80,2|0,0:2|0:0,0:0:0:0:
295,342,33840,6,0,L|295:177,1,160,14|0,0:2|0:2,0:0:0:0:
352,110,34142,1,0,0:2:0:0:
435,188,34243,2,0,L|435:101,1,77.5000005912781,0|0,1:2|0:2,0:0:0:0:
295,342,34444,6,0,L|295:173,1,165.000001573563,14|0,0:2|0:2,0:0:0:0:
221,120,34746,1,0,0:2:0:0:
185,200,34847,2,0,L|95:200,1,77.5000005912781,0|0,1:2|0:2,0:0:0:0:
172,34,35048,6,0,L|344:34,1,170.000003242493,14|0,0:2|0:2,0:0:0:0:
453,202,35350,6,0,L|279:202,1,170.000003242493,14|0,0:2|0:2,0:0:0:0:
172,34,35652,6,0,L|346:34,1,170.000003242493,14|0,0:2|0:2,0:0:0:0:
453,202,35954,6,0,L|281:203,1,170.000003242493,14|0,0:2|0:2,0:0:0:0:
156,14,36256,6,0,L|201:14,3,32.4999985122681,10|0|0|0,0:2|0:2|0:2|0:2,0:0:0:0:
256,192,36457,12,0,38270,0:0:0:0:
256,225,39377,6,0,L|256:153,1,64.9999970245363,2|0,0:0|0:2,0:0:0:0:
