osu file format v14

[General]
AudioFilename: audio.mp3
AudioLeadIn: 0
PreviewTime: 24125
Countdown: 0
SampleSet: Soft
StackLeniency: 0.3
Mode: 0
LetterboxInBreaks: 0
WidescreenStoryboard: 1

[Editor]
Bookmarks: 15921,17129
DistanceSpacing: 1
BeatDivisor: 4
GridSize: 32
TimelineZoom: 1.9

[Metadata]
Title:teclitas locas (Short Ver.)
TitleUnicode:teclitas locas (Short Ver.)
Artist:pm04034
ArtistUnicode:pm04034
Creator:pewdekz
Version:advanced
Source:
Tags:piano instrumental electronic crazy keyboard rainbow
BeatmapID:3072336
BeatmapSetID:1141064

[Difficulty]
HPDrainRate:3.5
CircleSize:3.4
OverallDifficulty:4.5
ApproachRate:5.5
SliderMultiplier:1.2
SliderTickRate:0.5

[Events]
//Background and Video events
0,0,"rainbow piano.jpg",0,0
//Break Periods
//Storyboard Layer 0 (Background)
//Storyboard Layer 1 (Fail)
//Storyboard Layer 2 (Pass)
//Storyboard Layer 3 (Foreground)
//Storyboard Layer 4 (Overlay)
//Storyboard Sound Samples

[TimingPoints]
15,402.684563758389,4,2,1,5,1,0
417,-100,4,2,1,10,0,0
820,-100,4,2,1,15,0,0
1223,-100,4,2,1,20,0,0
1625,-100,4,2,1,25,0,0
2028,-100,4,2,1,30,0,0
2431,-100,4,2,1,35,0,0
2833,-100,4,2,1,40,0,0
3236,-100,4,2,1,45,0,0
6457,-100,4,2,1,45,0,0
9679,-97.0873786407767,4,2,1,50,0,0
10384,-97.0873786407767,4,2,1,50,0,0
11290,-97.0873786407767,4,2,1,50,0,0
12699,-97.0873786407767,4,2,1,50,0,0
12900,-97.0873786407767,4,2,1,50,0,0
16323,-97.0873786407767,4,2,1,50,0,0
16827,-97.0873786407767,4,2,1,50,0,0
17733,-97.0873786407767,4,2,1,50,0,0
19142,-97.0873786407767,4,2,1,50,0,0
19343,-97.0873786407767,4,2,1,50,0,0
21457,-97.0873786407767,4,2,1,50,0,0
21860,-97.0873786407767,4,2,1,50,0,0
22061,-97.0873786407767,4,2,1,50,0,0
22363,-97.0873786407767,4,2,1,50,0,0
22666,-97.0873786407767,4,2,1,50,0,0
23068,-97.0873786407767,4,2,1,50,0,0
23270,-97.0873786407767,4,2,1,50,0,0
23370,-97.0873786407767,4,2,1,5,0,0
24176,-93.4579439252336,4,2,1,55,0,1
24377,-93.4579439252336,4,2,1,55,0,1
24981,-93.4579439252336,4,2,1,55,0,1
25182,-93.4579439252336,4,2,1,55,0,1
25786,-93.4579439252336,4,2,1,55,0,1
25988,-93.4579439252336,4,2,1,55,0,1
27095,-93.4579439252336,4,2,1,55,0,0
27347,-93.4579439252336,4,2,1,5,0,0
27397,-93.4579439252336,4,2,1,55,0,1
27598,-93.4579439252336,4,2,1,55,0,1
28202,-93.4579439252336,4,2,1,55,0,1
28403,-93.4579439252336,4,2,1,55,0,1
29008,-93.4579439252336,4,2,1,55,0,1
29209,-93.4579439252336,4,2,1,55,0,1
29813,-93.4579439252336,4,2,1,55,0,0
30317,-93.4579439252336,4,2,1,55,0,0
30619,-93.4579439252336,4,2,1,55,0,1
30820,-93.4579439252336,4,2,1,55,0,1
31424,-93.4579439252336,4,2,1,55,0,1
32229,-93.4579439252336,4,2,1,55,0,1
32431,-93.4579439252336,4,2,1,55,0,1
33538,-93.4579439252336,4,2,1,55,0,0
33790,-93.4579439252336,4,2,1,5,0,0
33840,-93.4579439252336,4,2,1,55,0,1
34243,-93.4579439252336,4,2,1,55,0,0
34444,-93.4579439252336,4,2,1,55,0,1
34847,-93.4579439252336,4,2,1,55,0,0
35048,-93.4579439252336,4,2,1,55,0,1
35249,-93.4579439252336,4,2,1,55,0,0
35350,-93.4579439252336,4,2,1,55,0,1
35551,-93.4579439252336,4,2,1,55,0,0
35652,-93.4579439252336,4,2,1,55,0,1
35853,-93.4579439252336,4,2,1,55,0,0
35954,-93.4579439252336,4,2,1,55,0,1
36155,-62.5,4,2,1,55,0,0
36256,-76.9230769230769,4,2,1,40,0,0
36659,-76.9230769230769,4,2,1,35,0,0
37061,-76.9230769230769,4,2,1,30,0,0
37464,-76.9230769230769,4,2,1,25,0,0
37867,-76.9230769230769,4,2,1,20,0,0
38270,-25,4,2,1,15,0,0
38672,-25,4,2,1,10,0,0
39075,-25,4,2,1,5,0,0
39377,-95.2380952380952,4,2,1,30,0,0

[Colours]
Combo1 : 255,0,0
Combo2 : 191,191,0
Combo3 : 0,255,64
Combo4 : 0,98,196

[HitObjects]
256,192,15,12,8,3236,0:2:0:0:
56,51,3639,6,0,L|56:176,1,120,2|0,0:2|0:2,0:0:0:0:
105,235,4243,1,2,0:2:0:0:
105,235,4444,2,0,L|226:235,1,120,2|2,0:2|0:2,0:0:0:0:
356,297,5249,2,0,P|378:235|354:178,1,120,2|0,0:2|0:2,0:0:0:0:
315,124,5853,1,2,0:0:0:0:
335,18,6155,1,2,0:2:0:0:
223,1,6457,6,0,B|164:16|164:16|103:1,1,120,2|2,0:2|0:2,0:0:0:0:
37,31,7061,1,2,0:2:0:0:
37,31,7263,2,0,L|37:156,1,120,0|2,0:2|0:2,0:0:0:0:
72,217,7867,1,0,0:0:0:0:
128,168,8068,2,0,P|155:163|192:173,1,60,2|0,0:2|0:2,0:0:0:0:
246,215,8471,2,0,B|246:264|246:264|254:278|254:278|254:345,1,120,2|2,0:2|0:2,0:0:0:0:
350,382,9176,1,2,0:2:0:0:
413,296,9478,1,2,0:2:0:0:
366,234,9679,6,0,P|354:207|354:172,1,61.7999994813538,14|2,0:2|0:2,0:0:0:0:
401,116,10082,2,0,P|401:68|371:26,1,92.6999992220306,2|10,1:2|0:2,0:0:0:0:
275,7,10686,1,10,0:2:0:0:
179,50,10988,1,2,0:2:0:0:
75,17,11290,2,0,L|75:94,1,61.7999994813538,2|8,0:2|0:2,0:0:0:0:
99,151,11692,2,0,B|159:168|159:122|226:153,1,123.599998962708,2|10,1:2|0:2,0:0:0:0:
278,200,12296,2,0,L|278:326,1,123.599998962708,2|10,1:2|0:2,0:0:0:0:
221,376,12900,5,14,0:2:0:0:
164,322,13102,2,0,L|164:267,2,30.8999997406769,2|2|2,0:2|0:2|1:2,0:0:0:0:
104,370,13504,1,2,0:2:0:0:
44,320,13706,2,0,L|44:240,1,61.7999994813538,2|10,0:2|0:2,0:0:0:0:
79,189,14108,2,0,L|121:189,1,30.8999997406769,2|2,1:2|0:2,0:0:0:0:
47,118,14410,2,0,L|5:118,1,30.8999997406769,2|2,1:2|0:2,0:0:0:0:
92,50,14712,2,0,P|119:56|157:49,1,61.7999994813538,8|2,0:2|1:2,0:0:0:0:
218,10,15115,1,0,0:2:0:0:
285,47,15317,2,0,L|285:147,1,92.6999992220306,10|10,0:2|0:2,0:0:0:0:
401,228,16323,5,14,0:0:0:0:
357,291,16525,2,0,P|327:283|289:294,1,61.7999994813538,2|0,1:2|0:2,0:0:0:0:
267,308,16827,1,10,0:2:0:0:
233,214,17129,1,10,0:2:0:0:
262,121,17431,1,2,0:2:0:0:
216,33,17733,2,0,L|138:33,1,61.7999994813538,2|8,0:2|0:2,0:0:0:0:
95,83,18135,2,0,B|95:128|95:128|78:151|78:151|78:201,1,123.599998962708,2|10,1:2|0:2,0:0:0:0:
110,271,18739,2,0,P|170:252|228:273,1,123.599998962708,2|10,1:2|0:2,0:0:0:0:
288,313,19343,5,14,0:2:0:0:
345,260,19545,2,0,L|345:217,2,30.8999997406769,2|2|2,0:2|0:2|1:2,0:0:0:0:
404,309,19947,1,2,0:2:0:0:
460,256,20149,2,0,P|466:224|456:183,1,61.7999994813538,2|10,0:2|0:2,0:0:0:0:
479,120,20551,2,0,L|513:120,1,30.8999997406769,2|2,1:2|0:2,0:0:0:0:
459,41,20853,1,2,1:2:0:0:
459,41,20954,2,0,L|391:41,1,61.7999994813538,10|0,0:2|0:2,0:0:0:0:
374,71,21256,1,0,0:2:0:0:
294,41,21457,6,0,L|294:146,1,92.6999992220306,10|0,0:2|0:2,0:0:0:0:
311,174,21860,1,0,0:2:0:0:
265,240,22061,2,0,L|153:240,1,92.6999992220306,10|0,0:2|0:2,0:0:0:0:
143,212,22464,1,0,0:2:0:0:
64,180,22666,2,0,L|64:292,1,92.6999992220306,10|0,0:2|0:2,0:0:0:0:
39,305,23068,1,0,0:2:0:0:
83,376,23270,1,10,0:2:0:0:
33,98,24176,6,0,L|162:98,1,128.399996081543,14|0,0:2|1:2,0:0:0:0:
229,54,24780,1,2,0:2:0:0:
282,113,24981,2,0,P|265:144|266:176,1,64.1999980407715,0|10,0:2|0:2,0:0:0:0:
305,242,25384,2,0,L|353:242,2,32.0999990203858,2|0|2,1:2|0:2|0:2,0:0:0:0:
254,303,25786,6,0,B|192:322|192:322|133:298,1,128.399996081543,2|0,0:2|1:2,0:0:0:0:
65,255,26390,1,0,0:2:0:0:
106,186,26592,2,0,L|155:186,2,32.0999990203858,8|2|0,0:2|0:2|1:2,0:0:0:0:
56,123,26994,2,0,L|56:70,1,32.0999990203858,0|2,0:2|0:2,0:0:0:0:
147,12,27397,6,0,P|204:34|265:14,1,128.399996081543,14|0,0:2|1:2,0:0:0:0:
343,32,28001,1,2,0:2:0:0:
343,32,28202,2,0,L|343:104,1,64.1999980407715,0|10,0:2|0:2,0:0:0:0:
420,118,28605,2,0,L|420:76,2,32.0999990203858,2|0|2,1:2|0:2|0:2,0:0:0:0:
435,197,29008,6,0,B|383:197|383:197|366:181|366:181|302:181,1,128.399996081543,2|0,0:2|1:2,0:0:0:0:
246,227,29612,1,0,0:2:0:0:
217,152,29813,1,0,0:2:0:0:
39,44,30619,6,0,B|71:69|71:69|71:162,1,128.399996081543,14|0,0:2|1:2,0:0:0:0:
72,237,31223,1,2,0:2:0:0:
139,280,31424,2,0,L|194:280,2,32.0999990203858,0|0|10,0:2|0:2|0:2,0:0:0:0:
192,357,31827,2,0,L|148:357,2,32.0999990203858,2|0|2,1:2|0:2|0:2,0:0:0:0:
248,299,32229,6,0,B|312:324|312:275|374:308,1,128.399996081543,2|0,0:2|1:2,0:0:0:0:
441,348,32833,1,0,0:2:0:0:
475,275,33035,2,0,L|475:220,2,32.0999990203858,8|2|0,0:2|0:2|1:2,0:0:0:0:
399,225,33437,2,0,L|399:173,1,32.0999990203858,0|2,0:2|0:2,0:0:0:0:
334,97,33840,6,0,L|200:97,1,128.399996081543,14|0,0:2|1:2,0:0:0:0:
187,175,34444,2,0,L|319:175,1,128.399996081543,14|0,0:2|1:2,0:0:0:0:
376,229,35048,2,0,L|376:327,2,96.2999970611573,14|14|14,0:2|0:2|0:2,0:0:0:0:
440,133,35954,1,14,0:2:0:0:
373,46,36256,5,10,0:2:0:0:
256,192,36457,12,2,39377,0:0:0:0:
