osu file format v14

[General]
AudioFilename: audio.mp3
AudioLeadIn: 0
PreviewTime: 24125
Countdown: 0
SampleSet: Soft
StackLeniency: 0.3
Mode: 0
LetterboxInBreaks: 0
WidescreenStoryboard: 1

[Editor]
Bookmarks: 15921,17129
DistanceSpacing: 1
BeatDivisor: 4
GridSize: 32
TimelineZoom: 1.9

[Metadata]
Title:teclitas locas (Short Ver.)
TitleUnicode:teclitas locas (Short Ver.)
Artist:pm04034
ArtistUnicode:pm04034
Creator:pewdekz
Version:hyper
Source:
Tags:piano instrumental electronic crazy keyboard rainbow
BeatmapID:3072053
BeatmapSetID:1141064

[Difficulty]
HPDrainRate:4
CircleSize:3.6
OverallDifficulty:6
ApproachRate:7.5
SliderMultiplier:1.5
SliderTickRate:0.5

[Events]
//Background and Video events
0,0,"rainbow piano.jpg",0,0
//Break Periods
//Storyboard Layer 0 (Background)
//Storyboard Layer 1 (Fail)
//Storyboard Layer 2 (Pass)
//Storyboard Layer 3 (Foreground)
//Storyboard Layer 4 (Overlay)
//Storyboard Sound Samples

[TimingPoints]
15,402.684563758389,4,2,1,5,1,0
417,-100,4,2,1,10,0,0
820,-100,4,2,1,15,0,0
1223,-100,4,2,1,20,0,0
1625,-100,4,2,1,25,0,0
2028,-100,4,2,1,30,0,0
2431,-100,4,2,1,35,0,0
2833,-100,4,2,1,40,0,0
3236,-100,4,2,1,45,0,0
6457,-98.0392156862745,4,2,1,45,0,0
9679,-95.2380952380952,4,2,1,50,0,0
10384,-95.2380952380952,4,2,1,50,0,0
11290,-95.2380952380952,4,2,1,50,0,0
12699,-95.2380952380952,4,2,1,50,0,0
12900,-95.2380952380952,4,2,1,50,0,0
16323,-95.2380952380952,4,2,1,50,0,0
16827,-95.2380952380952,4,2,1,50,0,0
17733,-95.2380952380952,4,2,1,50,0,0
19142,-95.2380952380952,4,2,1,50,0,0
19343,-95.2380952380952,4,2,1,50,0,0
21457,-95.2380952380952,4,2,1,50,0,0
21860,-95.2380952380952,4,2,1,50,0,0
22061,-95.2380952380952,4,2,1,50,0,0
22363,-95.2380952380952,4,2,1,50,0,0
22666,-95.2380952380952,4,2,1,50,0,0
23068,-95.2380952380952,4,2,1,50,0,0
23270,-125,4,2,1,50,0,0
23370,-95.2380952380952,4,2,1,5,0,0
24176,-90.9090909090909,4,2,1,55,0,1
24377,-90.9090909090909,4,2,1,55,0,1
24981,-90.9090909090909,4,2,1,55,0,1
25182,-90.9090909090909,4,2,1,55,0,1
25786,-90.9090909090909,4,2,1,55,0,1
25988,-90.9090909090909,4,2,1,55,0,1
27095,-90.9090909090909,4,2,1,55,0,0
27296,-90.9090909090909,4,2,1,5,0,0
27397,-90.9090909090909,4,2,1,55,0,1
27598,-90.9090909090909,4,2,1,55,0,1
28202,-90.9090909090909,4,2,1,55,0,1
28403,-90.9090909090909,4,2,1,55,0,1
29008,-90.9090909090909,4,2,1,55,0,1
29209,-90.9090909090909,4,2,1,55,0,1
29813,-90.9090909090909,4,2,1,55,0,0
30317,-90.9090909090909,4,2,1,55,0,0
30619,-90.9090909090909,4,2,1,55,0,1
30820,-90.9090909090909,4,2,1,55,0,1
31424,-90.9090909090909,4,2,1,55,0,1
32229,-90.9090909090909,4,2,1,55,0,1
32431,-90.9090909090909,4,2,1,55,0,1
33538,-90.9090909090909,4,2,1,55,0,0
33790,-90.9090909090909,4,2,1,5,0,0
33840,-90.9090909090909,4,2,1,55,0,1
34243,-90.9090909090909,4,2,1,55,0,0
34444,-90.9090909090909,4,2,1,55,0,1
34847,-90.9090909090909,4,2,1,55,0,0
35048,-90.9090909090909,4,2,1,55,0,1
35249,-90.9090909090909,4,2,1,55,0,0
35350,-90.9090909090909,4,2,1,55,0,1
35551,-90.9090909090909,4,2,1,55,0,0
35652,-90.9090909090909,4,2,1,55,0,1
35853,-90.9090909090909,4,2,1,55,0,0
35954,-90.9090909090909,4,2,1,55,0,1
36155,-62.5,4,2,1,55,0,0
36256,-76.9230769230769,4,2,1,40,0,0
36659,-76.9230769230769,4,2,1,35,0,0
37061,-76.9230769230769,4,2,1,30,0,0
37464,-76.9230769230769,4,2,1,25,0,0
37867,-76.9230769230769,4,2,1,20,0,0
38270,-25,4,2,1,15,0,0
38672,-25,4,2,1,10,0,0
39075,-25,4,2,1,5,0,0
39377,-95.2380952380952,4,2,1,30,0,0

[Colours]
Combo1 : 255,128,64
Combo2 : 191,191,0
Combo3 : 0,255,64
Combo4 : 0,98,196

[HitObjects]
256,192,15,12,8,3236,0:2:0:0:
91,25,3437,5,2,0:2:0:0:
133,101,3639,2,0,L|216:101,1,75,2|0,0:2|0:2,0:0:0:0:
272,193,4041,2,0,L|272:137,1,37.5,0|2,0:2|0:2,0:0:0:0:
289,115,4243,2,0,B|323:125|323:125|362:115,1,75,2|2,0:2|0:2,0:0:0:0:
395,88,4545,1,2,0:2:0:0:
463,171,4746,1,2,0:2:0:0:
463,171,4847,6,0,L|463:257,1,75,2|0,0:2|0:2,0:0:0:0:
443,290,5149,1,2,0:2:0:0:
443,290,5249,2,0,P|391:272|332:290,1,112.5,2|0,0:2|0:2,0:0:0:0:
312,315,5652,1,0,0:2:0:0:
242,253,5853,2,0,L|242:165,1,75,2|0,0:0|0:2,0:0:0:0:
223,141,6155,2,0,P|184:149|149:139,1,75,2|0,0:2|0:0,0:0:0:0:
125,104,6457,5,2,0:2:0:0:
38,82,6659,1,2,0:2:0:0:
11,170,6860,2,0,L|11:248,1,76.5000004669189,2|2,0:2|0:2,0:0:0:0:
29,288,7162,1,0,0:2:0:0:
29,288,7263,2,0,L|69:288,1,38.2500002334595,0|2,0:2|0:2,0:0:0:0:
104,302,7464,2,0,B|104:225,1,76.5000004669189,2|2,0:2|0:2,0:0:0:0:
134,195,7766,1,2,0:2:0:0:
226,228,7968,1,0,0:2:0:0:
226,228,8068,5,2,0:2:0:0:
295,158,8270,1,0,0:2:0:0:
295,158,8370,1,0,0:2:0:0:
295,158,8471,2,0,B|340:158|340:158|367:177|367:177|408:177,1,114.750000700378,2|0,0:2|0:2,0:0:0:0:
438,147,8874,1,2,0:2:0:0:
468,41,9075,1,0,0:2:0:0:
468,41,9176,2,0,L|348:41,1,114.750000700378,2|2,0:2|0:2,0:0:0:0:
257,0,9679,6,0,B|276:19|276:19|276:81,1,78.7499975967408,14|2,0:2|0:2,0:0:0:0:
261,118,9981,1,2,0:2:0:0:
261,118,10082,2,0,L|261:171,2,39.3749987983704,2|2|0,1:2|0:2|0:2,0:0:0:0:
213,96,10384,2,0,L|99:96,1,78.7499975967408,10|0,0:2|0:2,0:0:0:0:
101,124,10686,2,0,L|101:238,1,78.7499975967408,10|0,0:2|1:2,0:0:0:0:
101,244,10988,1,2,0:2:0:0:
181,300,11189,1,0,1:2:0:0:
181,300,11290,6,0,P|223:290|266:305,1,78.7499975967408,2|8,0:2|0:2,0:0:0:0:
287,313,11592,1,0,0:2:0:0:
319,332,11692,2,0,P|369:336|415:285,1,118.124996395111,2|0,1:2|0:2,0:0:0:0:
423,252,12095,2,0,L|423:184,1,39.3749987983704,10|2,0:2|0:2,0:0:0:0:
395,176,12296,2,0,B|340:203|340:152|279:184,1,118.124996395111,2|0,1:2|0:2,0:0:0:0:
247,202,12699,1,10,0:2:0:0:
167,119,12900,6,0,L|167:23,1,78.7499975967408,14|2,0:2|0:2,0:0:0:0:
140,10,13202,1,2,0:2:0:0:
140,10,13303,2,0,L|83:10,3,39.3749987983704,2|0|2|10,1:2|0:2|0:2|0:2,0:0:0:0:
72,51,13706,1,2,0:2:0:0:
72,51,13806,1,2,0:2:0:0:
72,51,13907,2,0,L|72:137,1,78.7499975967408,10|2,0:2|1:2,0:0:0:0:
72,173,14209,1,2,0:2:0:0:
122,266,14410,1,2,1:2:0:0:
122,266,14511,5,2,0:2:0:0:
214,230,14712,1,8,0:2:0:0:
214,205,14813,1,2,0:2:0:0:
215,178,14914,2,0,B|273:196|273:157|334:187,1,118.124996395111,2|0,1:2|0:2,0:0:0:0:
368,209,15317,1,10,0:2:0:0:
456,266,15518,2,0,L|456:208,1,39.3749987983704,0|10,1:2|0:2,0:0:0:0:
336,358,16323,5,14,0:0:0:0:
280,295,16525,2,0,L|280:239,2,39.3749987983704,2|2|0,1:2|0:2|0:2,0:0:0:0:
241,320,16827,2,0,P|203:301|167:305,1,78.7499975967408,10|0,0:2|0:2,0:0:0:0:
131,330,17129,2,0,P|92:332|57:314,1,78.7499975967408,10|0,0:2|1:2,0:0:0:0:
36,275,17431,1,2,0:2:0:0:
60,177,17632,1,0,1:2:0:0:
60,177,17733,6,0,B|98:162|98:162|140:180,1,78.7499975967408,2|8,0:2|0:2,0:0:0:0:
176,161,18035,1,0,0:2:0:0:
176,161,18135,2,0,B|176:108|176:108|166:98|166:98|166:38,1,118.124996395111,2|0,1:2|0:2,0:0:0:0:
194,11,18538,2,0,L|252:11,1,39.3749987983704,10|2,0:2|0:2,0:0:0:0:
272,40,18739,2,0,B|294:61|294:61|294:157,1,118.124996395111,2|0,1:2|0:2,0:0:0:0:
291,192,19142,1,10,0:2:0:0:
375,233,19343,6,0,L|463:233,1,78.7499975967408,14|2,0:2|0:2,0:0:0:0:
486,260,19645,1,2,0:2:0:0:
486,260,19746,2,0,L|486:318,3,39.3749987983704,2|0|2|10,1:2|0:2|0:2|0:2,0:0:0:0:
467,345,20149,1,2,0:2:0:0:
467,345,20249,1,2,0:2:0:0:
467,345,20350,2,0,B|428:329|428:329|385:344,1,78.7499975967408,10|2,0:2|1:2,0:0:0:0:
362,364,20652,1,2,0:2:0:0:
263,267,20853,1,2,1:2:0:0:
263,267,20954,6,0,L|352:267,1,78.7499975967408,10|0,0:2|0:2,0:0:0:0:
382,243,21256,2,0,L|382:184,1,39.3749987983704,0|0,0:2|1:2,0:0:0:0:
342,168,21457,2,0,L|215:168,1,118.124996395111,10|0,0:2|0:2,0:0:0:0:
177,146,21860,2,0,L|177:87,1,39.3749987983704,0|0,0:2|1:2,0:0:0:0:
213,71,22061,2,0,L|340:71,1,118.124996395111,10|0,0:2|0:2,0:0:0:0:
376,39,22464,2,0,L|376:-20,1,39.3749987983704,0|0,0:2|1:2,0:0:0:0:
413,86,22666,6,0,L|413:209,1,118.124996395111,10|0,0:2|0:2,0:0:0:0:
437,251,23068,2,0,L|501:251,1,39.3749987983704,0|0,0:2|1:2,0:0:0:0:
512,207,23270,1,10,0:2:0:0:
378,362,24176,6,0,B|300:325|300:379|215:351,1,165.000005035401,14|0,0:2|1:2,0:0:0:0:
138,291,24780,1,2,0:2:0:0:
138,260,24880,1,10,0:2:0:0:
138,229,24981,1,0,0:2:0:0:
264,262,25182,2,0,L|264:209,1,41.2500012588501,10|10,0:2|0:2,0:0:0:0:
239,179,25384,1,2,1:2:0:0:
239,179,25484,1,0,0:2:0:0:
239,179,25585,2,0,L|239:117,1,41.2500012588501,2|2,0:2|1:2,0:0:0:0:
289,76,25786,6,0,P|344:53|407:79,1,123.75000377655,2|0,0:2|0:2,0:0:0:0:
440,119,26189,2,0,L|513:119,2,41.2500012588501,0|0|0,1:2|0:2|0:2,0:0:0:0:
409,177,26491,1,2,0:2:0:0:
409,177,26592,2,0,L|409:271,1,82.5000025177003,8|0,0:2|1:2,0:0:0:0:
371,346,26994,1,0,0:2:0:0:
348,319,27095,2,0,L|238:319,1,82.5000025177003,2|0,0:2|0:0,0:0:0:0:
181,312,27397,6,0,B|181:231|181:231|170:216|170:216|170:134,1,165.000005035401,14|0,0:2|1:2,0:0:0:0:
131,55,28001,1,2,0:2:0:0:
99,63,28101,1,10,0:2:0:0:
67,55,28202,1,0,0:2:0:0:
11,157,28404,1,10,0:2:0:0:
11,157,28504,1,10,0:2:0:0:
11,157,28605,2,0,P|8:187|13:214,1,41.2500012588501,2|0,1:2|0:2,0:0:0:0:
39,245,28806,2,0,P|44:274|33:305,1,41.2500012588501,2|2,0:2|1:2,0:0:0:0:
77,355,29008,6,0,L|200:355,1,123.75000377655,2|0,0:2|0:2,0:0:0:0:
228,305,29410,2,0,L|228:252,2,41.2500012588501,0|0|0,1:2|0:2|0:2,0:0:0:0:
282,335,29712,1,2,0:2:0:0:
282,335,29813,2,0,B|322:321|322:321|372:336,1,82.5000025177003,0|0,0:2|0:2,0:0:0:0:
394,240,30216,2,0,L|338:240,1,41.2500012588501,0|2,0:2|0:0,0:0:0:0:
223,190,30619,6,0,P|200:123|235:32,1,165.000005035401,14|0,0:2|1:2,0:0:0:0:
341,9,31223,1,2,0:2:0:0:
341,40,31323,1,10,0:2:0:0:
341,71,31424,1,0,0:2:0:0:
453,108,31625,2,0,L|453:161,1,41.2500012588501,10|10,0:2|0:2,0:0:0:0:
437,211,31827,1,2,1:2:0:0:
437,211,31927,1,0,0:2:0:0:
437,211,32028,2,0,L|375:211,1,41.2500012588501,2|2,0:2|1:2,0:0:0:0:
335,265,32229,6,0,B|279:265|279:265|266:276|266:276|207:276,1,123.75000377655,2|0,0:2|0:2,0:0:0:0:
178,232,32632,2,0,L|105:232,2,41.2500012588501,0|0|0,1:2|0:2|0:2,0:0:0:0:
210,190,32934,1,2,0:2:0:0:
210,190,33035,2,0,B|221:147|221:147|211:104,1,82.5000025177003,8|0,0:2|1:2,0:0:0:0:
91,22,33437,1,0,0:2:0:0:
70,49,33538,2,0,P|82:97|70:131,1,82.5000025177003,2|0,0:2|0:0,0:0:0:0:
9,174,33840,6,0,L|177:174,1,165.000005035401,14|0,0:2|1:2,0:0:0:0:
279,120,34444,2,0,L|279:288,1,165.000005035401,14|0,0:2|1:2,0:0:0:0:
199,374,35048,6,0,L|81:374,1,82.5000025177003,14|0,0:2|0:2,0:0:0:0:
61,321,35350,2,0,L|61:203,1,82.5000025177003,14|0,0:2|0:2,0:0:0:0:
111,181,35652,2,0,L|193:181,1,82.5000025177003,14|0,0:2|0:2,0:0:0:0:
247,240,35954,1,14,0:2:0:0:
293,100,36256,5,10,0:2:0:0:
256,192,36457,12,0,38270,0:0:0:0:
256,210,39377,6,0,L|256:143,1,39.3749987983704,2|0,0:0|0:2,0:0:0:0:
