osu file format v14

[General]
AudioFilename: audio.mp3
AudioLeadIn: 0
PreviewTime: 9679
Countdown: 0
SampleSet: Normal
StackLeniency: 1
Mode: 1
LetterboxInBreaks: 0
WidescreenStoryboard: 0

[Editor]
DistanceSpacing: 0.9
BeatDivisor: 4
GridSize: 32
TimelineZoom: 0.9

[Metadata]
Title:teclitas locas (Short Ver.)
TitleUnicode:teclitas locas (Short Ver.)
Artist:pm04034
ArtistUnicode:pm04034
Creator:Axer
Version:mid's futsuu
Source:
Tags:piano electronic instrumental midnaait gaston_2199
BeatmapID:2358751
BeatmapSetID:1109750

[Difficulty]
HPDrainRate:9
CircleSize:2
OverallDifficulty:4
ApproachRate:10
SliderMultiplier:1.4
SliderTickRate:1

[Events]
//Background and Video events
0,0,"pianitox.jpg",0,-100
//Break Periods
//Storyboard Layer 0 (Background)
//Storyboard Layer 1 (Fail)
//Storyboard Layer 2 (Pass)
//Storyboard Layer 3 (Foreground)
//Storyboard Layer 4 (Overlay)
//Storyboard Sound Samples

[TimingPoints]
15,402.684563758389,4,1,0,5,1,0
15,-100,4,1,0,5,0,0
115,-100,4,1,0,6,0,0
216,-100,4,1,0,8,0,0
317,-100,4,1,0,9,0,0
417,-100,4,1,0,11,0,0
518,-100,4,1,0,12,0,0
619,-100,4,1,0,13,0,0
719,-100,4,1,0,15,0,0
820,-100,4,1,0,16,0,0
921,-100,4,1,0,18,0,0
1021,-100,4,1,0,19,0,0
1122,-100,4,1,0,20,0,0
1223,-100,4,1,0,22,0,0
1323,-100,4,1,0,23,0,0
1424,-100,4,1,0,25,0,0
1525,-100,4,1,0,26,0,0
1625,-100,4,1,0,28,0,0
1726,-100,4,1,0,29,0,0
1827,-100,4,1,0,30,0,0
1927,-100,4,1,0,32,0,0
2028,-100,4,1,0,33,0,0
2129,-100,4,1,0,35,0,0
2229,-100,4,1,0,36,0,0
2330,-100,4,1,0,37,0,0
2431,-100,4,1,0,39,0,0
2531,-100,4,1,0,40,0,0
2632,-100,4,1,0,42,0,0
2733,-100,4,1,0,43,0,0
2833,-100,4,1,0,44,0,0
2934,-100,4,1,0,46,0,0
3035,-100,4,1,0,47,0,0
3135,-100,4,1,0,49,0,0
3236,-100,4,1,0,50,0,0
9679,-100,4,1,0,70,0,0
24176,-100,4,1,0,70,0,1
29712,-100,4,1,0,70,0,0
30619,-100,4,1,0,70,0,1
36256,-100,4,1,0,70,0,0
36558,-100,4,1,0,68,0,0
36659,-100,4,1,0,65,0,0
36759,-100,4,1,0,63,0,0
36860,-100,4,1,0,61,0,0
36961,-100,4,1,0,58,0,0
37061,-100,4,1,0,56,0,0
37162,-100,4,1,0,54,0,0
37263,-100,4,1,0,51,0,0
37363,-100,4,1,0,49,0,0
37464,-100,4,1,0,47,0,0
37565,-100,4,1,0,44,0,0
37666,-100,4,1,0,42,0,0
37766,-100,4,1,0,40,0,0
37867,-100,4,1,0,38,0,0
37968,-100,4,1,0,35,0,0
38068,-100,4,1,0,33,0,0
38169,-100,4,1,0,31,0,0
38270,-100,4,1,0,28,0,0
38370,-100,4,1,0,26,0,0
38471,-100,4,1,0,24,0,0
38572,-100,4,1,0,21,0,0
38672,-100,4,1,0,19,0,0
38773,-100,4,1,0,17,0,0
38874,-100,4,1,0,14,0,0
38974,-100,4,1,0,12,0,0
39075,-100,4,1,0,10,0,0
39176,-100,4,1,0,7,0,0
39276,-100,4,1,0,5,0,0

[HitObjects]
256,192,15,8,0,2833,0:0:0:0:
160,96,3236,5,0,0:0:0:0:
160,96,3639,1,8,0:0:0:0:
160,96,3840,1,0,0:0:0:0:
160,96,4243,1,0,0:0:0:0:
160,96,4444,1,0,0:0:0:0:
160,96,4645,1,8,0:0:0:0:
160,96,4847,1,0,0:0:0:0:
160,96,5249,1,8,0:0:0:0:
160,96,5652,1,0,0:0:0:0:
160,96,5853,1,8,0:0:0:0:
160,96,6457,1,0,0:0:0:0:
160,96,6860,1,8,0:0:0:0:
160,96,7061,1,8,0:0:0:0:
160,96,7464,1,0,0:0:0:0:
160,96,7666,1,8,0:0:0:0:
160,96,7867,1,8,0:0:0:0:
160,96,8068,1,0,0:0:0:0:
160,96,8471,1,8,0:0:0:0:
160,96,8874,1,8,0:0:0:0:
160,96,9679,1,4,0:0:0:0:
160,96,10082,1,8,0:0:0:0:
160,96,10686,1,0,0:0:0:0:
160,96,10988,1,0,0:0:0:0:
160,96,11290,1,8,0:0:0:0:
160,96,11692,1,8,0:0:0:0:
160,96,12095,1,0,0:0:0:0:
160,96,12296,1,8,0:0:0:0:
160,96,12699,1,8,0:0:0:0:
160,96,12900,1,4,0:0:0:0:
160,96,13303,1,8,0:0:0:0:
160,96,13706,1,8,0:0:0:0:
160,96,13907,1,8,0:0:0:0:
160,96,14310,1,0,0:0:0:0:
160,96,14511,1,0,0:0:0:0:
160,96,14914,1,8,0:0:0:0:
160,96,15317,1,8,0:0:0:0:
160,96,15518,1,8,0:0:0:0:
160,96,16323,1,4,0:0:0:0:
160,96,16827,1,8,0:0:0:0:
160,96,17129,1,8,0:0:0:0:
160,96,17431,1,8,0:0:0:0:
160,96,17733,1,0,0:0:0:0:
160,96,18135,1,8,0:0:0:0:
160,96,18538,1,0,0:0:0:0:
160,96,18739,1,8,0:0:0:0:
160,96,19142,1,8,0:0:0:0:
160,96,19343,1,4,0:0:0:0:
160,96,19746,1,8,0:0:0:0:
160,96,20149,1,0,0:0:0:0:
160,96,20350,1,0,0:0:0:0:
160,96,20551,1,8,0:0:0:0:
160,96,20753,1,8,0:0:0:0:
160,96,20954,1,0,0:0:0:0:
160,96,21457,1,8,0:0:0:0:
352,96,22061,1,8,0:0:0:0:
160,96,22666,1,8,0:0:0:0:
160,96,23270,1,8,0:0:0:0:
352,288,24176,1,12,0:0:0:0:
352,96,24578,1,8,0:0:0:0:
352,96,24780,1,0,0:0:0:0:
160,96,25182,1,0,0:0:0:0:
160,96,25384,1,8,0:0:0:0:
352,96,25585,1,8,0:0:0:0:
352,96,25786,1,0,0:0:0:0:
352,96,26189,1,8,0:0:0:0:
160,96,26390,1,0,0:0:0:0:
160,96,26793,1,0,0:0:0:0:
352,96,26994,1,8,0:0:0:0:
352,288,27397,1,12,0:0:0:0:
352,96,27800,1,0,0:0:0:0:
352,96,28001,1,8,0:0:0:0:
160,96,28404,1,8,0:0:0:0:
160,96,28605,1,8,0:0:0:0:
352,96,28806,1,0,0:0:0:0:
352,96,29008,1,0,0:0:0:0:
352,96,29410,1,0,0:0:0:0:
352,96,29612,1,8,0:0:0:0:
352,96,30014,1,8,0:0:0:0:
352,96,30216,1,0,0:0:0:0:
352,288,30619,1,12,0:0:0:0:
352,96,31223,1,8,0:0:0:0:
160,96,31424,1,0,0:0:0:0:
160,96,31625,1,8,0:0:0:0:
352,96,32028,1,8,0:0:0:0:
352,96,32229,1,0,0:0:0:0:
352,96,32632,1,8,0:0:0:0:
160,96,32833,1,8,0:0:0:0:
202,103,33035,1,0,0:0:0:0:
160,96,33236,1,8,0:0:0:0:
160,96,33438,1,8,0:0:0:0:
352,288,33840,1,12,0:0:0:0:
352,288,34444,1,12,0:0:0:0:
352,288,35048,1,4,0:0:0:0:
352,288,35350,1,4,0:0:0:0:
352,288,35652,1,4,0:0:0:0:
352,288,35954,1,4,0:0:0:0:
160,288,36256,1,12,0:0:0:0:
256,192,36457,8,0,39478,0:0:0:0:
