osu file format v14

[General]
AudioFilename: audio.mp3
AudioLeadIn: 0
PreviewTime: 9679
Countdown: 0
SampleSet: Normal
StackLeniency: 1
Mode: 1
LetterboxInBreaks: 0
WidescreenStoryboard: 1

[Editor]
DistanceSpacing: 0.9
BeatDivisor: 4
GridSize: 32
TimelineZoom: 2.1

[Metadata]
Title:teclitas locas (Short Ver.)
TitleUnicode:teclitas locas (Short Ver.)
Artist:pm04034
ArtistUnicode:pm04034
Creator:Axer
Version:oni
Source:
Tags:piano electronic instrumental midnaait gaston_2199
BeatmapID:2319070
BeatmapSetID:1109750

[Difficulty]
HPDrainRate:8
CircleSize:2
OverallDifficulty:5
ApproachRate:10
SliderMultiplier:1.4
SliderTickRate:1

[Events]
//Background and Video events
0,0,"pianitox.jpg",0,-100
//Break Periods
//Storyboard Layer 0 (Background)
//Storyboard Layer 1 (Fail)
//Storyboard Layer 2 (Pass)
//Storyboard Layer 3 (Foreground)
//Storyboard Layer 4 (Overlay)
//Storyboard Sound Samples

[TimingPoints]
15,402.684563758389,4,1,0,5,1,0
15,-133.333333333333,4,1,0,5,0,0
115,-131.958849952231,4,1,0,6,0,0
216,-130.612244897959,4,1,0,8,0,0
317,-129.292845709676,4,1,0,9,0,0
417,-128,4,1,0,11,0,0
518,-126.73275357323,4,1,0,12,0,0
619,-125.490196078431,4,1,0,13,0,0
719,-124.271767442785,4,1,0,15,0,0
820,-123.076923076923,4,1,0,16,0,0
921,-121.904836208662,4,1,0,18,0,0
1021,-120.754716981132,4,1,0,19,0,0
1122,-119.626096672241,4,1,0,20,0,0
1223,-118.518518518519,4,1,0,22,0,0
1323,-117.431261611016,4,1,0,23,0,0
1424,-116.363636363636,4,1,0,25,0,0
1525,-115.315248827244,4,1,0,26,0,0
1625,-114.285714285714,4,1,0,28,0,0
1726,-113.274400438598,4,1,0,29,0,0
1827,-112.280701754386,4,1,0,30,0,0
1927,-111.304285882832,4,1,0,32,0,0
2028,-110.344827586207,4,1,0,33,0,0
2129,-109.401769245412,4,1,0,35,0,0
2229,-108.474576271186,4,1,0,36,0,0
2330,-107.562967361093,4,1,0,37,0,0
2431,-106.666666666667,4,1,0,39,0,0
2531,-105.785179919434,4,1,0,40,0,0
2632,-104.918032786885,4,1,0,42,0,0
2733,-104.064986502771,4,1,0,43,0,0
2833,-103.225806451613,4,1,0,44,0,0
2934,-102.400052428827,4,1,0,46,0,0
3035,-101.587301587302,4,1,0,47,0,0
3135,-100.787350784327,4,1,0,49,0,0
3236,-86.9565217391304,4,1,0,50,0,0
9679,-76.9230769230769,4,1,0,70,0,0
22363,-74.0930089541401,4,1,0,70,0,0
22464,-73.1953503385651,4,1,0,70,0,0
22565,-72.3191821568328,4,1,0,70,0,0
22666,-71.4637928693427,4,1,0,70,0,0
22968,-69.0147318846681,4,1,0,70,0,0
23068,-68.2353053564032,4,1,0,70,0,0
23169,-67.4732417991335,4,1,0,70,0,0
23270,-66.7280119523215,4,1,0,70,0,0
24176,-76.9230769230769,4,1,0,70,0,1
29712,-76.9230769230769,4,1,0,70,0,0
30619,-76.9230769230769,4,1,0,70,0,1
33739,-75.3768654831996,4,1,0,70,0,1
33840,-74.6268656716418,4,1,0,70,0,1
34243,-71.7703520981704,4,1,0,70,0,1
34343,-71.0900305473861,4,1,0,70,0,1
34444,-70.4225352112676,4,1,0,70,0,1
34847,-67.8733185233752,4,1,0,70,0,1
34947,-67.2645589092917,4,1,0,70,0,1
35048,-66.6666666666667,4,1,0,70,0,1
35350,-61.5384615384615,4,1,0,70,0,1
35652,-57.1428571428571,4,1,0,70,0,1
35954,-53.3333333333333,4,1,0,70,0,1
36256,-50,4,1,0,70,0,0
36457,-50,4,1,0,70,0,0
36558,-50.9063364135061,4,1,0,68,0,0
36659,-51.8461641356233,4,1,0,65,0,0
36759,-52.8213186842209,4,1,0,63,0,0
36860,-53.8338590209667,4,1,0,61,0,0
36961,-54.8860072515393,4,1,0,58,0,0
37061,-55.9800710946903,4,1,0,56,0,0
37162,-57.118638839989,4,1,0,54,0,0
37263,-58.3044823319927,4,1,0,51,0,0
37363,-59.5406439320641,4,1,0,49,0,0
37464,-60.8303217254886,4,1,0,47,0,0
37565,-62.1771065137359,4,1,0,44,0,0
37666,-63.5849176575316,4,1,0,42,0,0
37766,-65.0579145555373,4,1,0,40,0,0
37867,-66.6007762986485,4,1,0,38,0,0
37968,-68.2186407435832,4,1,0,35,0,0
38068,-69.9170154943098,4,1,0,33,0,0
38169,-71.7021149972861,4,1,0,31,0,0
38270,-73.5808101247195,4,1,0,28,0,0
38370,-75.5605459098321,4,1,0,26,0,0
38471,-77.6497592080967,4,1,0,24,0,0
38572,-79.8577892489055,4,1,0,21,0,0
38672,-82.1951361850114,4,1,0,19,0,0
38773,-84.6733598135154,4,1,0,17,0,0
38874,-87.3056684951384,4,1,0,14,0,0
38974,-90.1069750007209,4,1,0,12,0,0
39075,-93.0939205946095,4,1,0,10,0,0
39176,-96.2856834742956,4,1,0,7,0,0
39276,-99.70417770475,4,1,0,5,0,0
39327,-100,4,1,0,70,0,0

[HitObjects]
256,192,15,12,0,3135,0:0:0:0:
160,96,3236,5,0,0:0:0:0:
160,96,3437,1,0,0:0:0:0:
352,96,3538,1,8,0:0:0:0:
160,96,3639,1,8,0:0:0:0:
160,96,3840,1,0,0:0:0:0:
352,96,3941,1,8,0:0:0:0:
160,96,4142,1,0,0:0:0:0:
352,96,4343,1,8,0:0:0:0:
160,96,4545,1,0,0:0:0:0:
352,96,4645,1,8,0:0:0:0:
160,96,4847,1,0,0:0:0:0:
352,96,5048,1,8,0:0:0:0:
160,96,5149,1,0,0:0:0:0:
352,96,5249,1,8,0:0:0:0:
160,96,5551,1,0,0:0:0:0:
160,96,5652,1,0,0:0:0:0:
352,96,5853,1,8,0:0:0:0:
160,96,5954,1,0,0:0:0:0:
352,96,6155,1,8,0:0:0:0:
160,96,6357,1,0,0:0:0:0:
352,96,6457,1,8,0:0:0:0:
160,96,6659,1,0,0:0:0:0:
352,96,6759,1,8,0:0:0:0:
352,96,6860,1,8,0:0:0:0:
160,96,7061,1,0,0:0:0:0:
352,96,7162,1,8,0:0:0:0:
160,96,7363,1,0,0:0:0:0:
352,96,7565,1,8,0:0:0:0:
160,96,7766,1,0,0:0:0:0:
352,96,7867,1,8,0:0:0:0:
160,96,8068,1,0,0:0:0:0:
352,96,8270,1,8,0:0:0:0:
160,96,8370,1,0,0:0:0:0:
352,96,8471,1,8,0:0:0:0:
160,96,8773,1,0,0:0:0:0:
352,96,8874,1,8,0:0:0:0:
160,96,9075,1,0,0:0:0:0:
352,96,9176,1,8,0:0:0:0:
160,96,9377,1,0,0:0:0:0:
352,96,9478,1,8,0:0:0:0:
160,288,9679,1,4,0:0:0:0:
160,96,9880,1,0,0:0:0:0:
352,96,9981,1,8,0:0:0:0:
352,96,10082,1,8,0:0:0:0:
160,96,10283,1,0,0:0:0:0:
352,96,10384,1,8,0:0:0:0:
160,96,10585,1,0,0:0:0:0:
352,96,10686,1,8,0:0:0:0:
160,96,10887,1,0,0:0:0:0:
352,96,10988,1,8,0:0:0:0:
160,96,11088,1,0,0:0:0:0:
352,96,11290,1,8,0:0:0:0:
160,96,11491,1,0,0:0:0:0:
160,96,11592,1,0,0:0:0:0:
352,96,11692,1,8,0:0:0:0:
160,96,11994,1,0,0:0:0:0:
352,96,12095,1,0,0:0:0:0:
352,96,12296,1,8,0:0:0:0:
160,96,12498,1,0,0:0:0:0:
352,96,12699,1,8,0:0:0:0:
352,288,12900,1,12,0:0:0:0:
160,96,13102,1,0,0:0:0:0:
352,96,13202,1,8,0:0:0:0:
352,96,13303,1,8,0:0:0:0:
160,96,13504,1,0,0:0:0:0:
352,96,13605,1,8,0:0:0:0:
160,96,13806,1,0,0:0:0:0:
352,96,14008,1,8,0:0:0:0:
160,96,14209,1,0,0:0:0:0:
352,96,14310,1,8,0:0:0:0:
160,96,14511,1,0,0:0:0:0:
160,96,14712,1,0,0:0:0:0:
160,96,14813,1,0,0:0:0:0:
352,96,14914,1,8,0:0:0:0:
160,96,15115,1,0,0:0:0:0:
160,96,15216,1,0,0:0:0:0:
352,96,15317,1,8,0:0:0:0:
160,96,15518,1,0,0:0:0:0:
352,96,15619,1,8,0:0:0:0:
160,288,16323,1,4,0:0:0:0:
352,96,16525,1,8,0:0:0:0:
160,96,16625,1,0,0:0:0:0:
352,96,16827,1,8,0:0:0:0:
160,96,17028,1,0,0:0:0:0:
352,96,17129,1,8,0:0:0:0:
160,96,17330,1,0,0:0:0:0:
352,96,17431,1,8,0:0:0:0:
160,96,17531,1,0,0:0:0:0:
352,96,17733,1,8,0:0:0:0:
160,96,17934,1,0,0:0:0:0:
160,96,18035,1,0,0:0:0:0:
352,96,18135,1,8,0:0:0:0:
160,96,18437,1,0,0:0:0:0:
352,96,18538,1,0,0:0:0:0:
352,96,18739,1,8,0:0:0:0:
160,96,18941,1,0,0:0:0:0:
352,96,19142,1,8,0:0:0:0:
352,288,19343,1,12,0:0:0:0:
160,96,19545,1,0,0:0:0:0:
352,96,19645,1,8,0:0:0:0:
352,96,19746,1,8,0:0:0:0:
160,96,19947,1,0,0:0:0:0:
352,96,20048,1,8,0:0:0:0:
160,96,20249,1,0,0:0:0:0:
352,96,20451,1,8,0:0:0:0:
160,96,20652,1,0,0:0:0:0:
352,96,20753,1,8,0:0:0:0:
160,96,20954,1,0,0:0:0:0:
160,96,21155,1,0,0:0:0:0:
352,96,21357,1,8,0:0:0:0:
160,96,21457,1,0,0:0:0:0:
160,96,21759,1,0,0:0:0:0:
352,96,21961,1,8,0:0:0:0:
160,96,22061,1,0,0:0:0:0:
160,96,22363,1,0,0:0:0:0:
352,96,22565,1,8,0:0:0:0:
160,96,22666,1,0,0:0:0:0:
160,96,22968,1,0,0:0:0:0:
352,96,23169,1,8,0:0:0:0:
160,96,23270,1,0,0:0:0:0:
352,288,24176,1,12,0:0:0:0:
160,96,24377,1,0,0:0:0:0:
160,96,24478,1,0,0:0:0:0:
352,96,24578,1,8,0:0:0:0:
352,96,24780,1,8,0:0:0:0:
160,96,24880,1,0,0:0:0:0:
160,96,25082,1,0,0:0:0:0:
352,96,25182,1,8,0:0:0:0:
160,96,25484,1,0,0:0:0:0:
352,96,25584,1,8,0:0:0:0:
352,96,25786,1,8,0:0:0:0:
160,96,25988,1,0,0:0:0:0:
352,96,26189,1,8,0:0:0:0:
160,96,26390,1,0,0:0:0:0:
352,96,26491,1,8,0:0:0:0:
160,96,26692,1,8,0:0:0:0:
160,96,26894,1,0,0:0:0:0:
160,96,26994,1,0,0:0:0:0:
352,96,27095,1,8,0:0:0:0:
352,288,27397,1,12,0:0:0:0:
160,96,27598,1,0,0:0:0:0:
160,96,27699,1,0,0:0:0:0:
352,96,27800,1,8,0:0:0:0:
352,96,28001,1,8,0:0:0:0:
160,96,28102,1,0,0:0:0:0:
160,96,28303,1,0,0:0:0:0:
352,96,28404,1,8,0:0:0:0:
160,96,28706,1,0,0:0:0:0:
352,96,28807,1,8,0:0:0:0:
352,96,29008,1,8,0:0:0:0:
160,96,29209,1,0,0:0:0:0:
160,96,29310,1,0,0:0:0:0:
352,96,29410,1,8,0:0:0:0:
160,96,29612,1,0,0:0:0:0:
352,96,29712,1,8,0:0:0:0:
160,96,29914,1,8,0:0:0:0:
352,96,30115,1,0,0:0:0:0:
160,96,30216,1,0,0:0:0:0:
352,96,30317,1,8,0:0:0:0:
352,288,30619,1,12,0:0:0:0:
160,96,30820,1,0,0:0:0:0:
160,96,30921,1,0,0:0:0:0:
352,96,31021,1,8,0:0:0:0:
352,96,31223,1,8,0:0:0:0:
160,96,31323,1,0,0:0:0:0:
352,96,31525,1,8,0:0:0:0:
352,96,31625,1,8,0:0:0:0:
352,96,31927,1,8,0:0:0:0:
352,96,32028,1,8,0:0:0:0:
352,96,32229,1,8,0:0:0:0:
160,96,32431,1,0,0:0:0:0:
160,96,32531,1,0,0:0:0:0:
352,96,32632,1,8,0:0:0:0:
160,96,32833,1,0,0:0:0:0:
352,96,32934,1,8,0:0:0:0:
160,96,33135,1,8,0:0:0:0:
352,96,33337,1,0,0:0:0:0:
160,96,33437,1,0,0:0:0:0:
352,96,33538,1,8,0:0:0:0:
352,288,33840,1,12,0:0:0:0:
160,96,34243,1,0,0:0:0:0:
352,288,34444,1,12,0:0:0:0:
160,96,34847,1,0,0:0:0:0:
352,288,35048,1,12,0:0:0:0:
352,288,35350,1,12,0:0:0:0:
352,288,35652,1,12,0:0:0:0:
352,288,35954,1,12,0:0:0:0:
160,288,36256,1,4,0:0:0:0:
256,192,36457,12,0,39276,0:0:0:0:
160,96,39377,5,0,0:0:0:0:
352,96,39478,1,8,0:0:0:0:
