osu file format v14

[General]
AudioFilename: audio.mp3
AudioLeadIn: 0
PreviewTime: 24125
Countdown: 0
SampleSet: Soft
StackLeniency: 0.3
Mode: 0
LetterboxInBreaks: 0
WidescreenStoryboard: 1

[Editor]
Bookmarks: 15921,17129
DistanceSpacing: 1
BeatDivisor: 4
GridSize: 32
TimelineZoom: 1.9

[Metadata]
Title:teclitas locas (Short Ver.)
TitleUnicode:teclitas locas (Short Ver.)
Artist:pm04034
ArtistUnicode:pm04034
Creator:pewdekz
Version:insane
Source:
Tags:piano instrumental electronic crazy keyboard rainbow
BeatmapID:3081015
BeatmapSetID:1141064

[Difficulty]
HPDrainRate:4.5
CircleSize:3.7
OverallDifficulty:7
ApproachRate:8.5
SliderMultiplier:1.65
SliderTickRate:0.5

[Events]
//Background and Video events
0,0,"rainbow piano.jpg",0,0
//Break Periods
//Storyboard Layer 0 (Background)
//Storyboard Layer 1 (Fail)
//Storyboard Layer 2 (Pass)
//Storyboard Layer 3 (Foreground)
//Storyboard Layer 4 (Overlay)
//Storyboard Sound Samples

[TimingPoints]
15,402.684563758389,4,2,1,5,1,0
417,-100,4,2,1,10,0,0
820,-100,4,2,1,15,0,0
1223,-100,4,2,1,20,0,0
1625,-100,4,2,1,25,0,0
2028,-100,4,2,1,30,0,0
2431,-100,4,2,1,35,0,0
2833,-100,4,2,1,40,0,0
3236,-100,4,2,1,45,0,0
6457,-95.2380952380952,4,2,1,45,0,0
9679,-90.9090909090909,4,2,1,50,0,0
10384,-86.9565217391304,4,2,1,50,0,0
11290,-90.9090909090909,4,2,1,50,0,0
12699,-83.3333333333333,4,2,1,50,0,0
12900,-90.9090909090909,4,2,1,50,0,0
16323,-90.9090909090909,4,2,1,50,0,0
16827,-86.9565217391304,4,2,1,50,0,0
17733,-90.9090909090909,4,2,1,50,0,0
19142,-83.3333333333333,4,2,1,50,0,0
19343,-90.9090909090909,4,2,1,50,0,0
21457,-90.9090909090909,4,2,1,50,0,0
21860,-90.9090909090909,4,2,1,50,0,0
22061,-90.9090909090909,4,2,1,50,0,0
22363,-90.9090909090909,4,2,1,50,0,0
22666,-86.9565217391304,4,2,1,50,0,0
23068,-90.9090909090909,4,2,1,50,0,0
23270,-166.666666666667,4,2,1,50,0,0
23370,-95.2380952380952,4,2,1,5,0,0
24176,-76.9230769230769,4,2,1,55,0,1
24377,-80,4,2,1,55,0,1
24981,-80,4,2,1,55,0,1
25182,-80,4,2,1,55,0,1
25786,-76.9230769230769,4,2,1,55,0,1
25988,-80,4,2,1,55,0,1
27095,-125,4,2,1,55,0,0
27296,-80,4,2,1,5,0,0
27397,-76.9230769230769,4,2,1,55,0,1
27598,-80,4,2,1,55,0,1
28202,-80,4,2,1,55,0,1
28403,-80,4,2,1,55,0,1
29008,-76.9230769230769,4,2,1,55,0,1
29209,-80,4,2,1,55,0,1
29813,-80,4,2,1,55,0,0
30317,-80,4,2,1,55,0,0
30619,-76.9230769230769,4,2,1,55,0,1
30820,-80,4,2,1,55,0,1
31424,-80,4,2,1,55,0,1
32229,-76.9230769230769,4,2,1,55,0,1
32431,-80,4,2,1,55,0,1
33538,-125,4,2,1,55,0,0
33739,-80,4,2,1,5,0,0
33840,-76.9230769230769,4,2,1,55,0,1
34243,-74.0740740740741,4,2,1,55,0,0
34444,-74.0740740740741,4,2,1,55,0,1
34847,-74.0740740740741,4,2,1,55,0,0
35048,-71.4285714285714,4,2,1,55,0,1
35249,-71.4285714285714,4,2,1,55,0,0
35350,-71.4285714285714,4,2,1,55,0,1
35551,-71.4285714285714,4,2,1,55,0,0
35652,-71.4285714285714,4,2,1,55,0,1
35853,-71.4285714285714,4,2,1,55,0,0
35954,-71.4285714285714,4,2,1,55,0,1
36155,-62.5,4,2,1,55,0,0
36256,-76.9230769230769,4,2,1,40,0,0
36659,-76.9230769230769,4,2,1,35,0,0
37061,-76.9230769230769,4,2,1,30,0,0
37464,-76.9230769230769,4,2,1,25,0,0
37867,-76.9230769230769,4,2,1,20,0,0
38270,-25,4,2,1,15,0,0
38672,-25,4,2,1,10,0,0
39075,-25,4,2,1,5,0,0
39377,-80,4,2,1,30,0,0

[Colours]
Combo1 : 255,128,64
Combo2 : 191,191,0
Combo3 : 0,255,64
Combo4 : 0,98,196

[HitObjects]
256,192,15,12,8,3236,0:2:0:0:
75,74,3437,5,2,0:2:0:0:
75,74,3538,1,2,0:2:0:0:
75,74,3639,2,0,L|75:128,2,41.25,2|2|0,0:2|0:2|0:2,0:0:0:0:
150,167,3941,1,2,0:2:0:0:
150,167,4041,2,0,L|150:93,1,41.25,0|2,0:2|0:2,0:0:0:0:
193,56,4243,2,0,P|232:81|272:81,1,82.5,2|2,0:2|0:2,0:0:0:0:
338,124,4545,2,0,L|338:226,1,82.5,2|2,0:2|0:2,0:0:0:0:
299,310,4847,6,0,B|279:290|279:290|224:290,1,82.5,2|0,0:2|0:2,0:0:0:0:
153,231,5149,1,2,0:2:0:0:
153,203,5249,2,0,L|240:203,1,82.5,2|0,0:2|0:2,0:0:0:0:
283,137,5551,1,0,0:2:0:0:
283,108,5652,2,0,L|336:108,1,41.25,0|2,0:2|0:2,0:0:0:0:
384,168,5853,2,0,L|384:210,2,41.25,2|0|0,0:0|0:2|0:2,0:0:0:0:
437,101,6155,1,2,0:2:0:0:
430,308,6457,5,2,0:2:0:0:
378,243,6659,1,2,0:2:0:0:
378,243,6759,1,0,0:2:0:0:
378,243,6860,2,0,B|337:256|337:256|294:241,1,86.6249973564149,2|2,0:2|0:2,0:0:0:0:
239,188,7162,1,0,0:2:0:0:
239,188,7263,2,0,L|239:120,1,43.3124986782074,0|2,0:2|0:2,0:0:0:0:
187,71,7464,2,0,P|154:100|104:96,1,86.6249973564149,2|2,0:2|0:2,0:0:0:0:
48,40,7766,1,2,0:2:0:0:
11,153,7968,1,0,0:2:0:0:
11,153,8068,6,0,L|11:256,1,86.6249973564149,2|0,0:2|0:2,0:0:0:0:
65,321,8370,1,0,0:2:0:0:
83,296,8471,2,0,P|124:284|166:295,1,86.6249973564149,2|0,0:2|0:2,0:0:0:0:
304,279,8874,2,0,L|304:228,2,43.3124986782074,2|0|0,0:2|0:2|0:2,0:0:0:0:
245,341,9176,1,2,0:2:0:0:
245,341,9478,1,2,0:2:0:0:
303,140,9679,5,14,0:2:0:0:
228,61,9880,1,2,0:2:0:0:
228,61,9981,1,2,0:2:0:0:
228,61,10082,2,0,L|168:61,1,45.3750013847352,2|2,1:2|0:2,0:0:0:0:
117,15,10283,1,0,0:2:0:0:
66,79,10384,6,0,L|66:187,1,94.8750018095971,10|0,0:2|0:2,0:0:0:0:
146,227,10686,2,0,L|146:119,1,94.8750018095971,10|0,0:2|1:2,0:0:0:0:
228,108,10988,2,0,L|228:216,1,94.8750018095971,2|0,0:2|1:2,0:0:0:0:
280,269,11290,1,2,0:2:0:0:
194,370,11491,1,8,0:2:0:0:
194,370,11592,1,0,0:2:0:0:
194,370,11692,6,0,B|125:334|125:390|47:350,1,136.125004154205,2|0,1:2|0:2,0:0:0:0:
23,287,12095,1,10,0:2:0:0:
23,252,12196,1,2,0:2:0:0:
93,197,12296,6,0,P|147:222|216:197,1,136.125004154205,2|0,1:2|0:2,0:0:0:0:
283,147,12699,2,0,B|298:173|280:187|280:187|215:187,1,98.9999969787599,10|14,0:2|0:2,0:0:0:0:
121,44,13102,5,2,0:2:0:0:
121,44,13202,1,2,0:2:0:0:
121,44,13303,2,0,L|169:44,3,45.3750013847352,2|0|2|10,1:2|0:2|0:2|0:2,0:0:0:0:
254,16,13706,1,2,0:2:0:0:
254,16,13806,1,2,0:2:0:0:
254,16,13907,2,0,P|298:24|350:12,1,90.7500027694703,10|2,0:2|1:2,0:0:0:0:
415,69,14209,2,0,P|394:118|400:170,1,90.7500027694703,2|2,0:2|1:2,0:0:0:0:
433,231,14511,5,2,0:2:0:0:
505,338,14712,1,8,0:2:0:0:
505,338,14813,1,2,0:2:0:0:
505,338,14914,2,0,B|446:338|446:338|428:349|428:349|366:349,1,136.125004154205,2|0,1:2|0:2,0:0:0:0:
314,287,15317,1,10,0:2:0:0:
377,191,15518,1,0,1:2:0:0:
412,191,15619,5,10,0:2:0:0:
258,34,16323,5,14,0:0:0:0:
150,127,16525,2,0,L|150:67,2,45.3750013847352,2|2|0,1:2|0:2|0:2,0:0:0:0:
212,191,16827,6,0,P|193:227|215:277,1,94.8750018095971,10|0,0:2|0:2,0:0:0:0:
295,190,17129,2,0,P|258:171|209:193,1,94.8750018095971,10|0,0:2|1:2,0:0:0:0:
296,274,17431,2,0,P|314:237|293:188,1,94.8750018095971,2|0,0:2|1:2,0:0:0:0:
256,361,17733,2,0,L|351:361,1,90.7500027694703,2|8,0:2|0:2,0:0:0:0:
429,300,18035,1,0,0:2:0:0:
429,265,18135,6,0,B|429:203|429:203|411:190|411:190|411:131,1,136.125004154205,2|0,1:2|0:2,0:0:0:0:
496,86,18538,1,10,0:2:0:0:
496,121,18639,1,2,0:2:0:0:
424,47,18739,6,0,B|336:47|336:47|336:101,1,136.125004154205,2|0,1:2|0:2,0:0:0:0:
275,167,19142,2,0,B|301:182|315:164|315:164|315:99,1,98.9999969787599,10|14,0:2|0:2,0:0:0:0:
210,14,19545,5,2,0:2:0:0:
210,14,19645,1,2,0:2:0:0:
210,14,19746,2,0,L|150:14,1,45.3750013847352,2|0,1:2|0:2,0:0:0:0:
138,91,19947,2,0,L|86:91,1,45.3750013847352,2|10,0:2|0:2,0:0:0:0:
13,37,20149,1,2,0:2:0:0:
13,37,20249,1,2,0:2:0:0:
13,37,20350,2,0,L|13:136,1,90.7500027694703,10|2,0:2|1:2,0:0:0:0:
62,202,20652,2,0,B|107:187|107:187|156:202,1,90.7500027694703,2|2,0:2|1:2,0:0:0:0:
227,239,20954,5,10,0:2:0:0:
302,105,21155,1,0,0:2:0:0:
302,105,21256,2,0,L|302:37,1,45.3750013847352,0|0,0:2|1:2,0:0:0:0:
384,34,21457,6,0,L|384:127,1,90.7500027694703,10|0,0:2|0:2,0:0:0:0:
411,205,21759,1,0,0:2:0:0:
411,205,21860,2,0,L|343:205,1,45.3750013847352,0|0,0:2|1:2,0:0:0:0:
336,288,22061,6,0,L|426:288,1,90.7500027694703,10|0,0:2|0:2,0:0:0:0:
427,372,22363,1,0,0:2:0:0:
427,372,22464,2,0,L|359:372,1,45.3750013847352,0|0,0:2|1:2,0:0:0:0:
252,316,22666,6,0,L|252:212,1,94.8750018095971,10|0,0:2|0:2,0:0:0:0:
169,194,22968,1,0,0:2:0:0:
169,194,23069,2,0,L|169:256,1,45.3750013847352,0|0,0:2|1:2,0:0:0:0:
116,353,23270,6,0,B|194:353|194:353|218:332|218:332|311:332,1,197.99999395752,10|0,0:2|0:2,0:0:0:0:
407,353,24176,6,0,B|376:258|376:258|404:143,1,214.49999018097,14|0,0:2|1:2,0:0:0:0:
323,112,24679,1,0,0:2:0:0:
323,112,24780,2,0,P|295:116|270:111,1,51.5625,2|10,0:2|0:2,0:0:0:0:
391,56,24981,6,0,P|418:50|447:58,1,51.5625,0|0,0:2|0:2,0:0:0:0:
264,30,25182,1,10,0:2:0:0:
264,30,25283,1,10,0:2:0:0:
264,30,25384,2,0,L|264:95,1,51.5625,2|0,1:2|0:2,0:0:0:0:
217,185,25585,1,2,0:2:0:0:
217,156,25686,1,2,1:2:0:0:
290,223,25786,6,0,L|130:223,1,160.874992635727,2|0,0:2|0:2,0:0:0:0:
59,273,26189,2,0,L|59:337,1,51.5625,0|0,1:2|0:2,0:0:0:0:
8,197,26390,2,0,L|8:124,1,51.5625,0|2,0:2|0:2,0:0:0:0:
70,62,26592,1,8,0:2:0:0:
70,88,26692,1,2,0:2:0:0:
107,160,26793,2,0,L|175:160,1,51.5625,0|10,1:2|0:2,0:0:0:0:
217,97,26994,1,0,0:2:0:0:
277,162,27095,6,0,L|277:231,1,66,2|0,0:2|0:0,0:0:0:0:
305,255,27397,6,0,B|305:159|305:159|316:143|316:143|316:41,1,214.49999018097,14|0,0:2|1:2,0:0:0:0:
411,43,27900,1,0,0:2:0:0:
410,73,28001,2,0,L|410:134,1,51.5625,2|10,0:2|0:2,0:0:0:0:
440,218,28202,6,0,L|363:218,1,51.5625,0|0,0:2|0:2,0:0:0:0:
322,128,28404,1,10,0:2:0:0:
322,128,28504,1,10,0:2:0:0:
322,128,28605,2,0,L|397:128,1,51.5625,2|0,1:2|0:2,0:0:0:0:
455,235,28806,1,2,0:2:0:0:
455,264,28907,1,2,1:2:0:0:
397,330,29008,6,0,B|350:323|318:345|318:345|285:324|233:323,1,160.874992635727,2|0,0:2|0:2,0:0:0:0:
158,368,29410,2,0,L|158:293,1,51.5625,0|0,1:2|0:2,0:0:0:0:
77,282,29612,1,0,0:2:0:0:
77,310,29712,1,2,0:2:0:0:
15,225,29813,6,0,L|15:151,1,51.5625,0|2,0:2|0:2,0:0:0:0:
116,172,30014,1,0,0:2:0:0:
116,172,30115,1,2,0:2:0:0:
116,172,30216,2,0,P|141:177|170:169,1,51.5625,0|2,0:2|0:0,0:0:0:0:
56,47,30619,6,0,B|56:217|56:217|16:246,1,214.49999018097,14|0,0:2|1:2,0:0:0:0:
146,263,31122,1,0,0:2:0:0:
146,263,31223,2,0,L|146:205,1,51.5625,2|10,0:2|0:2,0:0:0:0:
82,335,31424,6,0,L|23:335,1,51.5625,0|0,0:2|0:2,0:0:0:0:
209,378,31625,1,10,0:2:0:0:
209,378,31726,1,10,0:2:0:0:
209,378,31827,2,0,L|209:300,1,51.5625,2|0,1:2|0:2,0:0:0:0:
290,260,32028,1,2,0:2:0:0:
290,289,32129,1,2,1:2:0:0:
345,188,32229,6,0,B|329:222|329:222|204:222,1,160.874992635727,2|0,0:2|0:2,0:0:0:0:
127,180,32632,2,0,L|127:123,1,51.5625,0|0,1:2|0:2,0:0:0:0:
67,265,32833,2,0,L|124:265,1,51.5625,0|2,0:2|0:2,0:0:0:0:
154,362,33035,1,8,0:2:0:0:
154,333,33135,1,2,0:2:0:0:
238,351,33236,2,0,P|243:316|264:293,1,51.5625,0|10,1:2|0:2,0:0:0:0:
205,222,33437,1,0,0:2:0:0:
318,189,33538,6,0,L|318:275,1,66,2|0,0:2|0:0,0:0:0:0:
340,271,33840,6,0,L|340:86,1,160.874992635727,14|0,0:2|0:2,0:0:0:0:
413,29,34243,1,0,1:2:0:0:
413,60,34343,1,0,0:2:0:0:
340,110,34444,6,0,L|171:110,1,167.062500637293,14|0,0:2|0:2,0:0:0:0:
112,30,34847,1,0,1:2:0:0:
112,61,34947,1,0,0:2:0:0:
68,150,35048,6,0,L|68:271,1,115.49999647522,14|0,0:2|0:2,0:0:0:0:
193,330,35350,6,0,L|193:211,1,115.49999647522,14|0,0:2|0:2,0:0:0:0:
68,150,35652,6,0,L|68:271,1,115.49999647522,14|0,0:2|0:2,0:0:0:0:
193,330,35954,6,0,L|193:211,1,115.49999647522,14|0,0:2|0:2,0:0:0:0:
57,133,36256,5,10,0:2:0:0:
256,192,36457,12,0,38270,0:0:0:0:
256,216,39377,6,0,L|256:139,1,51.5625,2|0,0:0|0:2,0:0:0:0:
