osu file format v14

[General]
AudioFilename: audio.mp3
AudioLeadIn: 0
PreviewTime: 24125
Countdown: 0
SampleSet: Soft
StackLeniency: 0.3
Mode: 0
LetterboxInBreaks: 0
WidescreenStoryboard: 1

[Editor]
Bookmarks: 15921,17129
DistanceSpacing: 1
BeatDivisor: 8
GridSize: 32
TimelineZoom: 1.9

[Metadata]
Title:teclitas locas (Short Ver.)
TitleUnicode:teclitas locas (Short Ver.)
Artist:pm04034
ArtistUnicode:pm04034
Creator:pewdekz
Version:another
Source:
Tags:piano instrumental electronic crazy keyboard rainbow
BeatmapID:3087637
BeatmapSetID:1141064

[Difficulty]
HPDrainRate:5
CircleSize:3.8
OverallDifficulty:7.5
ApproachRate:9
SliderMultiplier:1.8
SliderTickRate:0.5

[Events]
//Background and Video events
0,0,"rainbow piano.jpg",0,0
//Break Periods
//Storyboard Layer 0 (Background)
//Storyboard Layer 1 (Fail)
//Storyboard Layer 2 (Pass)
//Storyboard Layer 3 (Foreground)
//Storyboard Layer 4 (Overlay)
//Storyboard Sound Samples

[TimingPoints]
15,402.684563758389,4,2,1,5,1,0
417,-100,4,2,1,10,0,0
820,-100,4,2,1,15,0,0
1223,-100,4,2,1,20,0,0
1625,-100,4,2,1,25,0,0
2028,-100,4,2,1,30,0,0
2431,-100,4,2,1,35,0,0
2833,-100,4,2,1,40,0,0
3236,-100,4,2,1,45,0,0
6457,-95.2380952380952,4,2,1,45,0,0
9679,-86.9565217391304,4,2,1,50,0,0
10384,-83.3333333333333,4,2,1,50,0,0
11290,-86.9565217391304,4,2,1,50,0,0
12699,-76.9230769230769,4,2,1,50,0,0
12850,-80,4,2,1,5,0,0
12900,-86.9565217391304,4,2,1,50,0,0
16323,-86.9565217391304,4,2,1,50,0,0
16827,-83.3333333333333,4,2,1,50,0,0
17733,-86.9565217391304,4,2,1,50,0,0
19142,-76.9230769230769,4,2,1,50,0,0
19293,-76.9230769230769,4,2,1,5,0,0
19343,-86.9565217391304,4,2,1,50,0,0
21457,-86.9565217391304,4,2,1,50,0,0
21860,-86.9565217391304,4,2,1,50,0,0
22061,-86.9565217391304,4,2,1,50,0,0
22363,-86.9565217391304,4,2,1,50,0,0
22666,-83.3333333333333,4,2,1,50,0,0
23068,-83.3333333333333,4,2,1,50,0,0
23270,-166.666666666667,4,2,1,50,0,0
23370,-95.2380952380952,4,2,1,5,0,0
24176,-71.4285714285714,4,2,1,55,0,1
24377,-74.0740740740741,4,2,1,55,0,1
24981,-74.0740740740741,4,2,1,55,0,1
25182,-74.0740740740741,4,2,1,55,0,1
25786,-71.4285714285714,4,2,1,55,0,1
25988,-74.0740740740741,4,2,1,55,0,1
27095,-125,4,2,1,55,0,0
27296,-74.0740740740741,4,2,1,5,0,0
27397,-71.4285714285714,4,2,1,55,0,1
27598,-74.0740740740741,4,2,1,55,0,1
28202,-74.0740740740741,4,2,1,55,0,1
28403,-74.0740740740741,4,2,1,55,0,1
29008,-71.4285714285714,4,2,1,55,0,1
29209,-74.0740740740741,4,2,1,55,0,1
29813,-74.0740740740741,4,2,1,55,0,0
30317,-74.0740740740741,4,2,1,55,0,0
30619,-71.4285714285714,4,2,1,55,0,1
30820,-74.0740740740741,4,2,1,55,0,1
31424,-74.0740740740741,4,2,1,55,0,1
32229,-71.4285714285714,4,2,1,55,0,1
32431,-74.0740740740741,4,2,1,55,0,1
33538,-125,4,2,1,55,0,0
33739,-71.4285714285714,4,2,1,5,0,0
33840,-71.4285714285714,4,2,1,55,0,1
34243,-74.0740740740741,4,2,1,55,0,0
34444,-68.9655172413793,4,2,1,55,0,1
34847,-74.0740740740741,4,2,1,55,0,0
35048,-66.6666666666667,4,2,1,55,0,1
35249,-66.6666666666667,4,2,1,55,0,0
35350,-66.6666666666667,4,2,1,55,0,1
35551,-66.6666666666667,4,2,1,55,0,0
35652,-66.6666666666667,4,2,1,55,0,1
35853,-66.6666666666667,4,2,1,55,0,0
35954,-66.6666666666667,4,2,1,55,0,1
36155,-62.5,4,2,1,55,0,0
36256,-76.9230769230769,4,2,1,40,0,0
36659,-76.9230769230769,4,2,1,35,0,0
37061,-76.9230769230769,4,2,1,30,0,0
37464,-76.9230769230769,4,2,1,25,0,0
37867,-76.9230769230769,4,2,1,20,0,0
38270,-25,4,2,1,15,0,0
38672,-25,4,2,1,10,0,0
39075,-25,4,2,1,5,0,0
39377,-76.9230769230769,4,2,1,30,0,0

[Colours]
Combo1 : 255,128,64
Combo2 : 191,191,0
Combo3 : 0,255,64
Combo4 : 0,98,196

[HitObjects]
256,192,15,12,8,3236,0:2:0:0:
71,48,3437,5,2,0:2:0:0:
72,78,3538,1,2,0:2:0:0:
136,138,3639,2,0,L|136:176,2,22.5,2|0|2,0:2|0:2|0:2,0:0:0:0:
196,82,3840,1,0,0:2:0:0:
196,54,3941,2,0,L|265:54,1,45,2|0,0:2|0:2,0:0:0:0:
329,5,4142,1,2,0:2:0:0:
329,5,4243,2,0,L|329:100,1,90,2|2,0:2|0:2,0:0:0:0:
303,203,4545,2,0,P|267:178|219:172,1,90,2|2,0:2|0:2,0:0:0:0:
146,222,4847,6,0,B|146:265|146:265|152:271|152:271|152:326,1,90,2|0,0:2|0:2,0:0:0:0:
216,366,5149,1,2,0:2:0:0:
276,299,5249,2,0,B|341:329|341:285|407:312,1,135,2|0,0:2|0:2,0:0:0:0:
473,260,5652,1,0,0:2:0:0:
472,230,5753,1,2,0:2:0:0:
411,179,5853,1,2,0:0:0:0:
411,179,5954,2,0,L|411:145,2,22.5,0|0|0,0:2|0:2|0:2,0:0:0:0:
343,231,6155,1,2,0:2:0:0:
178,151,6457,6,0,P|192:109|180:52,1,94.499997116089,2|2,0:2|0:2,0:0:0:0:
115,12,6759,1,0,0:2:0:0:
49,66,6860,2,0,L|49:101,2,23.6249992790222,2|0|2,0:2|0:2|0:2,0:0:0:0:
92,170,7061,1,2,0:2:0:0:
92,170,7162,2,0,L|92:227,1,47.2499985580445,0|0,0:2|0:2,0:0:0:0:
47,296,7363,1,2,0:2:0:0:
47,296,7464,2,0,L|149:296,1,94.499997116089,2|2,0:2|0:2,0:0:0:0:
246,348,7766,2,0,B|223:334|223:334|223:259,1,94.499997116089,2|0,0:2|0:2,0:0:0:0:
258,191,8068,5,2,0:2:0:0:
328,43,8270,1,0,0:2:0:0:
329,73,8371,1,0,0:2:0:0:
383,134,8471,2,0,L|383:284,1,141.749995674133,2|0,0:2|0:2,0:0:0:0:
308,338,8874,1,2,0:2:0:0:
308,338,8974,2,0,L|308:295,2,23.6249992790222,0|0|0,0:2|0:2|0:2,0:0:0:0:
274,231,9176,1,2,0:2:0:0:
429,167,9478,1,2,0:2:0:0:
345,31,9679,6,0,B|232:31,1,103.500001974106,14|2,0:2|0:2,0:0:0:0:
169,82,9981,1,2,0:2:0:0:
104,30,10082,1,2,1:2:0:0:
103,0,10182,2,0,L|30:0,1,51.7500009870529,2|0,0:2|0:2,0:0:0:0:
2,91,10384,6,0,L|2:216,1,107.999996704102,10|0,0:2|0:2,0:0:0:0:
100,261,10686,2,0,L|100:136,1,107.999996704102,10|0,0:2|1:2,0:0:0:0:
200,106,10988,2,0,L|200:231,1,107.999996704102,2|0,0:2|1:2,0:0:0:0:
240,296,11290,1,2,0:2:0:0:
365,161,11491,1,8,0:2:0:0:
366,191,11592,1,0,0:2:0:0:
438,246,11692,6,0,B|406:221|406:221|285:221,1,155.250002961159,2|0,1:2|0:2,0:0:0:0:
226,273,12095,1,10,0:2:0:0:
227,303,12196,1,2,0:2:0:0:
163,200,12296,6,0,B|163:137|163:137|180:110|180:110|180:45,1,155.250002961159,2|0,1:2|0:2,0:0:0:0:
246,9,12699,2,0,B|265:25|240:45|240:45|186:45,1,87.749995983124,10|0,0:2|0:2,0:0:0:0:
154,120,12900,6,0,L|262:120,1,103.500001974106,14|2,0:2|0:2,0:0:0:0:
334,73,13202,1,2,0:2:0:0:
396,180,13303,6,0,L|396:119,1,51.7500009870529,2|0,1:2|0:2,0:0:0:0:
309,203,13504,1,2,0:2:0:0:
309,203,13605,1,10,0:2:0:0:
309,203,13706,2,0,L|309:265,1,51.7500009870529,2|2,0:2|0:2,0:0:0:0:
250,319,13907,6,0,P|200:306|147:323,1,103.500001974106,10|2,0:2|1:2,0:0:0:0:
92,245,14209,2,0,P|140:226|174:182,1,103.500001974106,2|2,0:2|1:2,0:0:0:0:
152,100,14511,2,0,L|44:100,1,103.500001974106,2|8,0:2|0:2,0:0:0:0:
20,26,14813,1,2,0:2:0:0:
175,25,14914,6,0,B|175:67|175:67|165:85|165:85|165:128,1,103.500001974106,2|0,1:2|0:2,0:0:0:0:
226,192,15216,1,0,0:2:0:0:
291,133,15317,1,10,0:2:0:0:
291,133,15417,2,0,L|291:85,2,25.8750004935265,2|0|0,0:2|0:2|1:2,0:0:0:0:
327,30,15619,5,10,0:2:0:0:
479,260,16323,2,0,L|369:260,1,103.500001974106,14|2,0:0|1:2,0:0:0:0:
313,203,16625,1,2,0:2:0:0:
313,172,16726,1,0,0:2:0:0:
229,284,16827,6,0,P|230:230|201:183,1,107.999996704102,10|0,0:2|0:2,0:0:0:0:
135,316,17129,2,0,P|188:317|232:277,1,107.999996704102,10|0,0:2|1:2,0:0:0:0:
103,222,17431,2,0,P|101:275|141:319,1,107.999996704102,2|0,0:2|1:2,0:0:0:0:
263,209,17733,2,0,L|263:88,1,103.500001974106,2|8,0:2|0:2,0:0:0:0:
222,32,18035,5,0,0:2:0:0:
127,4,18135,2,0,B|143:19|143:19|143:108,1,103.500001974106,2|0,1:2|0:2,0:0:0:0:
75,153,18437,1,0,0:2:0:0:
138,238,18538,1,10,0:2:0:0:
138,208,18639,1,2,0:2:0:0:
248,258,18739,6,0,B|173:291|173:234|92:264,1,155.250002961159,2|0,1:2|0:2,0:0:0:0:
55,321,19142,2,0,B|71:340|91:315|91:315|91:261,1,87.749995983124,10|0,0:2|0:2,0:0:0:0:
110,178,19343,6,0,L|223:178,1,103.500001974106,14|2,0:2|0:2,0:0:0:0:
298,133,19645,1,2,0:2:0:0:
367,196,19746,6,0,P|353:218|348:253,1,51.7500009870529,2|0,1:2|0:2,0:0:0:0:
452,151,19947,1,2,0:2:0:0:
452,151,20048,1,10,0:2:0:0:
452,151,20149,2,0,P|438:129|433:94,1,51.7500009870529,2|2,0:2|0:2,0:0:0:0:
479,243,20350,6,0,L|479:349,1,103.500001974106,10|2,0:2|1:2,0:0:0:0:
383,364,20652,2,0,B|335:347|335:377|277:356,1,103.500001974106,2|2,0:2|1:2,0:0:0:0:
227,294,20954,5,10,0:2:0:0:
160,191,21155,1,0,0:2:0:0:
160,191,21256,2,0,L|100:191,1,51.7500009870529,0|0,0:2|1:2,0:0:0:0:
48,105,21457,6,0,L|167:105,1,103.500001974106,10|0,0:2|0:2,0:0:0:0:
232,62,21759,1,0,0:2:0:0:
232,62,21860,2,0,L|232:129,1,51.7500009870529,0|0,0:2|1:2,0:0:0:0:
300,188,22061,6,0,L|405:188,1,103.500001974106,10|0,0:2|0:2,0:0:0:0:
391,271,22363,1,0,0:2:0:0:
391,271,22464,2,0,L|331:271,1,51.7500009870529,0|0,0:2|1:2,0:0:0:0:
177,368,22666,6,0,L|177:254,1,107.999996704102,10|0,0:2|0:2,0:0:0:0:
217,189,22968,1,0,0:2:0:0:
217,189,23068,2,0,L|275:189,1,53.9999983520508,0|0,0:2|1:2,0:0:0:0:
348,55,23270,6,0,B|260:55|260:55|239:79|239:79|137:79,1,215.999993408203,10|0,0:2|0:2,0:0:0:0:
63,100,24176,6,0,P|58:180|142:145,1,188.999994232178,14|0,0:2|0:2,0:0:0:0:
222,162,24578,2,0,L|222:222,1,60.7500002317429,0|0,1:2|0:2,0:0:0:0:
155,298,24780,1,2,0:2:0:0:
155,267,24881,1,10,0:2:0:0:
244,313,24981,2,0,L|294:313,2,40.5000001544952,0|0|0,0:2|0:0|0:0,0:0:0:0:
321,228,25182,5,10,0:2:0:0:
352,228,25283,1,10,0:2:0:0:
426,325,25384,2,0,L|426:248,1,60.7500002317429,2|0,1:2|0:2,0:0:0:0:
477,166,25585,1,2,0:2:0:0:
477,197,25686,1,2,1:2:0:0:
411,101,25786,6,0,B|347:123|347:82|287:103,1,125.999996154785,2|8,0:2|0:2,0:0:0:0:
224,50,26088,1,0,0:2:0:0:
181,151,26189,2,0,L|181:104,2,30.3750001158714,0|0|0,1:2|0:2|0:2,0:0:0:0:
79,27,26390,1,0,0:2:0:0:
79,27,26491,2,0,P|107:36|130:57,1,60.7500002317429,2|8,0:2|0:2,0:0:0:0:
62,172,26692,5,2,0:2:0:0:
62,172,26793,2,0,L|62:87,1,60.7500002317429,0|10,1:2|0:2,0:0:0:0:
127,235,26994,1,0,0:2:0:0:
41,337,27095,6,0,L|138:337,1,90,2|0,0:2|0:2,0:0:0:0:
26,316,27397,6,0,L|215:316,1,188.999994232178,14|0,0:2|0:2,0:0:0:0:
311,308,27800,2,0,P|292:276|286:239,1,60.7500002317429,0|0,1:2|0:2,0:0:0:0:
373,213,28001,5,2,0:2:0:0:
373,244,28102,1,10,0:2:0:0:
456,181,28202,2,0,L|456:126,2,40.5000001544952,0|0|0,0:2|0:0|0:0,0:0:0:0:
402,67,28404,5,10,0:2:0:0:
371,67,28505,1,10,0:2:0:0:
295,112,28605,2,0,L|295:187,1,60.7500002317429,2|0,1:2|0:2,0:0:0:0:
218,62,28806,1,2,0:2:0:0:
218,31,28907,1,2,1:2:0:0:
143,121,29008,6,0,B|143:177|143:177|134:186|134:186|134:256,1,125.999996154785,2|8,0:2|0:2,0:0:0:0:
134,339,29310,1,0,0:2:0:0:
36,350,29410,5,0,1:2:0:0:
36,319,29511,1,0,0:2:0:0:
98,256,29612,2,0,L|163:256,1,60.7500002317429,0|2,0:2|0:2,0:0:0:0:
233,309,29813,5,0,0:2:0:0:
286,237,29914,2,0,L|286:191,2,30.3750001158714,2|0|0,0:2|0:2|0:2,0:0:0:0:
345,309,30115,1,2,0:2:0:0:
345,309,30216,2,0,L|412:309,1,60.7500002317429,0|2,0:2|0:0,0:0:0:0:
465,104,30619,6,0,B|383:140|383:140|286:103,1,188.999994232178,14|0,0:2|0:2,0:0:0:0:
221,161,31021,2,0,L|221:230,1,60.7500002317429,0|0,1:2|0:2,0:0:0:0:
172,298,31223,1,2,0:2:0:0:
141,298,31324,1,10,0:2:0:0:
85,212,31424,2,0,L|125:212,2,40.5000001544952,0|0|0,0:2|0:0|0:0,0:0:0:0:
31,137,31625,5,10,0:2:0:0:
31,106,31726,1,10,0:2:0:0:
114,58,31827,2,0,L|114:125,1,60.7500002317429,2|0,1:2|0:2,0:0:0:0:
213,66,32028,1,2,0:2:0:0:
213,35,32129,1,2,1:2:0:0:
327,85,32229,6,0,B|293:115|293:115|293:210,1,125.999996154785,2|8,0:2|0:2,0:0:0:0:
342,276,32531,1,0,0:2:0:0:
411,221,32632,2,0,L|411:170,2,30.3750001158714,0|0|0,1:2|0:2|0:2,0:0:0:0:
474,304,32833,1,0,0:2:0:0:
474,335,32934,6,0,L|390:335,1,60.7500002317429,2|8,0:2|0:2,0:0:0:0:
277,337,33135,1,2,0:2:0:0:
277,337,33236,2,0,P|313:299|322:272,1,60.7500002317429,0|10,1:2|0:2,0:0:0:0:
296,205,33437,1,0,0:2:0:0:
165,250,33538,6,0,L|165:332,1,72,2|0,0:2|0:0,0:0:0:0:
144,343,33840,2,0,L|144:132,1,188.999994232178,14|0,0:2|0:2,0:0:0:0:
78,56,34243,1,0,1:2:0:0:
78,87,34344,1,0,0:2:0:0:
144,154,34444,6,0,L|342:154,1,195.750005973816,14|0,0:2|0:2,0:0:0:0:
396,81,34847,1,0,1:2:0:0:
396,50,34948,1,0,0:2:0:0:
467,168,35048,6,0,L|467:309,1,135.000005149842,14|0,0:2|0:2,0:0:0:0:
310,336,35350,6,0,L|310:195,1,135.000005149842,14|0,0:2|0:2,0:0:0:0:
467,168,35652,6,0,L|467:309,1,135.000005149842,14|0,0:2|0:2,0:0:0:0:
310,336,35954,6,0,L|310:195,1,135.000005149842,14|0,0:2|0:2,0:0:0:0:
484,144,36256,6,0,L|484:188,3,29.2499986610413,10|0|0|0,0:2|0:2|0:2|0:2,0:0:0:0:
256,192,36457,12,0,38270,0:0:0:0:
256,220,39377,6,0,L|256:157,1,58.4999973220826,2|0,0:0|0:2,0:0:0:0:
