osu file format v14

[General]
AudioFilename: audio.ogg
AudioLeadIn: 0
PreviewTime: 74936
Countdown: 0
SampleSet: Normal
StackLeniency: 0
Mode: 1
LetterboxInBreaks: 0
WidescreenStoryboard: 1

[Editor]
Bookmarks: 37119,51888,66669,74977,104515,136822,138668,168207
DistanceSpacing: 1.4
BeatDivisor: 5
GridSize: 4
TimelineZoom: 2

[Metadata]
Title:sn4pside
TitleUnicode:sn4pside
Artist:pm04034
ArtistUnicode:pm04034
Creator:Miyoi
Version:oni
Source:
Tags:Midnaait Reficul Alchyr Electronic Instrumental Piano snapside pianitox tech
BeatmapID:3574862
BeatmapSetID:1502424

[Difficulty]
HPDrainRate:5.5
CircleSize:2
OverallDifficulty:5.5
ApproachRate:10
SliderMultiplier:1.4
SliderTickRate:1

[Events]
//Background and Video events
0,0,"g.jpg",0,-95
//Break Periods
//Storyboard Layer 0 (Background)
//Storyboard Layer 1 (Fail)
//Storyboard Layer 2 (Pass)
//Storyboard Layer 3 (Foreground)
//Storyboard Layer 4 (Overlay)
//Storyboard Sound Samples

[TimingPoints]
196,461.538461538462,4,1,0,75,1,0
20272,-100,4,1,0,30,0,0
22234,-100,4,1,0,75,0,0
72196,461.538461538462,6,1,0,75,1,0
74965,461.538461538462,4,1,0,75,1,1
104503,-100,4,1,0,75,0,0
119272,461.538461538462,4,1,0,75,1,8
120195,461.538461538462,4,1,0,75,1,0
138656,-100,4,1,0,75,0,1
168195,-100,4,1,0,75,0,0

[HitObjects]
282,209,196,5,8,0:0:0:0:
232,221,1119,1,8,0:0:0:0:
232,221,1349,1,8,0:0:0:0:
232,221,1580,1,0,0:0:0:0:
232,221,1811,1,8,0:0:0:0:
225,224,2965,1,8,0:0:0:0:
225,224,3196,1,0,0:0:0:0:
225,224,3426,1,0,0:0:0:0:
225,224,3657,1,8,0:0:0:0:
225,224,4811,1,0,0:0:0:0:
225,224,5042,1,0,0:0:0:0:
225,224,5272,1,0,0:0:0:0:
225,224,5503,1,8,0:0:0:0:
225,224,6657,1,0,0:0:0:0:
225,224,6888,1,0,0:0:0:0:
225,224,7119,1,0,0:0:0:0:
225,224,7580,1,8,0:0:0:0:
225,224,8503,1,8,0:0:0:0:
225,224,8734,1,8,0:0:0:0:
225,224,8965,1,0,0:0:0:0:
225,224,9196,1,8,0:0:0:0:
225,224,10349,1,8,0:0:0:0:
225,224,10580,1,0,0:0:0:0:
225,224,10811,1,0,0:0:0:0:
225,224,11042,1,8,0:0:0:0:
225,224,12196,1,0,0:0:0:0:
225,224,12426,1,0,0:0:0:0:
225,224,12657,1,0,0:0:0:0:
225,224,12888,1,8,0:0:0:0:
225,224,14042,1,0,0:0:0:0:
225,224,14272,1,0,0:0:0:0:
225,224,14503,1,0,0:0:0:0:
225,224,14965,1,8,0:0:0:0:
225,224,15888,1,0,0:0:0:0:
225,224,16811,1,0,0:0:0:0:
225,224,17042,1,0,0:0:0:0:
225,224,17272,1,0,0:0:0:0:
225,224,17734,1,8,0:0:0:0:
225,224,18196,1,0,0:0:0:0:
225,224,18657,1,8,0:0:0:0:
256,192,20503,8,0,22119,0:0:0:0:
249,230,22349,5,8,0:0:0:0:
249,230,22580,1,0,0:0:0:0:
249,230,22696,1,8,0:0:0:0:
249,230,22811,1,8,0:0:0:0:
249,230,23042,1,8,0:0:0:0:
249,230,23157,1,0,0:0:0:0:
249,226,23503,1,0,0:0:0:0:
234,224,23619,1,0,0:0:0:0:
249,226,23734,1,8,0:0:0:0:
234,224,23965,1,0,0:0:0:0:
234,224,24196,1,8,0:0:0:0:
237,229,24426,1,8,0:0:0:0:
300,210,24542,1,8,0:0:0:0:
236,228,24657,1,0,0:0:0:0:
236,227,24772,1,0,0:0:0:0:
234,230,25003,1,8,0:0:0:0:
249,226,25349,1,0,0:0:0:0:
234,208,25465,1,0,0:0:0:0:
249,226,25580,1,8,0:0:0:0:
249,226,25811,1,0,0:0:0:0:
249,226,26042,1,8,0:0:0:0:
255,213,26272,1,0,0:0:0:0:
255,213,26388,1,0,0:0:0:0:
255,213,26503,1,8,0:0:0:0:
245,216,26619,1,0,0:0:0:0:
255,213,26849,1,8,0:0:0:0:
248,214,27080,1,8,0:0:0:0:
249,214,27311,1,8,0:0:0:0:
247,213,27542,1,0,0:0:0:0:
212,258,27888,1,0,0:0:0:0:
237,229,28003,1,0,0:0:0:0:
236,228,28119,1,0,0:0:0:0:
308,206,28349,1,8,0:0:0:0:
294,170,28465,1,0,0:0:0:0:
234,230,28696,1,8,0:0:0:0:
234,208,28926,1,0,0:0:0:0:
234,208,29042,1,8,0:0:0:0:
249,226,29272,1,8,0:0:0:0:
148,240,29388,1,0,0:0:0:0:
234,208,29503,1,8,0:0:0:0:
249,226,29734,1,4,0:0:0:0:
249,230,30196,1,8,0:0:0:0:
249,230,30426,1,0,0:0:0:0:
249,230,30542,1,0,0:0:0:0:
249,226,30772,1,8,0:0:0:0:
249,226,30888,1,0,0:0:0:0:
234,208,31003,1,0,0:0:0:0:
249,226,31119,1,8,0:0:0:0:
234,224,31349,1,0,0:0:0:0:
234,224,31580,1,8,0:0:0:0:
237,229,31811,1,0,0:0:0:0:
236,228,31926,1,0,0:0:0:0:
237,225,32042,1,8,0:0:0:0:
220,214,32272,1,8,0:0:0:0:
234,230,32388,1,0,0:0:0:0:
234,208,32734,1,0,0:0:0:0:
249,226,32965,1,8,0:0:0:0:
249,226,33080,1,8,0:0:0:0:
234,208,33196,1,0,0:0:0:0:
234,208,33311,1,0,0:0:0:0:
249,226,33426,1,8,0:0:0:0:
228,172,33657,1,0,0:0:0:0:
228,172,33772,1,0,0:0:0:0:
255,213,33888,1,8,0:0:0:0:
202,200,34003,1,0,0:0:0:0:
255,213,34234,1,8,0:0:0:0:
248,214,34465,1,8,0:0:0:0:
248,214,34696,1,8,0:0:0:0:
248,214,34926,1,0,0:0:0:0:
249,214,35272,1,0,0:0:0:0:
165,206,35388,1,8,0:0:0:0:
178,212,35503,1,0,0:0:0:0:
234,224,35734,1,8,0:0:0:0:
237,225,35965,1,0,0:3:0:0:
234,230,36080,1,8,0:0:0:0:
234,208,36311,1,8,0:0:0:0:
249,226,36426,1,0,0:0:0:0:
234,208,36542,1,0,0:0:0:0:
249,226,36657,1,8,0:0:0:0:
249,226,36888,1,8,0:0:0:0:
249,226,37119,1,4,0:0:0:0:
228,215,37580,1,8,0:0:0:0:
228,215,37696,1,0,0:0:0:0:
228,215,37926,1,0,0:0:0:0:
228,215,38157,1,8,0:0:0:0:
244,196,38272,1,0,0:0:0:0:
217,218,38388,1,0,0:0:0:0:
228,215,38503,1,8,0:0:0:0:
294,168,38734,1,8,0:0:0:0:
228,215,38965,1,0,0:0:0:0:
228,215,39196,1,8,0:0:0:0:
228,215,39426,1,0,0:0:0:0:
294,202,39542,1,8,0:0:0:0:
228,215,39772,1,0,0:0:0:0:
228,215,40003,1,8,0:0:0:0:
220,166,40119,1,0,0:0:0:0:
228,215,40234,1,0,0:0:0:0:
228,215,40349,1,8,0:0:0:0:
228,215,40580,1,8,0:0:0:0:
228,215,40811,1,4,0:0:0:0:
228,215,41272,1,8,0:0:0:0:
228,215,41388,1,0,0:0:0:0:
228,215,41619,1,8,0:0:0:0:
194,212,41849,1,0,0:0:0:0:
228,215,42080,1,0,0:0:0:0:
228,215,42196,1,8,0:0:0:0:
266,214,42311,1,8,0:0:0:0:
228,215,42426,1,0,0:0:0:0:
228,215,42657,1,0,0:0:0:0:
228,215,42888,1,8,0:0:0:0:
228,215,43003,1,0,0:0:0:0:
228,215,43119,1,8,0:0:0:0:
228,215,43349,1,8,0:0:0:0:
256,156,43465,1,0,0:0:0:0:
256,156,43696,1,0,0:0:0:0:
228,215,43926,1,0,0:0:0:0:
228,215,44042,1,8,0:0:0:0:
228,215,44272,1,8,0:0:0:0:
228,215,44503,1,4,0:0:0:0:
228,215,44965,1,8,0:0:0:0:
228,215,45196,1,0,0:0:0:0:
228,215,45311,1,0,0:0:0:0:
228,215,45542,1,8,0:0:0:0:
288,218,45657,1,0,0:0:0:0:
288,218,45772,1,0,0:0:0:0:
228,215,45888,1,8,0:0:0:0:
228,215,46119,1,8,0:0:0:0:
228,215,46349,1,0,0:0:0:0:
228,215,46580,1,0,0:0:0:0:
228,215,46696,1,0,0:0:0:0:
228,215,46811,1,8,0:0:0:0:
224,214,47042,1,8,0:0:0:0:
228,215,47157,1,0,0:0:0:0:
228,215,47388,1,8,0:0:0:0:
228,215,47503,1,0,0:0:0:0:
228,215,47619,1,0,0:0:0:0:
221,222,47734,1,8,0:0:0:0:
228,215,47965,1,8,0:0:0:0:
228,215,48196,1,4,0:0:0:0:
228,215,48657,1,8,0:0:0:0:
228,215,48772,1,0,0:0:0:0:
228,215,49003,1,8,0:0:0:0:
194,212,49234,1,0,0:0:0:0:
228,215,49465,1,0,0:0:0:0:
228,215,49580,1,8,0:0:0:0:
266,214,49696,1,8,0:0:0:0:
228,215,49811,1,0,0:0:0:0:
228,215,50042,1,0,0:0:0:0:
228,215,50272,1,8,0:0:0:0:
228,215,50388,1,0,0:0:0:0:
228,215,50503,1,8,0:0:0:0:
228,215,50734,1,8,0:0:0:0:
256,156,50849,1,0,0:0:0:0:
256,156,51080,1,0,0:0:0:0:
228,215,51311,1,0,0:0:0:0:
228,215,51426,1,8,0:0:0:0:
228,215,51657,1,0,0:0:0:0:
210,220,51888,1,12,0:0:0:0:
210,220,52349,1,8,0:0:0:0:
210,220,52811,1,0,0:0:0:0:
206,219,52926,1,0,0:0:0:0:
205,220,53157,1,8,0:0:0:0:
205,220,53388,1,8,0:0:0:0:
206,220,53734,1,0,0:0:0:0:
205,220,54196,1,8,0:0:0:0:
206,220,54542,1,0,0:0:0:0:
205,220,54772,1,0,0:0:0:0:
205,220,55003,1,0,0:0:0:0:
206,220,55234,1,8,0:0:0:0:
206,220,55580,1,8,0:0:0:0:
205,220,56042,1,8,0:0:0:0:
206,220,56503,1,0,0:0:0:0:
206,220,56619,1,0,0:0:0:0:
205,220,56849,1,8,0:0:0:0:
206,220,57080,1,8,0:0:0:0:
206,220,57426,1,0,0:0:0:0:
206,220,57888,1,8,0:0:0:0:
206,220,58234,1,0,0:0:0:0:
206,220,58465,1,0,0:0:0:0:
205,220,58696,1,8,0:0:0:0:
206,220,58926,1,8,0:0:0:0:
206,220,59272,1,8,0:0:0:0:
205,220,59734,1,8,0:0:0:0:
206,220,60196,1,0,0:0:0:0:
205,220,60311,1,0,0:0:0:0:
205,220,60542,1,8,0:0:0:0:
205,220,60772,1,8,0:0:0:0:
206,220,61119,1,4,0:0:0:0:
205,220,61580,1,8,0:0:0:0:
206,220,61926,1,0,0:0:0:0:
208,220,62157,1,8,0:0:0:0:
208,220,62388,1,0,0:0:0:0:
205,220,62503,1,0,0:0:0:0:
208,220,62619,1,8,0:0:0:0:
208,220,62965,1,8,0:0:0:0:
208,220,63426,1,8,0:0:0:0:
208,220,63888,1,0,0:0:0:0:
208,220,64003,1,0,0:0:0:0:
208,220,64234,1,8,0:0:0:0:
208,220,64465,1,8,0:0:0:0:
208,220,64811,1,4,0:0:0:0:
208,220,65272,1,8,0:0:0:0:
208,220,65619,1,0,0:0:0:0:
208,220,65849,1,8,0:0:0:0:
208,220,66080,1,8,0:0:0:0:
254,236,66196,1,0,0:0:0:0:
208,220,66311,1,8,0:0:0:0:
214,211,66657,1,4,0:0:0:0:
216,213,67119,1,8,0:0:0:0:
214,211,67234,1,8,0:0:0:0:
214,211,67349,1,8,0:0:0:0:
213,214,67580,1,4,0:0:0:0:
207,216,68042,1,0,0:0:0:0:
212,217,68134,1,0,0:0:0:0:
211,218,68226,1,8,0:0:0:0:
193,219,68319,1,8,0:0:0:0:
208,217,68503,1,4,0:0:0:0:
197,218,68965,1,0,0:0:0:0:
197,218,69042,1,0,0:0:0:0:
205,215,69119,1,0,0:0:0:0:
205,215,69196,1,0,0:0:0:0:
188,211,69426,1,12,0:0:0:0:
205,217,69657,1,0,0:0:0:0:
205,217,69888,1,8,0:0:0:0:
205,217,70119,1,8,0:0:0:0:
205,217,70349,1,4,0:0:0:0:
216,213,70811,1,8,0:0:0:0:
214,211,70926,1,8,0:0:0:0:
214,211,71042,1,8,0:0:0:0:
213,214,71272,1,4,0:0:0:0:
207,216,71734,1,0,0:0:0:0:
212,217,71826,1,0,0:0:0:0:
212,217,71919,1,8,0:0:0:0:
193,219,72011,1,8,0:0:0:0:
208,217,72196,1,4,0:0:0:0:
197,218,72657,1,0,0:0:0:0:
212,199,72749,1,0,0:0:0:0:
214,200,72842,1,8,0:0:0:0:
197,218,72934,1,8,0:0:0:0:
232,236,73119,1,0,0:0:0:0:
202,218,73349,1,8,0:0:0:0:
205,217,73580,1,0,0:0:0:0:
221,229,73672,1,0,0:0:0:0:
205,217,73765,1,0,0:0:0:0:
273,210,73857,1,8,0:0:0:0:
226,172,74042,1,0,0:0:0:0:
208,218,74272,1,8,0:0:0:0:
208,218,74503,1,0,0:0:0:0:
208,237,74580,1,0,0:0:0:0:
208,237,74657,1,8,0:0:0:0:
274,225,74734,1,8,0:0:0:0:
249,226,74965,1,4,0:0:0:0:
249,230,75426,1,8,0:0:0:0:
249,230,75657,1,8,0:0:0:0:
249,230,75772,1,0,0:0:0:0:
249,226,76003,1,8,0:0:0:0:
249,226,76118,1,0,0:0:0:0:
234,208,76234,1,0,0:0:0:0:
249,226,76349,1,8,0:0:0:0:
234,224,76580,1,0,0:0:0:0:
234,224,76811,1,8,0:0:0:0:
237,229,77041,1,8,0:0:0:0:
236,228,77157,1,8,0:0:0:0:
237,225,77272,1,0,0:0:0:0:
220,214,77503,1,0,0:0:0:0:
234,230,77618,1,8,0:0:0:0:
234,208,77849,1,8,0:0:0:0:
249,226,77965,1,0,0:0:0:0:
249,226,78195,1,8,0:0:0:0:
249,226,78288,1,8,0:0:0:0:
155,199,78380,1,8,0:0:0:0:
203,206,78472,1,8,0:0:0:0:
249,226,78657,1,0,0:0:0:0:
228,172,78888,1,0,0:0:0:0:
228,172,79003,1,0,0:0:0:0:
255,213,79118,1,8,0:0:0:0:
255,213,79234,1,0,0:0:0:0:
255,213,79465,1,8,0:0:0:0:
248,214,79695,1,8,0:0:0:0:
248,214,79926,1,8,0:0:0:0:
248,214,80157,1,0,0:0:0:0:
249,214,80503,1,8,0:0:0:0:
178,212,80734,1,0,0:0:0:0:
165,206,80849,1,0,0:0:0:0:
234,224,80965,1,8,0:0:0:0:
237,225,81195,1,8,0:0:0:0:
234,230,81311,1,0,0:0:0:0:
234,208,81541,1,8,0:0:0:0:
249,226,81657,1,0,0:0:0:0:
234,208,81772,1,0,0:0:0:0:
249,226,81888,1,8,0:0:0:0:
249,226,82118,1,8,0:0:0:0:
249,226,82349,1,4,0:0:0:0:
249,230,82811,1,8,0:0:0:0:
249,230,83041,1,0,0:0:0:0:
249,230,83157,1,0,0:0:0:0:
249,226,83388,1,8,0:0:0:0:
249,226,83503,1,0,0:0:0:0:
234,208,83618,1,0,0:0:0:0:
240,218,83734,1,8,0:0:0:0:
234,224,83965,1,0,0:0:0:0:
234,224,84195,1,8,0:0:0:0:
237,225,84426,1,0,0:0:0:0:
276,194,84541,1,8,0:0:0:0:
244,182,84657,1,0,0:0:0:0:
220,214,84888,1,0,0:0:0:0:
178,192,85003,1,8,0:0:0:0:
204,238,85234,1,8,0:0:0:0:
272,216,85349,1,0,0:0:0:0:
249,226,85580,1,8,0:0:0:0:
249,226,85657,1,8,0:0:0:0:
234,208,85734,1,8,0:0:0:0:
234,208,85811,1,8,0:0:0:0:
249,226,86041,1,0,0:0:0:0:
228,172,86272,1,0,0:0:0:0:
228,172,86388,1,0,0:0:0:0:
255,213,86503,1,8,0:0:0:0:
255,213,86618,1,0,0:0:0:0:
255,213,86849,1,8,0:0:0:0:
248,214,87080,1,8,0:0:0:0:
248,214,87311,1,8,0:0:0:0:
248,214,87541,1,0,0:0:0:0:
249,214,87888,1,8,0:0:0:0:
237,229,88118,1,8,0:0:0:0:
225,223,88234,1,8,0:0:0:0:
234,224,88349,1,0,0:0:0:0:
237,225,88580,1,0,0:0:0:0:
234,230,88695,1,8,0:0:0:0:
249,226,88926,1,8,0:0:0:0:
249,226,89041,1,0,0:0:0:0:
249,226,89157,1,0,0:0:0:0:
249,226,89272,1,8,0:0:0:0:
204,204,89503,1,8,0:0:0:0:
249,226,89734,1,4,0:0:0:0:
249,230,90195,1,8,0:0:0:0:
249,230,90426,1,8,0:0:0:0:
249,230,90541,1,0,0:0:0:0:
249,226,90772,1,8,0:0:0:0:
249,226,90888,1,0,0:0:0:0:
234,208,91003,1,0,0:0:0:0:
249,226,91118,1,8,0:0:0:0:
234,224,91349,1,0,0:0:0:0:
234,224,91580,1,8,0:0:0:0:
237,229,91811,1,8,0:0:0:0:
236,228,91926,1,8,0:0:0:0:
237,225,92041,1,0,0:0:0:0:
220,214,92272,1,0,0:0:0:0:
234,230,92388,1,8,0:0:0:0:
234,208,92618,1,8,0:0:0:0:
249,226,92734,1,0,0:0:0:0:
249,226,92965,1,8,0:0:0:0:
249,226,93057,1,8,0:0:0:0:
155,199,93149,1,8,0:0:0:0:
203,206,93241,1,8,0:0:0:0:
249,226,93426,1,0,0:0:0:0:
228,172,93657,1,0,0:0:0:0:
228,172,93772,1,0,0:0:0:0:
255,213,93888,1,8,0:0:0:0:
255,213,94003,1,0,0:0:0:0:
255,213,94234,1,8,0:0:0:0:
248,214,94465,1,8,0:0:0:0:
248,214,94695,1,8,0:0:0:0:
248,214,94926,1,0,0:0:0:0:
249,214,95272,1,8,0:0:0:0:
178,212,95503,1,0,0:0:0:0:
165,206,95618,1,0,0:0:0:0:
234,224,95734,1,8,0:0:0:0:
237,225,95965,1,8,0:0:0:0:
234,230,96080,1,0,0:0:0:0:
234,208,96311,1,8,0:0:0:0:
249,226,96426,1,0,0:0:0:0:
234,208,96541,1,0,0:0:0:0:
249,226,96657,1,8,0:0:0:0:
249,226,96888,1,8,0:0:0:0:
249,226,97118,1,4,0:0:0:0:
249,230,97580,1,8,0:0:0:0:
249,230,97811,1,0,0:0:0:0:
249,230,97926,1,0,0:0:0:0:
249,226,98157,1,8,0:0:0:0:
249,226,98272,1,0,0:0:0:0:
234,208,98388,1,0,0:0:0:0:
240,218,98503,1,8,0:0:0:0:
234,224,98734,1,0,0:0:0:0:
234,224,98965,1,8,0:0:0:0:
237,225,99195,1,0,0:0:0:0:
276,194,99311,1,8,0:0:0:0:
244,182,99426,1,0,0:0:0:0:
220,214,99657,1,0,0:0:0:0:
178,192,99772,1,8,0:0:0:0:
204,238,100003,1,8,0:0:0:0:
272,216,100118,1,0,0:0:0:0:
249,226,100349,1,8,0:0:0:0:
249,226,100426,1,8,0:0:0:0:
234,208,100503,1,8,0:0:0:0:
234,208,100580,1,8,0:0:0:0:
249,226,100811,1,0,0:0:0:0:
228,172,101041,1,0,0:0:0:0:
228,172,101157,1,0,0:0:0:0:
255,213,101272,1,8,0:0:0:0:
255,213,101388,1,0,0:0:0:0:
255,213,101618,1,8,0:0:0:0:
248,214,101849,1,8,0:0:0:0:
248,214,102080,1,8,0:0:0:0:
248,214,102311,1,0,0:0:0:0:
249,214,102657,1,8,0:0:0:0:
237,229,102888,1,8,0:0:0:0:
225,223,103003,1,8,0:0:0:0:
234,224,103118,1,0,0:0:0:0:
237,225,103234,1,0,0:0:0:0:
234,230,103465,1,0,0:0:0:0:
249,226,103580,1,8,0:0:0:0:
249,226,104503,1,4,0:0:0:0:
234,222,104965,1,8,0:0:0:0:
238,216,105057,1,8,0:0:0:0:
234,222,105149,1,0,0:0:0:0:
236,216,105241,1,0,0:0:0:0:
237,222,105426,1,8,0:0:0:0:
250,206,105888,1,0,0:0:0:0:
220,201,105980,1,0,0:0:0:0:
244,214,106072,1,8,0:0:0:0:
240,222,106165,1,8,0:0:0:0:
242,198,106349,1,0,0:0:0:0:
246,204,106811,1,0,0:0:0:0:
240,204,106995,1,8,0:0:0:0:
262,204,107088,1,0,0:0:0:0:
241,205,107180,1,0,0:0:0:0:
252,204,107272,1,8,0:0:0:0:
259,201,107457,1,0,0:0:0:0:
208,192,107549,1,0,0:0:0:0:
237,222,107734,1,8,0:0:0:0:
225,198,107811,1,8,0:0:0:0:
229,223,107888,1,8,0:0:0:0:
234,201,107965,1,8,0:0:0:0:
243,229,108195,1,0,0:0:0:0:
234,222,108657,1,0,0:0:0:0:
238,216,108749,1,0,0:0:0:0:
234,222,108841,1,8,0:0:0:0:
236,216,108934,1,0,0:0:0:0:
237,222,109118,1,8,0:0:0:0:
250,206,109580,1,8,0:0:0:0:
220,201,109672,1,8,0:0:0:0:
244,214,109765,1,0,0:0:0:0:
240,222,109857,1,8,0:0:0:0:
242,198,110041,1,0,0:0:0:0:
246,204,110503,1,8,0:0:0:0:
240,204,110688,1,0,0:0:0:0:
262,204,110780,1,0,0:0:0:0:
241,205,110872,1,0,0:0:0:0:
252,204,110965,1,8,0:0:0:0:
259,201,111149,1,0,0:0:0:0:
208,192,111241,1,0,0:0:0:0:
237,222,111426,1,8,0:0:0:0:
242,229,111503,1,8,0:0:0:0:
234,201,111580,1,8,0:0:0:0:
225,198,111657,1,8,0:0:0:0:
243,229,111888,1,0,0:0:0:0:
234,222,112349,1,8,0:0:0:0:
238,216,112441,1,8,0:0:0:0:
234,222,112534,1,0,0:0:0:0:
236,216,112626,1,0,0:0:0:0:
237,222,112811,1,8,0:0:0:0:
250,206,113272,1,0,0:0:0:0:
220,201,113365,1,0,0:0:0:0:
244,214,113457,1,8,0:0:0:0:
240,222,113549,1,8,0:0:0:0:
242,198,113734,1,0,0:0:0:0:
246,204,114195,1,0,0:0:0:0:
240,204,114380,1,8,0:0:0:0:
262,204,114472,1,0,0:0:0:0:
241,205,114565,1,0,0:0:0:0:
252,204,114657,1,8,0:0:0:0:
259,201,114841,1,0,0:0:0:0:
208,192,114934,1,0,0:0:0:0:
237,222,115118,1,8,0:0:0:0:
225,198,115195,1,8,0:0:0:0:
229,223,115272,1,8,0:0:0:0:
234,201,115349,1,8,0:0:0:0:
243,229,115580,1,0,0:0:0:0:
234,222,116041,1,0,0:0:0:0:
238,216,116134,1,0,0:0:0:0:
234,222,116226,1,8,0:0:0:0:
236,216,116318,1,0,0:0:0:0:
237,222,116503,1,8,0:0:0:0:
250,206,116965,1,8,0:0:0:0:
220,201,117057,1,8,0:0:0:0:
244,214,117149,1,8,0:0:0:0:
240,222,117241,1,0,0:0:0:0:
242,198,117426,1,8,0:0:0:0:
252,204,118349,1,8,0:0:0:0:
259,201,118534,1,0,0:0:0:0:
208,192,118626,1,0,0:0:0:0:
237,222,118811,1,8,0:0:0:0:
176,205,118888,1,8,0:0:0:0:
242,229,118965,1,8,0:0:0:0:
234,201,119041,1,8,0:0:0:0:
225,198,119118,1,8,0:0:0:0:
246,218,120195,5,12,0:0:0:0:
249,225,120541,1,0,0:0:0:0:
249,225,120656,1,8,0:0:0:0:
277,218,121118,1,8,0:0:0:0:
249,229,121348,1,0,0:0:0:0:
248,230,121464,1,0,0:0:0:0:
277,218,121579,1,8,0:0:0:0:
232,217,121810,1,8,0:0:0:0:
259,230,122041,1,0,0:0:0:0:
257,228,122387,1,0,0:0:0:0:
248,222,122502,1,8,0:0:0:0:
241,227,122618,1,0,0:0:0:0:
228,207,122964,1,8,0:0:0:0:
224,219,123079,1,8,0:0:0:0:
286,212,123195,1,0,0:0:0:0:
224,219,123425,1,8,0:0:0:0:
224,219,123656,1,8,0:0:0:0:
224,219,123887,1,4,0:0:0:0:
224,219,124233,1,0,0:0:0:0:
223,232,124348,1,8,0:0:0:0:
223,232,124810,1,0,0:0:0:0:
208,200,125041,1,8,0:0:0:0:
210,228,125156,1,0,0:0:0:0:
262,236,125271,1,0,0:0:0:0:
260,189,125502,1,8,0:0:0:0:
252,246,125733,1,0,0:0:0:0:
232,247,126079,1,0,0:0:0:0:
233,250,126195,1,8,0:0:0:0:
232,247,126541,1,0,0:0:0:0:
232,247,126656,1,0,0:0:0:0:
232,247,126771,1,8,0:0:0:0:
232,247,127002,1,0,0:0:0:0:
232,247,127118,1,8,0:0:0:0:
232,247,127348,1,0,0:0:0:0:
246,218,127579,1,12,0:0:0:0:
249,225,127925,1,0,0:0:0:0:
249,225,128041,1,8,0:0:0:0:
277,218,128502,1,8,0:0:0:0:
249,229,128733,1,0,0:0:0:0:
248,230,128848,1,0,0:0:0:0:
277,218,128964,1,8,0:0:0:0:
232,217,129195,1,8,0:0:0:0:
259,230,129425,1,0,0:0:0:0:
257,228,129771,1,0,0:0:0:0:
248,222,129887,1,8,0:0:0:0:
241,227,130002,1,0,0:0:0:0:
228,207,130348,1,8,0:0:0:0:
224,219,130464,1,8,0:0:0:0:
286,212,130579,1,0,0:0:0:0:
224,219,130810,1,8,0:0:0:0:
224,219,131041,1,8,0:0:0:0:
224,219,131271,1,4,0:0:0:0:
223,232,131618,1,0,0:0:0:0:
223,232,131733,1,8,0:0:0:0:
223,232,132195,1,0,0:0:0:0:
208,200,132425,1,8,0:0:0:0:
210,228,132541,1,0,0:0:0:0:
262,236,132656,1,0,0:0:0:0:
260,189,132887,1,8,0:0:0:0:
252,246,133118,1,0,0:0:0:0:
232,247,133464,1,0,0:0:0:0:
233,250,133579,1,8,0:0:0:0:
232,247,133925,1,0,0:0:0:0:
232,247,134041,1,0,0:0:0:0:
232,247,134156,1,8,0:0:0:0:
232,247,134387,1,0,0:0:0:0:
232,247,134502,1,8,0:0:0:0:
232,247,134733,1,0,0:0:0:0:
246,218,134964,1,12,0:0:0:0:
213,220,135310,1,0,0:0:0:0:
226,212,135425,1,8,0:0:0:0:
242,204,135887,5,12,0:0:0:0:
242,204,136233,1,12,0:0:0:0:
242,204,136579,1,4,0:0:0:0:
123,163,136810,1,8,0:0:0:0:
140,163,136887,1,8,0:0:0:0:
140,162,136964,1,8,0:0:0:0:
139,160,137041,1,8,0:0:0:0:
111,162,137271,1,0,0:0:0:0:
77,162,137364,1,0,0:0:0:0:
129,165,137456,1,0,0:0:0:0:
129,165,137548,1,0,0:0:0:0:
275,143,137733,1,8,0:0:0:0:
275,143,137848,1,8,0:0:0:0:
275,143,137964,1,8,0:0:0:0:
275,143,138079,1,8,0:0:0:0:
229,214,138195,1,0,0:0:0:0:
229,214,138425,1,0,0:0:0:0:
249,226,138656,1,4,0:0:0:0:
249,230,139118,1,8,0:0:0:0:
249,230,139348,1,8,0:0:0:0:
249,230,139464,1,0,0:0:0:0:
249,226,139695,1,8,0:0:0:0:
249,226,139810,1,0,0:0:0:0:
234,208,139925,1,0,0:0:0:0:
249,226,140041,1,8,0:0:0:0:
234,224,140271,1,0,0:0:0:0:
234,224,140502,1,8,0:0:0:0:
237,229,140733,1,8,0:0:0:0:
236,228,140848,1,8,0:0:0:0:
237,225,140964,1,0,0:0:0:0:
220,214,141195,1,0,0:0:0:0:
234,230,141310,1,8,0:0:0:0:
234,208,141541,1,8,0:0:0:0:
249,226,141656,1,0,0:0:0:0:
249,226,141887,1,8,0:0:0:0:
249,226,141979,1,8,0:0:0:0:
155,199,142071,1,8,0:0:0:0:
203,206,142164,1,8,0:0:0:0:
249,226,142348,1,0,0:0:0:0:
228,172,142579,1,0,0:0:0:0:
228,172,142695,1,0,0:0:0:0:
255,213,142810,1,8,0:0:0:0:
255,213,142925,1,0,0:0:0:0:
255,213,143156,1,8,0:0:0:0:
248,214,143387,1,8,0:0:0:0:
248,214,143618,1,8,0:0:0:0:
248,214,143848,1,0,0:0:0:0:
249,214,144195,1,8,0:0:0:0:
178,212,144425,1,0,0:0:0:0:
165,206,144541,1,0,0:0:0:0:
234,224,144656,1,8,0:0:0:0:
237,225,144887,1,8,0:0:0:0:
234,230,145002,1,0,0:0:0:0:
234,208,145233,1,8,0:0:0:0:
249,226,145348,1,0,0:0:0:0:
234,208,145464,1,0,0:0:0:0:
249,226,145579,1,8,0:0:0:0:
249,226,145810,1,8,0:0:0:0:
249,226,146041,1,4,0:0:0:0:
249,230,146502,1,8,0:0:0:0:
249,230,146733,1,0,0:0:0:0:
249,230,146848,1,0,0:0:0:0:
249,226,147079,1,8,0:0:0:0:
249,226,147195,1,0,0:0:0:0:
234,208,147310,1,0,0:0:0:0:
240,218,147425,1,8,0:0:0:0:
234,224,147656,1,0,0:0:0:0:
234,224,147887,1,8,0:0:0:0:
237,225,148118,1,0,0:0:0:0:
276,194,148233,1,8,0:0:0:0:
244,182,148348,1,0,0:0:0:0:
220,214,148579,1,0,0:0:0:0:
178,192,148695,1,8,0:0:0:0:
204,238,148925,1,8,0:0:0:0:
272,216,149041,1,0,0:0:0:0:
249,226,149271,1,8,0:0:0:0:
249,226,149348,1,8,0:0:0:0:
234,208,149425,1,8,0:0:0:0:
234,208,149502,1,8,0:0:0:0:
249,226,149733,1,0,0:0:0:0:
228,172,149964,1,0,0:0:0:0:
228,172,150079,1,0,0:0:0:0:
255,213,150195,1,8,0:0:0:0:
255,213,150310,1,0,0:0:0:0:
255,213,150541,1,8,0:0:0:0:
248,214,150771,1,8,0:0:0:0:
248,214,151002,1,8,0:0:0:0:
248,214,151233,1,0,0:0:0:0:
249,214,151579,1,8,0:0:0:0:
237,229,151810,1,8,0:0:0:0:
225,223,151925,1,8,0:0:0:0:
234,224,152041,1,0,0:0:0:0:
237,225,152271,1,0,0:0:0:0:
234,230,152387,1,8,0:0:0:0:
249,226,152618,1,8,0:0:0:0:
249,226,152733,1,0,0:0:0:0:
249,226,152848,1,0,0:0:0:0:
249,226,152964,1,8,0:0:0:0:
204,204,153195,1,8,0:0:0:0:
249,226,153425,1,4,0:0:0:0:
249,230,153887,1,8,0:0:0:0:
249,230,154118,1,8,0:0:0:0:
249,230,154233,1,0,0:0:0:0:
249,226,154464,1,8,0:0:0:0:
249,226,154579,1,0,0:0:0:0:
234,208,154695,1,0,0:0:0:0:
249,226,154810,1,8,0:0:0:0:
234,224,155041,1,0,0:0:0:0:
234,224,155271,1,8,0:0:0:0:
237,229,155502,1,8,0:0:0:0:
236,228,155618,1,8,0:0:0:0:
237,225,155733,1,0,0:0:0:0:
220,214,155964,1,0,0:0:0:0:
234,230,156079,1,8,0:0:0:0:
234,208,156310,1,8,0:0:0:0:
249,226,156425,1,0,0:0:0:0:
249,226,156656,1,8,0:0:0:0:
249,226,156748,1,8,0:0:0:0:
155,199,156841,1,8,0:0:0:0:
203,206,156933,1,8,0:0:0:0:
249,226,157118,1,0,0:0:0:0:
228,172,157348,1,0,0:0:0:0:
228,172,157464,1,0,0:0:0:0:
255,213,157579,1,8,0:0:0:0:
255,213,157695,1,0,0:0:0:0:
255,213,157925,1,8,0:0:0:0:
248,214,158156,1,8,0:0:0:0:
248,214,158387,1,8,0:0:0:0:
248,214,158618,1,0,0:0:0:0:
249,214,158964,1,8,0:0:0:0:
178,212,159195,1,0,0:0:0:0:
165,206,159310,1,0,0:0:0:0:
234,224,159425,1,8,0:0:0:0:
237,225,159656,1,8,0:0:0:0:
234,230,159771,1,0,0:0:0:0:
234,208,160002,1,8,0:0:0:0:
249,226,160118,1,0,0:0:0:0:
234,208,160233,1,0,0:0:0:0:
249,226,160348,1,8,0:0:0:0:
249,226,160579,1,8,0:0:0:0:
249,226,160810,1,4,0:0:0:0:
249,230,161271,1,8,0:0:0:0:
249,230,161502,1,0,0:0:0:0:
249,230,161618,1,0,0:0:0:0:
249,226,161848,1,8,0:0:0:0:
249,226,161964,1,0,0:0:0:0:
234,208,162079,1,0,0:0:0:0:
240,218,162195,1,8,0:0:0:0:
234,224,162425,1,0,0:0:0:0:
234,224,162656,1,8,0:0:0:0:
237,225,162887,1,0,0:0:0:0:
276,194,163002,1,8,0:0:0:0:
244,182,163118,1,0,0:0:0:0:
220,214,163348,1,0,0:0:0:0:
178,192,163464,1,8,0:0:0:0:
204,238,163695,1,8,0:0:0:0:
272,216,163810,1,0,0:0:0:0:
249,226,164041,1,8,0:0:0:0:
249,226,164118,1,8,0:0:0:0:
234,208,164195,1,8,0:0:0:0:
234,208,164271,1,8,0:0:0:0:
249,226,164502,1,0,0:0:0:0:
228,172,164733,1,0,0:0:0:0:
228,172,164848,1,0,0:0:0:0:
255,213,164964,1,8,0:0:0:0:
255,213,165079,1,0,0:0:0:0:
255,213,165310,1,8,0:0:0:0:
248,214,165541,1,8,0:0:0:0:
248,214,165771,1,8,0:0:0:0:
248,214,166002,1,0,0:0:0:0:
249,214,166348,1,8,0:0:0:0:
237,229,166579,1,8,0:0:0:0:
225,223,166695,1,8,0:0:0:0:
234,224,166810,1,0,0:0:0:0:
237,225,166925,1,0,0:0:0:0:
234,230,167156,1,0,0:0:0:0:
249,226,167271,1,8,0:0:0:0:
240,220,167502,1,0,0:0:0:0:
241,220,167618,1,0,0:0:0:0:
240,220,167733,1,8,0:0:0:0:
240,220,167848,1,0,0:0:0:0:
237,225,167964,1,8,0:0:0:0:
