osu file format v14

[General]
AudioFilename: audio.ogg
AudioLeadIn: 0
PreviewTime: 74936
Countdown: 0
SampleSet: Normal
StackLeniency: 0.7
Mode: 1
LetterboxInBreaks: 0
WidescreenStoryboard: 0

[Editor]
Bookmarks: 66669,74977,104515,136822,138668,168207
DistanceSpacing: 1.4
BeatDivisor: 4
GridSize: 4
TimelineZoom: 1.459999

[Metadata]
Title:sn4pside
TitleUnicode:sn4pside
Artist:pm04034
ArtistUnicode:pm04034
Creator:Miyoi
Version:demilune
Source:
Tags:Midnaait Reficul Alchyr Electronic Instrumental Piano snapside pianitox tech
BeatmapID:3078219
BeatmapSetID:1502424

[Difficulty]
HPDrainRate:5.5
CircleSize:5
OverallDifficulty:6.6
ApproachRate:9.1
SliderMultiplier:1.4
SliderTickRate:1

[Events]
//Background and Video events
0,0,"g.jpg",0,-95
//Break Periods
//Storyboard Layer 0 (Background)
//Storyboard Layer 1 (Fail)
//Storyboard Layer 2 (Pass)
//Storyboard Layer 3 (Foreground)
//Storyboard Layer 4 (Overlay)
//Storyboard Sound Samples

[TimingPoints]
196,461.538461538462,4,1,0,75,1,0
20272,-100,4,1,0,30,0,0
22234,-88.8888888888889,4,1,0,75,0,0
27998,-88.277840875127,4,1,0,75,0,0
28114,-87.6699317304838,4,1,0,75,0,0
28229,-87.0754716981132,4,1,0,75,0,0
28287,-86.7787049006934,4,1,0,75,0,0
28344,-86.489019033675,4,1,0,75,0,0
28460,-85.9054156244546,4,1,0,75,0,0
28575,-85.3345660464579,4,1,0,75,0,0
28691,-84.766387326369,4,1,0,75,0,0
28806,-84.2105263157895,4,1,0,75,0,0
28883,-83.8423980924265,4,1,0,75,0,0
28960,-83.4774744220225,4,1,0,75,0,0
29037,-83.1157136425034,4,1,0,75,0,0
29114,-82.7570748108714,4,1,0,75,0,0
29191,-82.4015176877581,4,1,0,75,0,0
29267,-82.0535615068341,4,1,0,75,0,0
29344,-81.7040110650069,4,1,0,75,0,0
29421,-81.3574261789335,4,1,0,75,0,0
29498,-81.0137692687476,4,1,0,75,0,0
29575,-80.6730033868677,4,1,0,75,0,0
29652,-80.3350922047544,4,1,0,75,0,0
29729,-80,4,1,0,75,0,0
35383,-79.6996698957906,4,1,0,75,0,0
35498,-79.4041464699118,4,1,0,75,0,0
35614,-79.1082652503989,4,1,0,75,0,0
35671,-78.9636818366431,4,1,0,75,0,0
35729,-78.8171033541009,4,1,0,75,0,0
35844,-78.5280768699312,4,1,0,75,0,0
35960,-78.2386766777155,4,1,0,75,0,0
36075,-77.9538692046342,4,1,0,75,0,0
36191,-77.6686781186266,4,1,0,75,0,0
36267,-77.4829575249082,4,1,0,75,0,0
36344,-77.2956968435149,4,1,0,75,0,0
36421,-77.1093391224481,4,1,0,75,0,0
36498,-76.9238778463813,4,1,0,75,0,0
36575,-76.7393065625195,4,1,0,75,0,0
36652,-76.5556188798508,4,1,0,75,0,0
36729,-76.3728084684089,4,1,0,75,0,0
36806,-76.1908690585457,4,1,0,75,0,0
36883,-76.0097944402148,4,1,0,75,0,0
36960,-75.8295784622648,4,1,0,75,0,0
37037,-75.6502150317428,4,1,0,75,0,0
37114,-75.4716981132076,4,1,0,75,0,0
37344,-76.9230769230769,4,1,0,75,0,0
37460,-77.5655179034271,4,1,0,75,0,0
37575,-78.2131016625124,4,1,0,75,0,0
37691,-78.8773642464918,4,1,0,75,0,0
37921,-80.2283728434901,4,1,0,75,0,0
38152,-81.6326530612245,4,1,0,75,0,0
38267,-82.3502433307005,4,1,0,75,0,0
38344,-82.8378101291778,4,1,0,75,0,0
38421,-83.3311847363671,4,1,0,75,0,0
38498,-83.8304715464025,4,1,0,75,0,0
38614,-84.5940428204994,4,1,0,75,0,0
38729,-85.3648873511001,4,1,0,75,0,0
38960,-86.9565217391304,4,1,0,75,0,0
52344,-89.8843578819233,4,1,0,75,0,0
52806,-93.0232558139535,4,1,0,75,0,0
52921,-93.8389589263928,4,1,0,75,0,0
53152,-95.5214612817262,4,1,0,75,0,0
53383,-97.2653985984509,4,1,0,75,0,0
53729,-100,4,1,0,75,0,0
59157,-86.9565217391304,4,1,0,75,0,0
65037,-85.3316075947904,4,1,0,75,0,0
65152,-84.5451006434771,4,1,0,75,0,0
65267,-83.7729598493357,4,1,0,75,0,0
65383,-83.0082626046878,4,1,0,75,0,0
65498,-82.2638146167558,4,1,0,75,0,0
65614,-81.526299518615,4,1,0,75,0,0
65844,-80.1024061096526,4,1,0,75,0,0
66075,-78.7215215514025,4,1,0,75,0,0
66191,-78.0458931836679,4,1,0,75,0,0
66306,-77.3874402615914,4,1,0,75,0,0
66421,-76.7400047806612,4,1,0,75,0,0
66652,-75.4716981132076,4,1,0,75,0,0
67114,-75.4716981132076,4,1,0,75,0,0
67229,-76.552640318831,4,1,0,75,0,0
67344,-77.6649959988207,4,1,0,75,0,0
67460,-78.8202607394743,4,1,0,75,0,0
67575,-80,4,1,0,75,0,0
68037,-80,4,1,0,75,0,0
68129,-79.0534167881334,4,1,0,75,0,0
68221,-78.1289721210067,4,1,0,75,0,0
68314,-77.216196976676,4,1,0,75,0,0
68406,-76.3339818686095,4,1,0,75,0,0
68498,-75.4716981132076,4,1,0,75,0,0
68960,-86.9565217391304,4,1,0,75,0,0
69026,-86.3300377382029,4,1,0,75,0,0
69092,-85.7125162568898,4,1,0,75,0,0
69158,-85.1037663335895,4,1,0,75,0,0
69223,-84.5126326234639,4,1,0,75,0,0
69289,-83.9207482529143,4,1,0,75,0,0
69355,-83.3370967499134,4,1,0,75,0,0
69421,-82.7615075271711,4,1,0,75,0,0
69652,-80.8080808080808,4,1,0,75,0,0
69883,-78.9447415329768,4,1,0,75,0,0
70114,-77.1653982325555,4,1,0,75,0,0
70344,-75.4716981132076,4,1,0,75,0,0
70772,-75.4716981132076,4,1,0,75,0,0
70887,-76.552640318831,4,1,0,75,0,0
71002,-77.6649959988207,4,1,0,75,0,0
71118,-78.8202607394743,4,1,0,75,0,0
71233,-80,4,1,0,75,0,0
71695,-80,4,1,0,75,0,0
71787,-79.0534167881334,4,1,0,75,0,0
71879,-78.1289721210067,4,1,0,75,0,0
71972,-77.216196976676,4,1,0,75,0,0
72064,-76.3339818686095,4,1,0,75,0,0
72196,461.538461538462,6,1,0,75,1,0
72196,-75.4716981132076,4,1,0,75,0,0
72652,-90.9090909090909,4,1,0,75,0,0
72718,-90.5559697100483,4,1,0,75,0,0
72784,-90.2055811772063,4,1,0,75,0,0
72850,-89.8578937122834,4,1,0,75,0,0
72916,-89.512876202296,4,1,0,75,0,0
72982,-89.170498010277,4,1,0,75,0,0
73048,-88.8307289662074,4,1,0,75,0,0
73114,-88.4935393581534,4,1,0,75,0,0
73206,-88.0277661238033,4,1,0,75,0,0
73298,-87.5668702811397,4,1,0,75,0,0
73391,-87.1058441680977,4,1,0,75,0,0
73483,-86.6545270232218,4,1,0,75,0,0
73575,-86.2078625455225,4,1,0,75,0,0
73641,-85.8902554751316,4,1,0,75,0,0
73707,-85.5749800708181,4,1,0,75,0,0
73773,-85.2620107501062,4,1,0,75,0,0
73839,-84.9513223034028,4,1,0,75,0,0
73905,-84.6428898872284,4,1,0,75,0,0
73971,-84.3366890175945,4,1,0,75,0,0
74037,-84.0326955635251,4,1,0,75,0,0
74152,-83.5082133294739,4,1,0,75,0,0
74267,-82.9902375002247,4,1,0,75,0,0
74383,-82.4742268041237,4,1,0,75,0,0
74498,-81.9689597613382,4,1,0,75,0,0
74564,-81.6817667044168,4,1,0,75,0,0
74630,-81.3965790865808,4,1,0,75,0,0
74696,-81.1133759752583,4,1,0,75,0,0
74762,-80.8321367281897,4,1,0,75,0,0
74828,-80.5528409884127,4,1,0,75,0,0
74894,-80.2754686793503,4,1,0,75,0,0
74965,461.538461538462,4,1,0,75,1,1
74965,-80,4,1,0,75,0,1
78190,-71.4285714285714,4,1,0,75,0,1
78283,-73.003081298886,4,1,0,75,0,1
78375,-74.6304821904531,4,1,0,75,0,1
78467,-76.3320941759604,4,1,0,75,0,1
78560,-78.1329274479959,4,1,0,75,0,1
78652,-80,4,1,0,75,0,1
85575,-71.4285714285714,4,1,0,75,0,1
85641,-72.5413060582219,4,1,0,75,0,1
85707,-73.6892583120205,4,1,0,75,0,1
85773,-74.8741270099074,4,1,0,75,0,1
85839,-76.0977220204688,4,1,0,75,0,1
85905,-77.3619734854841,4,1,0,75,0,1
85970,-78.6488100315619,4,1,0,75,0,1
86036,-80,4,1,0,75,0,1
92960,-71.4285714285714,4,1,0,75,0,1
93052,-72.9892336922103,4,1,0,75,0,1
93144,-74.6196179993525,4,1,0,75,0,1
93236,-76.3245033112583,4,1,0,75,0,1
93329,-78.1289721210067,4,1,0,75,0,1
93421,-80,4,1,0,75,0,1
100344,-71.4285714285714,4,1,0,75,0,1
100410,-72.5388601036269,4,1,0,75,0,1
100476,-73.6842105263158,4,1,0,75,0,1
100542,-74.8663101604278,4,1,0,75,0,1
100608,-76.0869565217391,4,1,0,75,0,1
100674,-77.3480662983425,4,1,0,75,0,1
100740,-78.6516853932584,4,1,0,75,0,1
100806,-80,4,1,0,75,0,1
104503,-66.6666666666667,4,1,0,75,0,0
104960,-71.4285714285714,4,1,0,75,0,0
105052,-71.7937319404312,4,1,0,75,0,0
105144,-72.1626452189455,4,1,0,75,0,0
105236,-72.5353694138783,4,1,0,75,0,0
105329,-72.9160787854845,4,1,0,75,0,0
105421,-73.2966471889715,4,1,0,75,0,0
105513,-73.6812090105503,4,1,0,75,0,0
105606,-74.0740740740741,4,1,0,75,0,0
105698,-74.4668587896254,4,1,0,75,0,0
105790,-74.8638312666589,4,1,0,75,0,0
105883,-75.2694436353044,4,1,0,75,0,0
105975,-75.6750424647104,4,1,0,75,0,0
106067,-76.0850362169484,4,1,0,75,0,0
106160,-76.504026527712,4,1,0,75,0,0
106252,-76.9230769230769,4,1,0,75,0,0
106344,-77.3467432950192,4,1,0,75,0,0
106436,-77.775102335661,4,1,0,75,0,0
106529,-78.2129668866154,4,1,0,75,0,0
106621,-78.6510014001339,4,1,0,75,0,0
106713,-79.0939700030609,4,1,0,75,0,0
106806,-79.5468538357345,4,1,0,75,0,0
106898,-80,4,1,0,75,0,0
106990,-80.4583385228547,4,1,0,75,0,0
107083,-80.9270278734732,4,1,0,75,0,0
107175,-81.3960813960814,4,1,0,75,0,0
107267,-81.8706038907547,4,1,0,75,0,0
107360,-82.3559408465069,4,1,0,75,0,0
107452,-82.8417542959733,4,1,0,75,0,0
107544,-83.3333333333333,4,1,0,75,0,0
107636,-83.8307812094472,4,1,0,75,0,0
107729,-71.4285714285714,4,1,0,75,0,0
107795,-72.5413060582219,4,1,0,75,0,0
107861,-73.6892583120205,4,1,0,75,0,0
107927,-74.8741270099074,4,1,0,75,0,0
107992,-76.0788843964023,4,1,0,75,0,0
108058,-77.3425048234209,4,1,0,75,0,0
108124,-78.6488100315619,4,1,0,75,0,0
108190,-80,4,1,0,75,0,0
108652,-71.4285714285714,4,1,0,75,0,0
108744,-71.793618345036,4,1,0,75,0,0
108836,-72.1624156876759,4,1,0,75,0,0
108929,-72.5390927561937,4,1,0,75,0,0
109021,-72.9156088148675,4,1,0,75,0,0
109113,-73.2960539001622,4,1,0,75,0,0
109206,-73.6846906428881,4,1,0,75,0,0
109298,-74.0732249707696,4,1,0,75,0,0
109390,-74.4658784484547,4,1,0,75,0,0
109483,-74.8670536303917,4,1,0,75,0,0
109575,-75.2681909776013,4,1,0,75,0,0
109667,-75.6736500649936,4,1,0,75,0,0
109760,-76.0879804069329,4,1,0,75,0,0
109852,-76.5023440829663,4,1,0,75,0,0
109944,-76.9212455956576,4,1,0,75,0,0
110036,-77.3447598985015,4,1,0,75,0,0
110129,-77.7776440427043,4,1,0,75,0,0
110221,-78.2106677317454,4,1,0,75,0,0
110313,-78.648540097124,4,1,0,75,0,0
110406,-79.0961835051042,4,1,0,75,0,0
110498,-79.5440557374628,4,1,0,75,0,0
110590,-79.9970288940058,4,1,0,75,0,0
110683,-80.4601994695753,4,1,0,75,0,0
110775,-80.9236972937773,4,1,0,75,0,0
110867,-81.3925660952477,4,1,0,75,0,0
110960,-81.8720859517535,4,1,0,75,0,0
111052,-82.3520415965744,4,1,0,75,0,0
111144,-82.8376576761358,4,1,0,75,0,0
111236,-83.3290349203074,4,1,0,75,0,0
111329,-83.8317138668708,4,1,0,75,0,0
111397,-71.4285714285714,4,1,0,75,0,0
111463,-72.5413060582219,4,1,0,75,0,0
111529,-73.6892583120205,4,1,0,75,0,0
111595,-74.8741270099074,4,1,0,75,0,0
111660,-76.0788843964023,4,1,0,75,0,0
111726,-77.3425048234209,4,1,0,75,0,0
111792,-78.6488100315619,4,1,0,75,0,0
111858,-80,4,1,0,75,0,0
112344,-71.4285714285714,4,1,0,75,0,0
112436,-71.793618345036,4,1,0,75,0,0
112529,-72.1664451715935,4,1,0,75,0,0
112621,-72.5390927561937,4,1,0,75,0,0
112713,-72.9156088148675,4,1,0,75,0,0
112806,-73.3002109848227,4,1,0,75,0,0
112898,-73.6846906428881,4,1,0,75,0,0
112990,-74.0732249707696,4,1,0,75,0,0
113083,-74.4701692922914,4,1,0,75,0,0
113175,-74.8670536303917,4,1,0,75,0,0
113267,-75.2681909776013,4,1,0,75,0,0
113360,-75.6780812292125,4,1,0,75,0,0
113452,-76.0879804069329,4,1,0,75,0,0
113544,-76.5023440829663,4,1,0,75,0,0
113636,-76.9212455956576,4,1,0,75,0,0
113729,-77.3493889374334,4,1,0,75,0,0
113821,-77.7776440427043,4,1,0,75,0,0
113913,-78.2106677317454,4,1,0,75,0,0
114006,-78.6533265171986,4,1,0,75,0,0
114098,-79.0961835051042,4,1,0,75,0,0
114190,-79.5440557374628,4,1,0,75,0,0
114283,-80.0019808599408,4,1,0,75,0,0
114375,-80.4601994695753,4,1,0,75,0,0
114467,-80.9236972937773,4,1,0,75,0,0
114560,-81.3976923464503,4,1,0,75,0,0
114652,-81.8720859517535,4,1,0,75,0,0
114744,-82.3520415965744,4,1,0,75,0,0
114836,-82.8376576761358,4,1,0,75,0,0
114929,-83.3344080058806,4,1,0,75,0,0
115021,-83.8317138668708,4,1,0,75,0,0
115090,-71.4285714285714,4,1,0,75,0,0
115156,-72.5413060582219,4,1,0,75,0,0
115222,-73.6892583120205,4,1,0,75,0,0
115288,-74.8741270099074,4,1,0,75,0,0
115353,-76.0788843964023,4,1,0,75,0,0
115419,-77.3425048234209,4,1,0,75,0,0
115485,-78.6488100315619,4,1,0,75,0,0
115551,-80,4,1,0,75,0,0
116036,-71.4285714285714,4,1,0,75,0,0
116129,-71.8053428620044,4,1,0,75,0,0
116221,-72.1819944124523,4,1,0,75,0,0
116313,-72.5626182151659,4,1,0,75,0,0
116406,-72.9514809265875,4,1,0,75,0,0
116498,-73.3402850191171,4,1,0,75,0,0
116590,-73.733255678509,4,1,0,75,0,0
116683,-74.1348011945892,4,1,0,75,0,0
116775,-74.5363556078893,4,1,0,75,0,0
116867,-74.9422837861836,4,1,0,75,0,0
116960,-75.3571428571429,4,1,0,75,0,0
117052,-75.772085228633,4,1,0,75,0,0
117144,-76.1916225324988,4,1,0,75,0,0
117236,-76.6158315177923,4,1,0,75,0,0
117329,-77.0494796421399,4,1,0,75,0,0
117421,-77.4833221127364,4,1,0,75,0,0
117513,-77.9220779220779,4,1,0,75,0,0
117606,-78.3706821839792,4,1,0,75,0,0
117698,-78.8195741501681,4,1,0,75,0,0
117790,-79.2736380713838,4,1,0,75,0,0
117883,-79.7379857655728,4,1,0,75,0,0
117975,-80.2027241051631,4,1,0,75,0,0
118067,-80.672911489199,4,1,0,75,0,0
118160,-81.1538461538462,4,1,0,75,0,0
118252,-81.6352850141862,4,1,0,75,0,0
118344,-82.1224701608718,4,1,0,75,0,0
118436,-82.6155050900548,4,1,0,75,0,0
118529,-83.119952727989,4,1,0,75,0,0
118621,-83.6250743113812,4,1,0,75,0,0
118713,-84.1363726988769,4,1,0,75,0,0
118782,-71.4285714285714,4,1,0,75,0,0
118848,-72.5413060582219,4,1,0,75,0,0
118914,-73.6892583120205,4,1,0,75,0,0
118980,-74.8741270099074,4,1,0,75,0,0
119045,-76.0788843964023,4,1,0,75,0,0
119111,-77.3425048234209,4,1,0,75,0,0
119177,-78.6488100315619,4,1,0,75,0,0
119272,461.538461538462,4,1,0,75,1,8
120195,461.538461538462,4,1,0,75,1,0
120195,-88.8888888888889,4,1,0,75,0,0
135310,-85.1063829787234,4,1,0,75,0,0
135425,-83.3333333333333,4,1,0,75,0,0
135771,-75.4716981132076,4,1,0,75,0,0
135887,-66.6666666666667,4,1,0,75,0,0
136805,-68.8196094878606,4,1,0,75,0,0
136871,-69.4605145571704,4,1,0,75,0,0
136937,-70.1134691164602,4,1,0,75,0,0
137003,-70.7788161993769,4,1,0,75,0,0
137069,-71.4569119852906,4,1,0,75,0,0
137135,-72.148126435097,4,1,0,75,0,0
137200,-72.8420637269409,4,1,0,75,0,0
137266,-73.5604702131899,4,1,0,75,0,0
137359,-74.5971611860383,4,1,0,75,0,0
137451,-75.6518620972286,4,1,0,75,0,0
137543,-76.7368147570798,4,1,0,75,0,0
137636,-77.8656543287989,4,1,0,75,0,0
137728,-79.0155163188871,4,1,0,75,0,0
137843,-80.5014990460616,4,1,0,75,0,0
137959,-82.0581207979108,4,1,0,75,0,0
138074,-83.6619079990936,4,1,0,75,0,0
138190,-85.3444290337494,4,1,0,75,0,0
138420,-88.8888888888889,4,1,0,75,0,0
138656,-80,4,1,0,75,0,1
141858,-71.4285714285714,4,1,0,75,0,1
141951,-73.003081298886,4,1,0,75,0,1
142043,-74.6304821904531,4,1,0,75,0,1
142135,-76.3320941759604,4,1,0,75,0,1
142228,-78.1329274479959,4,1,0,75,0,1
142320,-80,4,1,0,75,0,1
149243,-71.4285714285714,4,1,0,75,0,1
149309,-72.5413060582219,4,1,0,75,0,1
149375,-73.6892583120205,4,1,0,75,0,1
149441,-74.8741270099074,4,1,0,75,0,1
149507,-76.0977220204688,4,1,0,75,0,1
149573,-77.3619734854841,4,1,0,75,0,1
149638,-78.6488100315619,4,1,0,75,0,1
149704,-80,4,1,0,75,0,1
156628,-71.4285714285714,4,1,0,75,0,1
156720,-72.9892336922103,4,1,0,75,0,1
156812,-74.6196179993525,4,1,0,75,0,1
156904,-76.3245033112583,4,1,0,75,0,1
156997,-78.1289721210067,4,1,0,75,0,1
157089,-80,4,1,0,75,0,1
164012,-71.4285714285714,4,1,0,75,0,1
164078,-72.5388601036269,4,1,0,75,0,1
164144,-73.6842105263158,4,1,0,75,0,1
164210,-74.8663101604278,4,1,0,75,0,1
164276,-76.0869565217391,4,1,0,75,0,1
164342,-77.3480662983425,4,1,0,75,0,1
164408,-78.6516853932584,4,1,0,75,0,1
164474,-80,4,1,0,75,0,1
168195,-80,4,1,0,75,0,0

[HitObjects]
309,157,196,5,8,0:0:0:0:
208,134,1119,1,8,0:0:0:0:
208,134,1349,1,0,0:0:0:0:
208,134,1580,1,8,0:0:0:0:
208,134,1811,1,8,0:0:0:0:
188,136,2042,1,0,0:0:0:0:
194,128,2965,1,8,0:0:0:0:
194,128,3196,1,8,0:0:0:0:
194,128,3426,1,0,0:0:0:0:
194,128,3657,1,8,0:0:0:0:
194,128,3888,1,0,0:0:0:0:
194,128,4811,1,8,0:0:0:0:
194,128,5042,1,0,0:0:0:0:
194,128,5272,1,0,0:0:0:0:
194,128,5503,1,8,0:0:0:0:
194,128,5734,1,0,0:0:0:0:
194,128,6657,1,8,0:0:0:0:
194,128,6888,1,0,0:0:0:0:
194,128,7119,1,0,0:0:0:0:
194,128,7580,1,8,0:0:0:0:
194,128,8503,1,8,0:0:0:0:
194,128,8734,1,0,0:0:0:0:
194,128,8965,1,8,0:0:0:0:
194,128,9196,1,8,0:0:0:0:
194,128,9426,1,0,0:0:0:0:
194,128,10349,1,8,0:0:0:0:
194,128,10580,1,8,0:0:0:0:
194,128,10811,1,0,0:0:0:0:
194,128,11042,1,8,0:0:0:0:
194,128,11272,1,0,0:0:0:0:
194,128,12196,1,8,0:0:0:0:
194,128,12426,1,0,0:0:0:0:
194,128,12657,1,0,0:0:0:0:
194,128,12888,1,8,0:0:0:0:
194,128,13119,1,0,0:0:0:0:
194,128,14042,1,8,0:0:0:0:
194,128,14272,1,0,0:0:0:0:
194,128,14503,1,0,0:0:0:0:
194,128,14965,1,8,0:0:0:0:
194,128,15888,1,0,0:0:0:0:
194,128,16811,1,8,0:0:0:0:
194,128,17042,1,0,0:0:0:0:
194,128,17272,1,0,0:0:0:0:
194,128,17734,1,8,0:0:0:0:
194,128,18196,1,0,0:0:0:0:
194,128,18657,1,8,0:0:0:0:
256,192,20503,8,0,22119,0:0:0:0:
242,115,22349,5,8,0:0:0:0:
242,115,22580,1,0,0:0:0:0:
242,115,22696,1,8,0:0:0:0:
242,115,22811,1,8,0:0:0:0:
242,115,22926,1,0,0:0:0:0:
242,115,23042,1,8,0:0:0:0:
242,115,23157,1,0,0:0:0:0:
243,123,23388,1,8,0:0:0:0:
243,123,23503,1,0,0:0:0:0:
243,123,23580,1,0,0:0:0:0:
213,159,23657,1,0,0:0:0:0:
243,123,23734,1,8,0:0:0:0:
212,128,23849,1,8,0:0:0:0:
212,128,23965,1,0,0:0:0:0:
212,128,24080,1,0,0:0:0:0:
212,128,24196,1,8,0:0:0:0:
219,117,24426,1,8,0:0:0:0:
219,119,24542,1,0,0:0:0:0:
218,119,24599,1,8,0:0:0:0:
217,119,24657,1,0,0:0:0:0:
212,128,24772,1,0,0:0:0:0:
218,125,24888,1,0,0:0:0:0:
213,115,25003,1,8,0:0:0:0:
243,123,25119,1,0,0:0:0:0:
243,123,25196,1,8,0:0:0:0:
213,159,25272,1,8,0:0:0:0:
243,123,25349,1,0,0:0:0:0:
243,123,25426,1,0,0:0:0:0:
213,159,25503,1,0,0:0:0:0:
243,123,25580,1,8,0:0:0:0:
243,123,25657,1,8,0:0:0:0:
213,159,25734,1,0,0:0:0:0:
243,123,25811,1,8,0:0:0:0:
243,123,25888,1,0,0:0:0:0:
213,159,25965,1,0,0:0:0:0:
243,123,26042,1,8,0:0:0:0:
255,150,26272,1,0,0:0:0:0:
255,150,26388,1,0,0:0:0:0:
255,150,26503,1,8,0:0:0:0:
255,150,26619,1,8,0:0:0:0:
255,150,26734,1,0,0:0:0:0:
255,150,26849,1,8,0:0:0:0:
240,148,27080,1,8,0:0:0:0:
240,148,27196,1,0,0:0:0:0:
243,147,27311,1,8,0:0:0:0:
240,148,27426,1,0,0:0:0:0:
240,148,27542,1,0,0:0:0:0:
240,148,27657,1,8,0:0:0:0:
242,147,27888,1,8,0:0:0:0:
239,149,28003,1,0,0:0:0:0:
219,117,28119,1,8,0:0:0:0:
219,119,28234,1,8,0:0:0:0:
218,119,28292,1,8,0:0:0:0:
217,119,28349,1,0,0:0:0:0:
212,128,28465,1,8,0:0:0:0:
218,125,28580,1,0,0:0:0:0:
213,115,28696,1,8,0:0:0:0:
243,123,28811,1,0,0:0:0:0:
243,123,28888,1,0,0:0:0:0:
213,159,28965,1,8,0:0:0:0:
243,123,29042,1,0,0:0:0:0:
243,123,29119,1,8,0:0:0:0:
213,159,29196,1,8,0:0:0:0:
243,123,29272,1,0,0:0:0:0:
243,123,29349,1,0,0:0:0:0:
213,159,29426,1,8,0:0:0:0:
243,123,29503,1,0,0:0:0:0:
243,123,29580,1,8,0:0:0:0:
213,159,29657,1,8,0:0:0:0:
243,123,29734,1,4,0:0:0:0:
242,115,29965,1,0,0:0:0:0:
242,115,30080,1,8,0:0:0:0:
242,115,30196,1,8,0:0:0:0:
242,115,30311,1,0,0:0:0:0:
242,115,30426,1,8,0:0:0:0:
242,115,30542,1,0,0:0:0:0:
243,123,30772,1,8,0:0:0:0:
243,123,30888,1,8,0:0:0:0:
243,123,30965,1,0,0:0:0:0:
213,159,31042,1,0,0:0:0:0:
243,123,31119,1,8,0:0:0:0:
212,128,31234,1,8,0:0:0:0:
212,128,31349,1,0,0:0:0:0:
212,128,31465,1,0,0:0:0:0:
212,128,31580,1,8,0:0:0:0:
219,117,31811,1,8,0:0:0:0:
219,119,31926,1,0,0:0:0:0:
218,119,31984,1,0,0:0:0:0:
217,119,32042,1,8,0:0:0:0:
212,128,32157,1,8,0:0:0:0:
218,125,32272,1,0,0:0:0:0:
213,115,32388,1,8,0:0:0:0:
243,123,32503,1,0,0:0:0:0:
243,123,32580,1,8,0:0:0:0:
213,159,32657,1,8,0:0:0:0:
243,123,32734,1,0,0:0:0:0:
243,123,32811,1,0,0:0:0:0:
213,159,32888,1,0,0:0:0:0:
243,123,32965,1,8,0:0:0:0:
243,123,33042,1,8,0:0:0:0:
213,159,33119,1,0,0:0:0:0:
243,123,33196,1,8,0:0:0:0:
243,123,33272,1,0,0:0:0:0:
213,159,33349,1,0,0:0:0:0:
243,123,33426,1,8,0:0:0:0:
255,150,33657,1,0,0:0:0:0:
255,150,33772,1,0,0:0:0:0:
255,150,33888,1,8,0:0:0:0:
255,150,34003,1,8,0:0:0:0:
255,150,34119,1,0,0:0:0:0:
255,150,34234,1,8,0:0:0:0:
240,148,34465,1,8,0:0:0:0:
240,148,34580,1,0,0:0:0:0:
242,196,34657,1,0,0:0:0:0:
243,147,34734,1,0,0:0:0:0:
240,148,34811,1,8,0:0:0:0:
240,148,34926,1,0,0:0:0:0:
240,148,35042,1,8,0:0:0:0:
242,147,35272,1,0,0:0:0:0:
239,149,35388,1,0,0:0:0:0:
219,117,35503,1,8,0:0:0:0:
219,119,35619,1,8,0:0:0:0:
218,119,35676,1,8,0:0:0:0:
217,119,35734,1,0,0:0:0:0:
212,128,35849,1,8,0:0:0:0:
218,125,35965,1,0,0:0:0:0:
213,115,36080,1,8,0:0:0:0:
243,123,36196,1,0,0:0:0:0:
243,123,36272,1,0,0:0:0:0:
213,159,36349,1,8,0:0:0:0:
243,123,36426,1,0,0:0:0:0:
243,123,36503,1,8,0:0:0:0:
213,159,36580,1,8,0:0:0:0:
243,123,36657,1,0,0:0:0:0:
243,123,36734,1,0,0:0:0:0:
213,159,36811,1,8,0:0:0:0:
243,123,36888,1,0,0:0:0:0:
243,123,36965,1,8,0:0:0:0:
213,159,37042,1,8,0:0:0:0:
243,123,37119,1,4,0:0:0:0:
200,146,37349,1,0,0:0:0:0:
200,146,37465,1,0,0:0:0:0:
200,146,37580,1,8,0:0:0:0:
200,146,37696,1,0,0:0:0:0:
200,146,37926,1,0,0:0:0:0:
200,146,38157,1,8,0:0:0:0:
200,146,38272,1,0,0:0:0:0:
200,146,38349,1,8,0:0:0:0:
179,139,38426,1,0,0:0:0:0:
200,146,38503,1,8,0:0:0:0:
200,146,38619,1,0,0:0:0:0:
200,146,38734,1,8,0:0:0:0:
200,146,38965,1,0,0:0:0:0:
200,146,39196,1,8,0:0:0:0:
200,146,39311,1,0,0:0:0:0:
192,148,39369,1,0,0:0:0:0:
200,146,39426,1,8,0:0:0:0:
200,146,39542,1,0,0:0:0:0:
200,146,39772,1,0,0:0:0:0:
228,142,39888,1,0,0:0:0:0:
200,146,40003,1,8,0:0:0:0:
200,146,40119,1,0,0:0:0:0:
200,146,40234,1,0,0:0:0:0:
200,146,40349,1,8,0:0:0:0:
200,146,40580,1,0,0:0:0:0:
200,146,40811,1,4,0:0:0:0:
200,146,41042,1,8,0:0:0:0:
200,146,41157,1,0,0:0:0:0:
200,146,41272,1,8,0:0:0:0:
200,146,41388,1,8,0:0:0:0:
200,146,41503,1,0,0:0:0:0:
200,146,41619,1,8,0:0:0:0:
200,146,41849,1,8,0:0:0:0:
200,146,41965,1,8,0:0:0:0:
140,142,42042,1,0,0:0:0:0:
200,146,42119,1,0,0:0:0:0:
200,146,42196,1,8,0:0:0:0:
200,146,42311,1,8,0:0:0:0:
200,146,42426,1,0,0:0:0:0:
200,146,42657,1,0,0:0:0:0:
200,146,42888,1,8,0:0:0:0:
200,146,43003,1,0,0:0:0:0:
209,154,43061,1,0,0:0:0:0:
200,146,43119,1,8,0:0:0:0:
200,146,43234,1,8,0:0:0:0:
200,146,43349,1,8,0:0:0:0:
200,146,43465,1,0,0:0:0:0:
200,146,43580,1,0,0:0:0:0:
200,146,43696,1,8,0:0:0:0:
200,146,43926,1,0,0:0:0:0:
200,146,44042,1,8,0:0:0:0:
200,146,44272,1,0,0:0:0:0:
200,146,44503,1,4,0:0:0:0:
200,146,44734,1,0,0:0:0:0:
200,146,44849,1,0,0:0:0:0:
200,146,44965,1,8,0:0:0:0:
192,137,45080,1,8,0:0:0:0:
200,146,45196,1,0,0:0:0:0:
200,146,45311,1,0,0:0:0:0:
200,146,45542,1,8,0:0:0:0:
200,146,45657,1,0,0:0:0:0:
200,146,45734,1,8,0:0:0:0:
179,139,45811,1,0,0:0:0:0:
200,146,45888,1,8,0:0:0:0:
200,146,46003,1,0,0:0:0:0:
200,146,46119,1,8,0:0:0:0:
200,146,46349,1,0,0:0:0:0:
200,146,46580,1,8,0:0:0:0:
200,146,46696,1,0,0:0:0:0:
192,148,46753,1,0,0:0:0:0:
200,146,46811,1,8,0:0:0:0:
200,146,46926,1,0,0:0:0:0:
200,146,47157,1,0,0:0:0:0:
228,142,47272,1,0,0:0:0:0:
200,146,47388,1,8,0:0:0:0:
200,146,47503,1,0,0:0:0:0:
200,146,47619,1,0,0:0:0:0:
200,146,47734,1,8,0:0:0:0:
186,132,47849,1,8,0:0:0:0:
200,146,47965,1,0,0:0:0:0:
200,146,48196,1,4,0:0:0:0:
200,146,48426,1,8,0:0:0:0:
200,146,48542,1,0,0:0:0:0:
200,146,48657,1,8,0:0:0:0:
200,146,48772,1,8,0:0:0:0:
200,146,48888,1,0,0:0:0:0:
200,146,49003,1,8,0:0:0:0:
200,146,49234,1,8,0:0:0:0:
200,146,49349,1,8,0:0:0:0:
140,142,49426,1,0,0:0:0:0:
200,146,49503,1,0,0:0:0:0:
200,146,49580,1,8,0:0:0:0:
200,146,49696,1,8,0:0:0:0:
200,146,49811,1,0,0:0:0:0:
200,146,50042,1,0,0:0:0:0:
200,146,50272,1,8,0:0:0:0:
200,146,50388,1,0,0:0:0:0:
209,154,50446,1,0,0:0:0:0:
200,146,50503,1,8,0:0:0:0:
200,146,50619,1,8,0:0:0:0:
200,146,50734,1,8,0:0:0:0:
200,146,50849,1,0,0:0:0:0:
200,146,50965,1,0,0:0:0:0:
200,146,51080,1,8,0:0:0:0:
200,146,51311,1,0,0:0:0:0:
200,146,51426,1,8,0:0:0:0:
200,146,51657,1,0,0:0:0:0:
164,135,51888,1,12,0:0:0:0:
164,135,52349,1,8,0:0:0:0:
164,135,52811,1,0,0:0:0:0:
156,137,52926,1,0,0:0:0:0:
155,135,53157,1,8,0:0:0:0:
155,135,53388,1,8,0:0:0:0:
156,135,53734,1,0,0:0:0:0:
155,135,54196,1,8,0:0:0:0:
156,135,54542,1,0,0:0:0:0:
155,135,54772,1,0,0:0:0:0:
155,135,55003,1,8,0:0:0:0:
156,135,55234,1,0,0:0:0:0:
156,135,55580,1,8,0:0:0:0:
155,135,56042,1,8,0:0:0:0:
156,135,56503,1,0,0:0:0:0:
156,135,56619,1,0,0:0:0:0:
155,135,56849,1,8,0:0:0:0:
156,135,57080,1,8,0:0:0:0:
156,135,57311,1,8,0:0:0:0:
156,135,57426,1,0,0:0:0:0:
156,135,57542,1,8,0:0:0:0:
155,135,57772,1,8,0:0:0:0:
156,135,57888,1,0,0:0:0:0:
156,135,58003,1,8,0:0:0:0:
156,135,58234,1,0,0:0:0:0:
156,135,58465,1,0,0:0:0:0:
155,135,58696,1,8,0:0:0:0:
156,135,58926,1,8,0:0:0:0:
156,135,59272,1,12,0:0:0:0:
155,135,59734,1,12,0:0:0:0:
156,135,60196,1,0,0:0:0:0:
155,135,60311,1,0,0:0:0:0:
155,135,60542,1,8,0:0:0:0:
155,135,60772,1,8,0:0:0:0:
156,135,61119,1,4,0:0:0:0:
155,135,61465,1,0,0:0:0:0:
155,135,61580,1,8,0:0:0:0:
156,135,61926,1,0,0:0:0:0:
161,136,62157,1,8,0:0:0:0:
161,136,62388,1,0,0:0:0:0:
161,136,62503,1,8,0:0:0:0:
161,136,62619,1,0,0:0:0:0:
161,136,62734,1,0,0:0:0:0:
161,136,62965,1,12,0:0:0:0:
161,136,63426,1,12,0:0:0:0:
161,136,63888,1,0,0:0:0:0:
161,136,64003,1,0,0:0:0:0:
161,136,64234,1,8,0:0:0:0:
161,136,64465,1,8,0:0:0:0:
161,136,64696,1,8,0:0:0:0:
161,136,64811,1,4,0:0:0:0:
161,136,65042,1,0,0:0:0:0:
161,136,65157,1,0,0:0:0:0:
161,136,65272,1,8,0:0:0:0:
161,136,65388,1,0,0:0:0:0:
161,136,65503,1,0,0:0:0:0:
161,136,65619,1,8,0:0:0:0:
161,136,65849,1,8,0:0:0:0:
161,136,66080,1,0,0:0:0:0:
161,136,66196,1,8,0:0:0:0:
161,136,66311,1,8,0:0:0:0:
161,136,66426,1,0,0:0:0:0:
173,153,66657,1,4,0:0:0:0:
177,150,67119,1,8,0:0:0:0:
173,153,67234,1,8,0:0:0:0:
173,153,67349,1,8,0:0:0:0:
173,153,67465,1,8,0:0:0:0:
171,148,67580,1,4,0:0:0:0:
158,144,68042,1,0,0:0:0:0:
169,142,68134,1,0,0:0:0:0:
169,142,68226,1,0,0:0:0:0:
167,140,68319,1,8,0:0:0:0:
131,137,68411,1,8,0:0:0:0:
160,141,68503,1,4,0:0:0:0:
138,140,68965,1,0,0:0:0:0:
120,153,69031,1,0,0:0:0:0:
138,140,69097,1,8,0:0:0:0:
138,140,69163,1,8,0:0:0:0:
138,140,69228,1,0,0:0:0:0:
138,140,69294,1,0,0:0:0:0:
119,149,69360,1,0,0:0:0:0:
121,153,69426,1,12,0:0:0:0:
154,142,69657,1,0,0:0:0:0:
154,142,69888,1,8,0:0:0:0:
154,142,70119,1,8,0:0:0:0:
154,142,70349,1,4,0:0:0:0:
177,150,70811,1,8,0:0:0:0:
173,153,70926,1,8,0:0:0:0:
173,153,71042,1,8,0:0:0:0:
173,153,71157,1,8,0:0:0:0:
171,148,71272,1,4,0:0:0:0:
158,144,71734,1,0,0:0:0:0:
169,142,71826,1,0,0:0:0:0:
169,142,71919,1,8,0:0:0:0:
167,140,72011,1,8,0:0:0:0:
131,137,72103,1,8,0:0:0:0:
160,141,72196,1,4,0:0:0:0:
138,140,72657,1,0,0:0:0:0:
120,153,72723,1,8,0:0:0:0:
138,140,72789,1,0,0:0:0:0:
138,140,72855,1,0,0:0:0:0:
138,140,72921,1,8,0:0:0:0:
138,140,72987,1,8,0:0:0:0:
119,149,73053,1,8,0:0:0:0:
121,153,73119,1,0,0:0:0:0:
195,143,73211,1,0,0:0:0:0:
154,142,73303,1,8,0:0:0:0:
149,139,73396,1,8,0:0:0:0:
169,126,73488,1,8,0:0:0:0:
154,142,73580,1,0,0:0:0:0:
183,120,73646,1,0,0:0:0:0:
187,118,73712,1,0,0:0:0:0:
154,142,73778,1,0,0:0:0:0:
150,119,73844,1,8,0:0:0:0:
150,119,73910,1,8,0:0:0:0:
148,118,73976,1,8,0:0:0:0:
154,142,74042,1,0,0:0:0:0:
169,141,74157,1,0,0:0:0:0:
152,135,74272,1,8,0:0:0:0:
160,139,74388,1,8,0:0:0:0:
160,139,74503,1,0,0:0:0:0:
151,103,74569,1,0,0:0:0:0:
161,102,74635,1,0,0:0:0:0:
161,102,74701,1,8,0:0:0:0:
161,102,74767,1,0,0:0:0:0:
161,102,74833,1,8,0:0:0:0:
161,102,74899,1,8,0:0:0:0:
156,106,74965,1,4,0:0:0:0:
163,103,75195,1,0,0:0:0:0:
167,97,75311,1,0,0:0:0:0:
167,97,75426,1,8,0:0:0:0:
167,97,75541,1,0,0:0:0:0:
169,91,75657,1,8,0:0:0:0:
169,91,75772,1,0,0:0:0:0:
172,80,76003,1,8,0:0:0:0:
172,80,76118,1,0,0:0:0:0:
172,80,76195,1,0,0:0:0:0:
123,100,76272,1,0,0:0:0:0:
173,79,76349,1,8,0:0:0:0:
173,79,76465,1,0,0:0:0:0:
173,79,76580,1,8,0:0:0:0:
175,77,76695,1,8,0:0:0:0:
165,75,76811,1,0,0:0:0:0:
193,77,76926,1,8,0:0:0:0:
179,84,77041,1,8,0:0:0:0:
179,83,77157,1,0,0:0:0:0:
161,84,77215,1,0,0:0:0:0:
179,83,77272,1,8,0:0:0:0:
179,82,77388,1,8,0:0:0:0:
180,80,77503,1,8,0:0:0:0:
180,80,77618,1,0,0:0:0:0:
248,110,77734,1,8,0:0:0:0:
248,102,77811,1,8,0:0:0:0:
243,99,77888,1,0,0:0:0:0:
242,98,77965,1,8,0:0:0:0:
241,98,78041,1,0,0:0:0:0:
240,100,78118,1,0,0:0:0:0:
238,119,78195,1,8,0:0:0:0:
238,119,78288,1,0,0:0:0:0:
227,114,78380,1,8,0:0:0:0:
229,114,78472,1,0,0:0:0:0:
229,115,78565,1,8,0:0:0:0:
230,113,78657,1,0,0:0:0:0:
179,120,78888,1,0,0:0:0:0:
179,120,79003,1,8,0:0:0:0:
179,120,79118,1,8,0:0:0:0:
214,92,79234,1,0,0:0:0:0:
214,92,79349,1,0,0:0:0:0:
214,92,79465,1,8,0:0:0:0:
214,92,79695,1,8,0:0:0:0:
214,92,79811,1,8,0:0:0:0:
214,92,79888,1,0,0:0:0:0:
235,100,79965,1,0,0:0:0:0:
214,92,80041,1,8,0:0:0:0:
214,92,80157,1,8,0:0:0:0:
214,92,80272,1,0,0:0:0:0:
180,93,80388,1,8,0:0:0:0:
214,92,80503,1,0,0:0:0:0:
197,83,80618,1,8,0:0:0:0:
197,83,80734,1,8,0:0:0:0:
197,83,80849,1,0,0:0:0:0:
202,80,80907,1,0,0:0:0:0:
218,79,80965,1,8,0:0:0:0:
223,79,81080,1,0,0:0:0:0:
235,76,81195,1,8,0:0:0:0:
235,76,81311,1,8,0:0:0:0:
152,78,81426,1,0,0:0:0:0:
152,78,81503,1,8,0:0:0:0:
201,65,81580,1,8,0:0:0:0:
175,70,81657,1,0,0:0:0:0:
175,70,81734,1,8,0:0:0:0:
175,70,81811,1,8,0:0:0:0:
175,70,81888,1,0,0:0:0:0:
190,69,81965,1,0,0:0:0:0:
192,69,82041,1,0,0:0:0:0:
195,68,82118,1,8,0:0:0:0:
207,67,82195,1,8,0:0:0:0:
210,67,82272,1,8,0:0:0:0:
197,64,82349,1,4,0:0:0:0:
118,117,82580,1,0,0:0:0:0:
118,117,82695,1,0,0:0:0:0:
118,117,82811,1,8,0:0:0:0:
118,117,82926,1,0,0:0:0:0:
118,117,83041,1,8,0:0:0:0:
118,112,83157,1,0,0:0:0:0:
120,109,83388,1,8,0:0:0:0:
120,109,83503,1,0,0:0:0:0:
120,107,83580,1,8,0:0:0:0:
118,106,83657,1,0,0:0:0:0:
120,106,83734,1,8,0:0:0:0:
120,106,83849,1,0,0:0:0:0:
121,104,83965,1,8,0:0:0:0:
128,106,84080,1,8,0:0:0:0:
131,105,84195,1,0,0:0:0:0:
131,97,84311,1,8,0:0:0:0:
131,104,84426,1,8,0:0:0:0:
131,103,84541,1,0,0:0:0:0:
149,111,84599,1,0,0:0:0:0:
131,97,84657,1,8,0:0:0:0:
131,97,84772,1,8,0:0:0:0:
131,97,84888,1,0,0:0:0:0:
131,97,85003,1,0,0:0:0:0:
131,97,85118,1,8,0:0:0:0:
136,123,85195,1,8,0:0:0:0:
189,117,85272,1,0,0:0:0:0:
131,97,85349,1,8,0:0:0:0:
205,119,85426,1,8,0:0:0:0:
205,119,85503,1,8,0:0:0:0:
211,160,85580,1,0,0:0:0:0:
219,152,85646,1,8,0:0:0:0:
217,152,85712,1,0,0:0:0:0:
215,148,85778,1,0,0:0:0:0:
213,147,85844,1,8,0:0:0:0:
213,147,85910,1,8,0:0:0:0:
212,146,85975,1,8,0:0:0:0:
209,145,86041,1,0,0:0:0:0:
196,129,86272,1,0,0:0:0:0:
196,128,86388,1,0,0:0:0:0:
196,128,86503,1,8,0:0:0:0:
196,128,86618,1,8,0:0:0:0:
196,128,86734,1,0,0:0:0:0:
196,128,86849,1,8,0:0:0:0:
201,126,87080,1,8,0:0:0:0:
201,126,87195,1,8,0:0:0:0:
201,126,87272,1,0,0:0:0:0:
138,134,87349,1,8,0:0:0:0:
201,126,87426,1,8,0:0:0:0:
201,126,87541,1,8,0:0:0:0:
192,122,87657,1,0,0:0:0:0:
206,123,87772,1,8,0:0:0:0:
196,120,87888,1,0,0:0:0:0:
208,123,88003,1,8,0:0:0:0:
196,120,88118,1,8,0:0:0:0:
201,126,88234,1,0,0:0:0:0:
191,119,88291,1,0,0:0:0:0:
208,123,88349,1,8,0:0:0:0:
210,121,88465,1,8,0:0:0:0:
208,123,88580,1,0,0:0:0:0:
230,100,88695,1,0,0:0:0:0:
210,126,88811,1,8,0:0:0:0:
211,125,88888,1,0,0:0:0:0:
212,124,88965,1,0,0:0:0:0:
213,124,89041,1,8,0:0:0:0:
218,121,89118,1,0,0:0:0:0:
219,120,89195,1,0,0:0:0:0:
225,115,89272,1,8,0:0:0:0:
227,114,89349,1,8,0:0:0:0:
249,107,89426,1,0,0:0:0:0:
231,110,89503,1,8,0:0:0:0:
239,109,89580,1,8,0:0:0:0:
247,107,89657,1,8,0:0:0:0:
248,107,89734,1,4,0:0:0:0:
163,103,89965,1,0,0:0:0:0:
167,97,90080,1,0,0:0:0:0:
167,97,90195,1,8,0:0:0:0:
167,97,90311,1,0,0:0:0:0:
169,91,90426,1,8,0:0:0:0:
169,91,90541,1,0,0:0:0:0:
172,80,90772,1,8,0:0:0:0:
172,80,90888,1,0,0:0:0:0:
172,80,90965,1,0,0:0:0:0:
123,100,91041,1,0,0:0:0:0:
173,79,91118,1,8,0:0:0:0:
173,79,91234,1,0,0:0:0:0:
173,79,91349,1,8,0:0:0:0:
175,77,91465,1,8,0:0:0:0:
165,75,91580,1,0,0:0:0:0:
193,77,91695,1,8,0:0:0:0:
179,84,91811,1,8,0:0:0:0:
179,83,91926,1,0,0:0:0:0:
161,84,91984,1,0,0:0:0:0:
179,83,92041,1,8,0:0:0:0:
179,82,92157,1,8,0:0:0:0:
180,80,92272,1,8,0:0:0:0:
180,80,92388,1,0,0:0:0:0:
248,110,92503,1,8,0:0:0:0:
248,102,92580,1,8,0:0:0:0:
243,99,92657,1,0,0:0:0:0:
242,98,92734,1,8,0:0:0:0:
241,98,92811,1,0,0:0:0:0:
240,100,92888,1,0,0:0:0:0:
238,119,92965,1,8,0:0:0:0:
238,119,93057,1,0,0:0:0:0:
227,114,93149,1,8,0:0:0:0:
229,114,93241,1,0,0:0:0:0:
229,115,93334,1,8,0:0:0:0:
230,113,93426,1,0,0:0:0:0:
179,120,93657,1,0,0:0:0:0:
179,120,93772,1,8,0:0:0:0:
179,120,93888,1,8,0:0:0:0:
214,92,94003,1,0,0:0:0:0:
214,92,94118,1,0,0:0:0:0:
214,92,94234,1,8,0:0:0:0:
214,92,94465,1,8,0:0:0:0:
214,92,94580,1,8,0:0:0:0:
214,92,94657,1,0,0:0:0:0:
235,100,94734,1,0,0:0:0:0:
214,92,94811,1,8,0:0:0:0:
214,92,94926,1,8,0:0:0:0:
214,92,95041,1,0,0:0:0:0:
180,93,95157,1,8,0:0:0:0:
214,92,95272,1,0,0:0:0:0:
197,83,95388,1,8,0:0:0:0:
197,83,95503,1,8,0:0:0:0:
197,83,95618,1,0,0:0:0:0:
202,80,95676,1,0,0:0:0:0:
218,79,95734,1,8,0:0:0:0:
223,79,95849,1,0,0:0:0:0:
235,76,95965,1,8,0:0:0:0:
235,76,96080,1,8,0:0:0:0:
152,78,96195,1,0,0:0:0:0:
152,78,96272,1,8,0:0:0:0:
201,65,96349,1,8,0:0:0:0:
175,70,96426,1,0,0:0:0:0:
175,70,96503,1,8,0:0:0:0:
175,70,96580,1,8,0:0:0:0:
175,70,96657,1,0,0:0:0:0:
190,69,96734,1,0,0:0:0:0:
192,69,96811,1,0,0:0:0:0:
195,68,96888,1,8,0:0:0:0:
207,67,96965,1,8,0:0:0:0:
210,67,97041,1,8,0:0:0:0:
197,64,97118,1,4,0:0:0:0:
118,117,97349,1,0,0:0:0:0:
118,117,97465,1,0,0:0:0:0:
118,117,97580,1,8,0:0:0:0:
118,117,97695,1,0,0:0:0:0:
118,117,97811,1,8,0:0:0:0:
118,112,97926,1,0,0:0:0:0:
120,109,98157,1,8,0:0:0:0:
120,109,98272,1,0,0:0:0:0:
120,107,98349,1,8,0:0:0:0:
118,106,98426,1,0,0:0:0:0:
120,106,98503,1,8,0:0:0:0:
120,106,98618,1,0,0:0:0:0:
121,104,98734,1,8,0:0:0:0:
128,106,98849,1,8,0:0:0:0:
131,105,98965,1,0,0:0:0:0:
131,97,99080,1,8,0:0:0:0:
131,104,99195,1,8,0:0:0:0:
131,103,99311,1,0,0:0:0:0:
149,111,99368,1,0,0:0:0:0:
131,97,99426,1,8,0:0:0:0:
131,97,99541,1,8,0:0:0:0:
131,97,99657,1,0,0:0:0:0:
131,97,99772,1,0,0:0:0:0:
131,97,99888,1,8,0:0:0:0:
136,123,99965,1,8,0:0:0:0:
189,117,100041,1,0,0:0:0:0:
131,97,100118,1,8,0:0:0:0:
205,119,100195,1,8,0:0:0:0:
205,119,100272,1,8,0:0:0:0:
211,160,100349,1,0,0:0:0:0:
219,152,100415,1,8,0:0:0:0:
215,148,100481,1,0,0:0:0:0:
217,152,100547,1,0,0:0:0:0:
213,147,100613,1,8,0:0:0:0:
213,147,100679,1,8,0:0:0:0:
212,146,100745,1,8,0:0:0:0:
209,145,100811,1,0,0:0:0:0:
196,129,101041,1,0,0:0:0:0:
196,128,101157,1,0,0:0:0:0:
196,128,101272,1,8,0:0:0:0:
196,128,101388,1,8,0:0:0:0:
196,128,101503,1,0,0:0:0:0:
196,128,101618,1,8,0:0:0:0:
201,126,101849,1,8,0:0:0:0:
201,126,101965,1,8,0:0:0:0:
201,126,102041,1,0,0:0:0:0:
138,134,102118,1,8,0:0:0:0:
201,126,102195,1,8,0:0:0:0:
201,126,102311,1,8,0:0:0:0:
192,122,102426,1,0,0:0:0:0:
206,123,102541,1,8,0:0:0:0:
196,120,102657,1,0,0:0:0:0:
208,123,102772,1,8,0:0:0:0:
196,120,102888,1,8,0:0:0:0:
201,126,103003,1,0,0:0:0:0:
191,119,103061,1,0,0:0:0:0:
208,123,103118,1,8,0:0:0:0:
210,121,103234,1,0,0:0:0:0:
230,100,103465,1,0,0:0:0:0:
210,126,103580,1,12,0:0:0:0:
225,154,104503,5,4,0:0:0:0:
212,132,104965,1,8,0:0:0:0:
218,132,105057,1,8,0:0:0:0:
212,132,105149,1,8,0:0:0:0:
218,132,105241,1,0,0:0:0:0:
218,132,105334,1,0,0:0:0:0:
218,132,105426,1,8,0:0:0:0:
218,132,105518,1,8,0:0:0:0:
218,132,105611,1,0,0:0:0:0:
218,132,105703,1,8,0:0:0:0:
218,132,105795,1,8,0:0:0:0:
218,132,105888,1,0,0:0:0:0:
218,132,105980,1,0,0:0:0:0:
218,132,106072,1,8,0:0:0:0:
218,132,106165,1,8,0:0:0:0:
218,132,106257,1,8,0:0:0:0:
218,132,106349,1,0,0:0:0:0:
218,132,106441,1,0,0:0:0:0:
218,132,106534,1,8,0:0:0:0:
218,132,106626,1,0,0:0:0:0:
218,132,106718,1,0,0:0:0:0:
218,132,106811,1,8,0:0:0:0:
218,132,106903,1,8,0:0:0:0:
218,132,106995,1,0,0:0:0:0:
218,132,107088,1,8,0:0:0:0:
218,132,107180,1,8,0:0:0:0:
218,132,107272,1,0,0:0:0:0:
218,132,107365,1,0,0:0:0:0:
218,132,107457,1,8,0:0:0:0:
218,132,107549,1,8,0:0:0:0:
218,132,107641,1,8,0:0:0:0:
218,132,107734,1,0,0:0:0:0:
227,118,107800,1,0,0:0:0:0:
227,118,107866,1,0,0:0:0:0:
229,117,107932,1,8,0:0:0:0:
229,117,107997,1,0,0:0:0:0:
230,117,108063,1,8,0:0:0:0:
230,117,108129,1,8,0:0:0:0:
230,117,108195,1,0,0:0:0:0:
212,132,108657,1,8,0:0:0:0:
218,132,108749,1,8,0:0:0:0:
212,132,108841,1,0,0:0:0:0:
218,132,108934,1,0,0:0:0:0:
218,132,109026,1,0,0:0:0:0:
218,132,109118,1,8,0:0:0:0:
218,132,109211,1,8,0:0:0:0:
218,132,109303,1,0,0:0:0:0:
218,132,109395,1,8,0:0:0:0:
218,132,109488,1,8,0:0:0:0:
218,132,109580,1,0,0:0:0:0:
218,132,109672,1,8,0:0:0:0:
218,132,109765,1,8,0:0:0:0:
218,132,109857,1,8,0:0:0:0:
218,132,109949,1,8,0:0:0:0:
218,132,110041,1,0,0:0:0:0:
218,132,110134,1,0,0:0:0:0:
218,132,110226,1,8,0:0:0:0:
218,132,110318,1,8,0:0:0:0:
218,132,110411,1,8,0:0:0:0:
218,132,110503,1,0,0:0:0:0:
218,132,110595,1,0,0:0:0:0:
218,132,110688,1,8,0:0:0:0:
218,132,110780,1,8,0:0:0:0:
218,132,110872,1,0,0:0:0:0:
218,132,110965,1,8,0:0:0:0:
218,132,111057,1,8,0:0:0:0:
218,132,111149,1,0,0:0:0:0:
218,132,111241,1,8,0:0:0:0:
218,132,111334,1,8,0:0:0:0:
218,132,111426,1,0,0:0:0:0:
227,118,111492,1,0,0:0:0:0:
227,118,111558,1,8,0:0:0:0:
229,117,111624,1,8,0:0:0:0:
229,117,111690,1,0,0:0:0:0:
230,117,111756,1,8,0:0:0:0:
230,117,111822,1,8,0:0:0:0:
230,117,111888,1,0,0:0:0:0:
212,132,112349,1,0,0:0:0:0:
218,132,112441,1,8,0:0:0:0:
212,132,112534,1,0,0:0:0:0:
218,132,112626,1,0,0:0:0:0:
218,132,112718,1,0,0:0:0:0:
218,132,112811,1,8,0:0:0:0:
218,132,112903,1,0,0:0:0:0:
218,132,112995,1,8,0:0:0:0:
218,132,113088,1,8,0:0:0:0:
218,132,113180,1,8,0:0:0:0:
218,132,113272,1,0,0:0:0:0:
218,132,113365,1,8,0:0:0:0:
218,132,113457,1,0,0:0:0:0:
218,132,113549,1,0,0:0:0:0:
218,132,113641,1,0,0:0:0:0:
218,132,113734,1,8,0:0:0:0:
218,132,113826,1,0,0:0:0:0:
218,132,113918,1,8,0:0:0:0:
218,132,114011,1,8,0:0:0:0:
218,132,114103,1,8,0:0:0:0:
218,132,114195,1,0,0:0:0:0:
218,132,114288,1,8,0:0:0:0:
218,132,114380,1,0,0:0:0:0:
218,132,114472,1,8,0:0:0:0:
218,132,114565,1,8,0:0:0:0:
218,132,114657,1,0,0:0:0:0:
218,132,114749,1,8,0:0:0:0:
218,132,114841,1,0,0:0:0:0:
218,132,114934,1,0,0:0:0:0:
218,132,115026,1,0,0:0:0:0:
218,132,115118,1,8,0:0:0:0:
227,118,115184,1,8,0:0:0:0:
227,118,115250,1,0,0:0:0:0:
229,117,115316,1,0,0:0:0:0:
229,117,115382,1,8,0:0:0:0:
230,117,115448,1,8,0:0:0:0:
230,117,115514,1,8,0:0:0:0:
230,117,115580,1,0,0:0:0:0:
212,132,116041,1,8,0:0:0:0:
218,132,116134,1,0,0:0:0:0:
212,132,116226,1,8,0:0:0:0:
218,132,116318,1,0,0:0:0:0:
218,132,116411,1,0,0:0:0:0:
218,132,116503,1,8,0:0:0:0:
218,132,116595,1,8,0:0:0:0:
218,132,116688,1,0,0:0:0:0:
218,132,116780,1,8,0:0:0:0:
218,132,116872,1,8,0:0:0:0:
218,132,116965,1,0,0:0:0:0:
218,132,117057,1,8,0:0:0:0:
218,132,117149,1,0,0:0:0:0:
218,132,117241,1,0,0:0:0:0:
218,132,117334,1,0,0:0:0:0:
218,132,117426,1,8,0:0:0:0:
218,132,117518,1,0,0:0:0:0:
218,132,117611,1,8,0:0:0:0:
218,132,117703,1,8,0:0:0:0:
218,132,117795,1,8,0:0:0:0:
218,132,117888,1,0,0:0:0:0:
218,132,117980,1,8,0:0:0:0:
218,132,118072,1,8,0:0:0:0:
218,132,118165,1,0,0:0:0:0:
218,132,118257,1,0,0:0:0:0:
218,132,118349,1,8,0:0:0:0:
218,132,118441,1,0,0:0:0:0:
218,132,118534,1,8,0:0:0:0:
218,132,118626,1,8,0:0:0:0:
218,132,118718,1,8,0:0:0:0:
218,132,118811,1,0,0:0:0:0:
227,118,118877,1,8,0:0:0:0:
227,118,118943,1,0,0:0:0:0:
229,117,119008,1,0,0:0:0:0:
229,117,119074,1,8,0:0:0:0:
230,117,119140,1,8,0:0:0:0:
230,117,119206,1,8,0:0:0:0:
237,140,120195,1,12,0:0:0:0:
242,126,120541,1,0,0:0:0:0:
242,126,120656,1,8,0:0:0:0:
246,126,121002,1,0,0:0:0:0:
262,122,121118,1,8,0:0:0:0:
262,122,121233,1,8,0:0:0:0:
202,142,121348,1,0,0:0:0:0:
229,134,121425,1,8,0:0:0:0:
274,113,121502,1,0,0:0:0:0:
271,115,121579,1,8,0:0:0:0:
263,116,121810,1,8,0:0:0:0:
263,116,122041,1,0,0:0:0:0:
259,119,122387,1,0,0:0:0:0:
259,120,122445,1,0,0:0:0:0:
240,131,122502,1,8,0:0:0:0:
226,122,122618,1,0,0:0:0:0:
225,121,122848,1,0,0:0:0:0:
225,121,122964,1,0,0:0:0:0:
225,121,123079,1,8,0:0:0:0:
192,137,123310,1,0,0:0:0:0:
192,137,123425,1,8,0:0:0:0:
192,137,123656,1,0,0:0:0:0:
192,137,123887,1,4,0:0:0:0:
191,111,124233,1,0,0:0:0:0:
191,111,124348,1,8,0:0:0:0:
191,111,124695,1,0,0:0:0:0:
191,111,124810,1,8,0:0:0:0:
165,120,124925,1,8,0:0:0:0:
268,104,125041,1,0,0:0:0:0:
240,110,125118,1,0,0:0:0:0:
245,108,125195,1,0,0:0:0:0:
268,104,125271,1,8,0:0:0:0:
234,97,125502,1,8,0:0:0:0:
249,84,125733,1,0,0:0:0:0:
209,81,126079,1,0,0:0:0:0:
214,92,126137,1,0,0:0:0:0:
210,75,126195,1,8,0:0:0:0:
209,81,126310,1,0,0:0:0:0:
209,81,126541,1,0,0:0:0:0:
209,81,126656,1,0,0:0:0:0:
209,81,126771,1,8,0:0:0:0:
209,81,127002,1,0,0:0:0:0:
209,81,127118,1,8,0:0:0:0:
209,81,127348,1,0,0:0:0:0:
237,140,127579,1,12,0:0:0:0:
242,126,127925,1,0,0:0:0:0:
242,126,128041,1,8,0:0:0:0:
246,126,128387,1,0,0:0:0:0:
262,122,128502,1,8,0:0:0:0:
262,122,128618,1,8,0:0:0:0:
202,142,128733,1,0,0:0:0:0:
229,134,128810,1,8,0:0:0:0:
274,113,128887,1,0,0:0:0:0:
271,115,128964,1,8,0:0:0:0:
263,116,129195,1,8,0:0:0:0:
263,116,129425,1,0,0:0:0:0:
259,119,129771,1,0,0:0:0:0:
259,120,129829,1,0,0:0:0:0:
240,131,129887,1,8,0:0:0:0:
226,122,130002,1,0,0:0:0:0:
225,121,130233,1,0,0:0:0:0:
225,121,130348,1,0,0:0:0:0:
225,121,130464,1,8,0:0:0:0:
192,137,130695,1,0,0:0:0:0:
192,137,130810,1,8,0:0:0:0:
192,137,131041,1,0,0:0:0:0:
192,137,131271,1,4,0:0:0:0:
191,111,131618,1,0,0:0:0:0:
191,111,131733,1,8,0:0:0:0:
191,111,132079,1,0,0:0:0:0:
191,111,132195,1,8,0:0:0:0:
165,120,132310,1,8,0:0:0:0:
268,104,132425,1,0,0:0:0:0:
240,110,132502,1,0,0:0:0:0:
245,108,132579,1,0,0:0:0:0:
268,104,132656,1,8,0:0:0:0:
234,97,132887,1,8,0:0:0:0:
249,84,133118,1,0,0:0:0:0:
209,81,133464,1,0,0:0:0:0:
214,92,133521,1,0,0:0:0:0:
210,75,133579,1,8,0:0:0:0:
209,81,133695,1,0,0:0:0:0:
209,81,133925,1,0,0:0:0:0:
209,81,134041,1,0,0:0:0:0:
209,81,134156,1,8,0:0:0:0:
209,81,134387,1,0,0:0:0:0:
209,81,134502,1,8,0:0:0:0:
209,98,134733,1,0,0:0:0:0:
209,98,134964,1,12,0:0:0:0:
210,98,135310,1,0,0:0:0:0:
212,98,135425,1,8,0:0:0:0:
200,82,135771,1,0,0:0:0:0:
229,167,135887,1,12,0:0:0:0:
229,167,136233,1,12,0:0:0:0:
229,167,136579,1,4,0:0:0:0:
243,147,136810,1,8,0:0:0:0:
240,148,136876,1,8,0:0:0:0:
232,142,136942,1,8,0:0:0:0:
232,142,137008,1,8,0:0:0:0:
232,142,137074,1,8,0:0:0:0:
232,142,137140,1,8,0:0:0:0:
234,142,137205,1,8,0:0:0:0:
224,146,137271,1,0,0:0:0:0:
230,142,137364,1,0,0:0:0:0:
229,141,137456,1,0,0:0:0:0:
228,139,137548,1,0,0:0:0:0:
227,134,137641,1,0,0:0:0:0:
224,132,137733,1,8,0:0:0:0:
195,158,137848,1,8,0:0:0:0:
201,154,137964,1,8,0:0:0:0:
204,147,138079,1,8,0:0:0:0:
203,147,138195,1,0,0:0:0:0:
203,147,138425,1,0,0:0:0:0:
156,106,138656,1,4,0:0:0:0:
163,103,138887,1,0,0:0:0:0:
167,97,139002,1,0,0:0:0:0:
167,97,139118,1,8,0:0:0:0:
167,97,139233,1,0,0:0:0:0:
169,91,139348,1,8,0:0:0:0:
169,91,139464,1,0,0:0:0:0:
172,80,139695,1,8,0:0:0:0:
172,80,139810,1,0,0:0:0:0:
172,80,139887,1,0,0:0:0:0:
123,100,139964,1,0,0:0:0:0:
173,79,140041,1,8,0:0:0:0:
173,79,140156,1,0,0:0:0:0:
173,79,140271,1,8,0:0:0:0:
175,77,140387,1,8,0:0:0:0:
165,75,140502,1,0,0:0:0:0:
193,77,140618,1,8,0:0:0:0:
179,84,140733,1,8,0:0:0:0:
179,83,140848,1,0,0:0:0:0:
161,84,140906,1,0,0:0:0:0:
179,83,140964,1,8,0:0:0:0:
179,82,141079,1,8,0:0:0:0:
180,80,141195,1,8,0:0:0:0:
180,80,141310,1,0,0:0:0:0:
248,110,141425,1,8,0:0:0:0:
248,102,141502,1,8,0:0:0:0:
243,99,141579,1,0,0:0:0:0:
242,98,141656,1,8,0:0:0:0:
241,98,141733,1,0,0:0:0:0:
240,100,141810,1,0,0:0:0:0:
238,119,141887,1,8,0:0:0:0:
238,119,141979,1,0,0:0:0:0:
227,114,142071,1,8,0:0:0:0:
229,114,142164,1,0,0:0:0:0:
229,115,142256,1,8,0:0:0:0:
230,113,142348,1,0,0:0:0:0:
179,120,142579,1,0,0:0:0:0:
179,120,142695,1,8,0:0:0:0:
179,120,142810,1,8,0:0:0:0:
214,92,142925,1,0,0:0:0:0:
214,92,143041,1,0,0:0:0:0:
214,92,143156,1,8,0:0:0:0:
214,92,143387,1,8,0:0:0:0:
214,92,143502,1,8,0:0:0:0:
214,92,143579,1,0,0:0:0:0:
235,100,143656,1,0,0:0:0:0:
214,92,143733,1,8,0:0:0:0:
214,92,143848,1,8,0:0:0:0:
214,92,143964,1,0,0:0:0:0:
180,93,144079,1,8,0:0:0:0:
214,92,144195,1,0,0:0:0:0:
197,83,144310,1,8,0:0:0:0:
197,83,144425,1,8,0:0:0:0:
197,83,144541,1,0,0:0:0:0:
202,80,144598,1,0,0:0:0:0:
218,79,144656,1,8,0:0:0:0:
223,79,144771,1,0,0:0:0:0:
235,76,144887,1,8,0:0:0:0:
235,76,145002,1,8,0:0:0:0:
152,78,145118,1,0,0:0:0:0:
152,78,145195,1,8,0:0:0:0:
201,65,145271,1,8,0:0:0:0:
175,70,145348,1,0,0:0:0:0:
175,70,145425,1,8,0:0:0:0:
175,70,145502,1,8,0:0:0:0:
175,70,145579,1,0,0:0:0:0:
190,69,145656,1,0,0:0:0:0:
192,69,145733,1,0,0:0:0:0:
195,68,145810,1,8,0:0:0:0:
207,67,145887,1,8,0:0:0:0:
210,67,145964,1,8,0:0:0:0:
197,64,146041,1,4,0:0:0:0:
118,117,146271,1,0,0:0:0:0:
118,117,146387,1,0,0:0:0:0:
118,117,146502,1,8,0:0:0:0:
118,117,146618,1,0,0:0:0:0:
118,117,146733,1,8,0:0:0:0:
118,112,146848,1,0,0:0:0:0:
120,109,147079,1,8,0:0:0:0:
120,109,147195,1,0,0:0:0:0:
120,107,147271,1,8,0:0:0:0:
118,106,147348,1,0,0:0:0:0:
120,106,147425,1,8,0:0:0:0:
120,106,147541,1,0,0:0:0:0:
121,104,147656,1,8,0:0:0:0:
128,106,147771,1,8,0:0:0:0:
131,105,147887,1,0,0:0:0:0:
131,97,148002,1,8,0:0:0:0:
131,104,148118,1,8,0:0:0:0:
131,103,148233,1,0,0:0:0:0:
149,111,148291,1,0,0:0:0:0:
131,97,148348,1,8,0:0:0:0:
131,97,148464,1,8,0:0:0:0:
131,97,148579,1,0,0:0:0:0:
131,97,148695,1,0,0:0:0:0:
131,97,148810,1,8,0:0:0:0:
136,123,148887,1,8,0:0:0:0:
189,117,148964,1,0,0:0:0:0:
131,97,149041,1,8,0:0:0:0:
205,119,149118,1,8,0:0:0:0:
205,119,149195,1,8,0:0:0:0:
211,160,149271,1,0,0:0:0:0:
219,152,149337,1,8,0:0:0:0:
217,152,149403,1,0,0:0:0:0:
215,148,149469,1,0,0:0:0:0:
213,147,149535,1,8,0:0:0:0:
213,147,149601,1,8,0:0:0:0:
212,146,149667,1,8,0:0:0:0:
209,145,149733,1,0,0:0:0:0:
196,129,149964,1,0,0:0:0:0:
196,128,150079,1,0,0:0:0:0:
196,128,150195,1,8,0:0:0:0:
196,128,150310,1,8,0:0:0:0:
196,128,150425,1,0,0:0:0:0:
196,128,150541,1,8,0:0:0:0:
201,126,150771,1,8,0:0:0:0:
201,126,150887,1,8,0:0:0:0:
201,126,150964,1,0,0:0:0:0:
138,134,151041,1,8,0:0:0:0:
201,126,151118,1,8,0:0:0:0:
201,126,151233,1,8,0:0:0:0:
192,122,151348,1,0,0:0:0:0:
206,123,151464,1,8,0:0:0:0:
196,120,151579,1,0,0:0:0:0:
208,123,151695,1,8,0:0:0:0:
196,120,151810,1,8,0:0:0:0:
201,126,151925,1,0,0:0:0:0:
191,119,151983,1,0,0:0:0:0:
208,123,152041,1,8,0:0:0:0:
210,121,152156,1,8,0:0:0:0:
208,123,152271,1,0,0:0:0:0:
230,100,152387,1,0,0:0:0:0:
210,126,152502,1,8,0:0:0:0:
211,125,152579,1,0,0:0:0:0:
212,124,152656,1,0,0:0:0:0:
213,124,152733,1,8,0:0:0:0:
218,121,152810,1,0,0:0:0:0:
219,120,152887,1,0,0:0:0:0:
225,115,152964,1,8,0:0:0:0:
227,114,153041,1,8,0:0:0:0:
249,107,153118,1,0,0:0:0:0:
231,110,153195,1,8,0:0:0:0:
239,109,153271,1,8,0:0:0:0:
247,107,153348,1,8,0:0:0:0:
248,107,153425,1,4,0:0:0:0:
163,103,153656,1,0,0:0:0:0:
167,97,153771,1,0,0:0:0:0:
167,97,153887,1,8,0:0:0:0:
167,97,154002,1,0,0:0:0:0:
169,91,154118,1,8,0:0:0:0:
169,91,154233,1,0,0:0:0:0:
172,80,154464,1,8,0:0:0:0:
172,80,154579,1,0,0:0:0:0:
172,80,154656,1,0,0:0:0:0:
123,100,154733,1,0,0:0:0:0:
173,79,154810,1,8,0:0:0:0:
173,79,154925,1,0,0:0:0:0:
173,79,155041,1,8,0:0:0:0:
175,77,155156,1,8,0:0:0:0:
165,75,155271,1,0,0:0:0:0:
193,77,155387,1,8,0:0:0:0:
179,84,155502,1,8,0:0:0:0:
179,83,155618,1,0,0:0:0:0:
161,84,155675,1,0,0:0:0:0:
179,83,155733,1,8,0:0:0:0:
179,82,155848,1,8,0:0:0:0:
180,80,155964,1,8,0:0:0:0:
180,80,156079,1,0,0:0:0:0:
248,110,156195,1,8,0:0:0:0:
248,102,156271,1,8,0:0:0:0:
243,99,156348,1,0,0:0:0:0:
242,98,156425,1,8,0:0:0:0:
241,98,156502,1,0,0:0:0:0:
240,100,156579,1,0,0:0:0:0:
238,119,156656,1,8,0:0:0:0:
238,119,156748,1,0,0:0:0:0:
227,114,156841,1,8,0:0:0:0:
229,114,156933,1,0,0:0:0:0:
229,115,157025,1,8,0:0:0:0:
230,113,157118,1,0,0:0:0:0:
179,120,157348,1,0,0:0:0:0:
179,120,157464,1,8,0:0:0:0:
179,120,157579,1,8,0:0:0:0:
214,92,157695,1,0,0:0:0:0:
214,92,157810,1,0,0:0:0:0:
214,92,157925,1,8,0:0:0:0:
214,92,158156,1,8,0:0:0:0:
214,92,158271,1,8,0:0:0:0:
214,92,158348,1,0,0:0:0:0:
235,100,158425,1,0,0:0:0:0:
214,92,158502,1,8,0:0:0:0:
214,92,158618,1,8,0:0:0:0:
214,92,158733,1,0,0:0:0:0:
180,93,158848,1,8,0:0:0:0:
214,92,158964,1,0,0:0:0:0:
197,83,159079,1,8,0:0:0:0:
197,83,159195,1,8,0:0:0:0:
197,83,159310,1,0,0:0:0:0:
202,80,159368,1,0,0:0:0:0:
218,79,159425,1,8,0:0:0:0:
223,79,159541,1,0,0:0:0:0:
235,76,159656,1,8,0:0:0:0:
235,76,159771,1,8,0:0:0:0:
152,78,159887,1,0,0:0:0:0:
152,78,159964,1,8,0:0:0:0:
201,65,160041,1,8,0:0:0:0:
175,70,160118,1,0,0:0:0:0:
175,70,160195,1,8,0:0:0:0:
175,70,160271,1,8,0:0:0:0:
175,70,160348,1,0,0:0:0:0:
190,69,160425,1,0,0:0:0:0:
192,69,160502,1,0,0:0:0:0:
195,68,160579,1,8,0:0:0:0:
207,67,160656,1,8,0:0:0:0:
210,67,160733,1,8,0:0:0:0:
197,64,160810,1,4,0:0:0:0:
118,117,161041,1,0,0:0:0:0:
118,117,161156,1,0,0:0:0:0:
118,117,161271,1,8,0:0:0:0:
118,117,161387,1,0,0:0:0:0:
118,117,161502,1,8,0:0:0:0:
118,112,161618,1,0,0:0:0:0:
120,109,161848,1,8,0:0:0:0:
120,109,161964,1,0,0:0:0:0:
120,107,162041,1,8,0:0:0:0:
118,106,162118,1,0,0:0:0:0:
120,106,162195,1,8,0:0:0:0:
120,106,162310,1,0,0:0:0:0:
121,104,162425,1,8,0:0:0:0:
128,106,162541,1,8,0:0:0:0:
131,105,162656,1,0,0:0:0:0:
131,97,162771,1,8,0:0:0:0:
131,104,162887,1,8,0:0:0:0:
131,103,163002,1,0,0:0:0:0:
149,111,163060,1,0,0:0:0:0:
131,97,163118,1,8,0:0:0:0:
131,97,163233,1,8,0:0:0:0:
131,97,163348,1,0,0:0:0:0:
131,97,163464,1,0,0:0:0:0:
131,97,163579,1,8,0:0:0:0:
136,123,163656,1,8,0:0:0:0:
189,117,163733,1,0,0:0:0:0:
131,97,163810,1,8,0:0:0:0:
205,119,163887,1,8,0:0:0:0:
205,119,163964,1,8,0:0:0:0:
211,160,164041,1,0,0:0:0:0:
219,152,164107,1,8,0:0:0:0:
217,152,164173,1,0,0:0:0:0:
215,148,164238,1,0,0:0:0:0:
213,147,164304,1,8,0:0:0:0:
213,147,164370,1,8,0:0:0:0:
212,146,164436,1,8,0:0:0:0:
209,145,164502,1,0,0:0:0:0:
196,129,164733,1,0,0:0:0:0:
196,128,164848,1,0,0:0:0:0:
196,128,164964,1,8,0:0:0:0:
196,128,165079,1,8,0:0:0:0:
196,128,165195,1,0,0:0:0:0:
196,128,165310,1,8,0:0:0:0:
201,126,165541,1,8,0:0:0:0:
201,126,165656,1,8,0:0:0:0:
201,126,165733,1,0,0:0:0:0:
138,134,165810,1,8,0:0:0:0:
201,126,165887,1,8,0:0:0:0:
201,126,166002,1,8,0:0:0:0:
192,122,166118,1,0,0:0:0:0:
206,123,166233,1,8,0:0:0:0:
196,120,166348,1,0,0:0:0:0:
208,123,166464,1,8,0:0:0:0:
196,120,166579,1,8,0:0:0:0:
201,126,166695,1,0,0:0:0:0:
191,119,166752,1,0,0:0:0:0:
208,123,166810,1,8,0:0:0:0:
210,121,166925,1,8,0:0:0:0:
230,100,167041,1,0,0:0:0:0:
232,126,167156,1,8,0:0:0:0:
313,121,167271,1,0,0:0:0:0:
309,128,167348,1,0,0:0:0:0:
313,121,167425,1,8,0:0:0:0:
306,132,167502,1,0,0:0:0:0:
323,119,167579,1,8,0:0:0:0:
326,120,167656,1,8,0:0:0:0:
326,120,167733,1,0,0:0:0:0:
329,120,167810,1,0,0:0:0:0:
329,120,167887,1,8,0:0:0:0:
334,119,167964,1,0,0:0:0:0:
334,119,168041,1,8,0:0:0:0:
334,119,168118,1,8,0:0:0:0:
