osu file format v14

[General]
AudioFilename: audio.ogg
AudioLeadIn: 0
PreviewTime: 74936
Countdown: 0
SampleSet: Normal
StackLeniency: 0
Mode: 1
LetterboxInBreaks: 0
WidescreenStoryboard: 1

[Editor]
Bookmarks: 37119,51888,66669,74977,104515,136822,138668,168207
DistanceSpacing: 1.4
BeatDivisor: 4
GridSize: 4
TimelineZoom: 1.8

[Metadata]
Title:sn4pside
TitleUnicode:sn4pside
Artist:pm04034
ArtistUnicode:pm04034
Creator:Miyoi
Version:alchyr's inner oni
Source:
Tags:Midnaait Reficul Alchyr Electronic Instrumental Piano snapside pianitox tech
BeatmapID:3379283
BeatmapSetID:1502424

[Difficulty]
HPDrainRate:5
CircleSize:2
OverallDifficulty:6
ApproachRate:10
SliderMultiplier:1.4
SliderTickRate:1

[Events]
//Background and Video events
0,0,"g.jpg",0,-95
//Break Periods
//Storyboard Layer 0 (Background)
//Storyboard Layer 1 (Fail)
//Storyboard Layer 2 (Pass)
//Storyboard Layer 3 (Foreground)
//Storyboard Layer 4 (Overlay)
//Storyboard Sound Samples

[TimingPoints]
196,461.538461538462,4,1,0,75,1,0
20272,-151.515151515152,4,1,0,30,0,0
22234,-100,4,1,0,75,0,0
27883,-100,4,1,0,75,0,0
27999,-99.7935299641464,4,1,0,75,0,0
28114,-99.3809805279304,4,1,0,75,0,0
28229,-98.8250733122893,4,1,0,75,0,0
28287,-98.4993976432041,4,1,0,75,0,0
28345,-98.1467879422153,4,1,0,75,0,0
28460,-97.3760513831355,4,1,0,75,0,0
28576,-96.5135508538409,4,1,0,75,0,0
28691,-95.5855919350048,4,1,0,75,0,0
28919,-93.5403952929129,4,1,0,75,0,0
29035,-92.4482138329676,4,1,0,75,0,0
29112,-91.6942851108378,4,1,0,75,0,0
29189,-90.9244122899031,4,1,0,75,0,0
29266,-90.1403654645587,4,1,0,75,0,0
29343,-89.3438061659448,4,1,0,75,0,0
29420,-88.5362950131096,4,1,0,75,0,0
29497,-87.719298245614,4,1,0,75,0,0
29727,-76.9230769230769,4,1,0,75,0,0
29881,-83.3333333333333,4,1,0,75,0,0
33647,-83.3333333333333,4,1,0,75,0,0
33762,-82.012188811972,4,1,0,75,0,0
33877,-80.7119893647666,4,1,0,75,0,0
33993,-79.4213655332685,4,1,0,75,0,0
34108,-78.1622403098288,4,1,0,75,0,0
34223,-76.9230769230769,4,1,0,75,0,0
34454,-80.3654685978829,4,1,0,75,0,0
34685,-83.9619110584449,4,1,0,75,0,0
34916,-87.719298245614,4,1,0,75,0,0
35265,-87.719298245614,4,1,0,75,0,0
35380,-87.4394463870154,4,1,0,75,0,0
35496,-87.1580655193004,4,1,0,75,0,0
35611,-86.8800041677475,4,1,0,75,0,0
35669,-86.7401012358588,4,1,0,75,0,0
35726,-86.6028299184355,4,1,0,75,0,0
35842,-86.3241412894937,4,1,0,75,0,0
35957,-86.0487404157412,4,1,0,75,0,0
36073,-85.7718348514402,4,1,0,75,0,0
36303,-85.2254301558188,4,1,0,75,0,0
36419,-84.9511740108006,4,1,0,75,0,0
36496,-84.7696122042945,4,1,0,75,0,0
36573,-84.5884384405667,4,1,0,75,0,0
36650,-84.4076518902732,4,1,0,75,0,0
36726,-84.2295921122135,4,1,0,75,0,0
36803,-84.0495725058545,4,1,0,75,0,0
36880,-83.8699376462081,4,1,0,75,0,0
37113,-83.3333333333334,4,1,0,75,0,0
37267,-83.8228689298287,4,1,0,75,0,0
37574,-84.3152802675268,4,1,0,75,0,0
37690,-84.561497536432,4,1,0,75,0,0
37920,-85.0582478940765,4,1,0,75,0,0
38151,-85.5579163755126,4,1,0,75,0,0
38267,-85.807762387248,4,1,0,75,0,0
38382,-86.0583379986772,4,1,0,75,0,0
38497,-86.3118338369781,4,1,0,75,0,0
38613,-86.5638814365841,4,1,0,75,0,0
38728,-86.8166650649552,4,1,0,75,0,0
38959,-87.3266632399749,4,1,0,75,0,0
39190,-87.8396573621245,4,1,0,75,0,0
39305,-88.0961665081375,4,1,0,75,0,0
39421,-88.355665030877,4,1,0,75,0,0
39536,-88.6136810211837,4,1,0,75,0,0
39652,-88.8747039490926,4,1,0,75,0,0
39767,-89.1342356355399,4,1,0,75,0,0
39998,-89.6578482100599,4,1,0,75,0,0
40113,-89.9196668324039,4,1,0,75,0,0
40228,-90.182250016829,4,1,0,75,0,0
40344,-90.4478933652775,4,1,0,75,0,0
40575,-90.9792229264413,4,1,0,75,0,0
40805,-91.5113533515358,4,1,0,75,0,0
41036,-92.0489301309243,4,1,0,75,0,0
41152,-92.3200720243292,4,1,0,75,0,0
41267,-92.5896648659451,4,1,0,75,0,0
41382,-92.8600449718975,4,1,0,75,0,0
41613,-93.4055445419683,4,1,0,75,0,0
41844,-93.9542486095282,4,1,0,75,0,0
41959,-94.228613569489,4,1,0,75,0,0
42075,-94.5061759991642,4,1,0,75,0,0
42190,-94.782152696097,4,1,0,75,0,0
42305,-95.0589352994845,4,1,0,75,0,0
42421,-95.3389435479833,4,1,0,75,0,0
42652,-95.8990052271713,4,1,0,75,0,0
42882,-96.4599110777185,4,1,0,75,0,0
42998,-96.7440460795059,4,1,0,75,0,0
43113,-97.0265577990063,4,1,0,75,0,0
43228,-97.3098945085179,4,1,0,75,0,0
43344,-97.5965332451826,4,1,0,75,0,0
43459,-97.8815343955553,4,1,0,75,0,0
43690,-98.4565323394698,4,1,0,75,0,0
43921,-99.0349080669218,4,1,0,75,0,0
44036,-99.3241095558233,4,1,0,75,0,0
44267,-99.9075818024366,4,1,0,75,0,0
44498,-100.494481614261,4,1,0,75,0,0
44728,-101.082266050102,4,1,0,75,0,0
44959,-101.676066458973,4,1,0,75,0,0
45190,-102.273355105093,4,1,0,75,0,0
45305,-102.572013498872,4,1,0,75,0,0
45536,-103.174565320615,4,1,0,75,0,0
45652,-103.478479195034,4,1,0,75,0,0
45767,-103.780656789143,4,1,0,75,0,0
45882,-104.083716801501,4,1,0,75,0,0
45998,-104.390308697855,4,1,0,75,0,0
46113,-104.69514901418,4,1,0,75,0,0
46344,-105.310173040853,4,1,0,75,0,0
46575,-105.928809981372,4,1,0,75,0,0
46690,-106.238143025267,4,1,0,75,0,0
46805,-106.548379382737,4,1,0,75,0,0
46921,-106.862231257864,4,1,0,75,0,0
47036,-107.174290076218,4,1,0,75,0,0
47152,-107.489985651324,4,1,0,75,0,0
47382,-108.11868624821,4,1,0,75,0,0
47498,-108.437163662994,4,1,0,75,0,0
47613,-108.753821594987,4,1,0,75,0,0
47728,-109.071404230675,4,1,0,75,0,0
47959,-109.712136249843,4,1,0,75,0,0
48190,-110.356632202585,4,1,0,75,0,0
48421,-111.004914199855,4,1,0,75,0,0
48536,-111.329070470494,4,1,0,75,0,0
48652,-111.657004482496,4,1,0,75,0,0
48767,-111.983064985534,4,1,0,75,0,0
48998,-112.640901343715,4,1,0,75,0,0
49228,-113.299729247351,4,1,0,75,0,0
49344,-113.633468086756,4,1,0,75,0,0
49459,-113.965300253829,4,1,0,75,0,0
49575,-114.300999617736,4,1,0,75,0,0
49690,-114.634781108704,4,1,0,75,0,0
49805,-114.969537307539,4,1,0,75,0,0
50036,-115.644917479835,4,1,0,75,0,0
50267,-116.324265123757,4,1,0,75,0,0
50382,-116.663954949555,4,1,0,75,0,0
50498,-117.007603545928,4,1,0,75,0,0
50613,-117.349288854864,4,1,0,75,0,0
50728,-117.691971952377,4,1,0,75,0,0
50844,-118.038648704278,4,1,0,75,0,0
51075,-118.732058147913,4,1,0,75,0,0
51305,-119.426512755705,4,1,0,75,0,0
51421,-119.778298819327,4,1,0,75,0,0
51652,-120.481927710843,4,1,0,75,0,0
51878,-87.719298245614,4,1,0,75,0,0
52343,-90.9090909090909,4,1,0,75,0,0
52804,-100,4,1,0,75,0,0
52919,-98.1183323226828,4,1,0,75,0,0
53150,-94.4449490071923,4,1,0,75,0,0
53381,-90.9090909090909,4,1,0,75,0,0
53727,-98.0392156862745,4,1,0,75,0,0
54189,-89.2857142857143,4,1,0,75,0,0
54535,-94.3396226415094,4,1,0,75,0,0
54765,-90.528969657589,4,1,0,75,0,0
54996,-86.8566681654269,4,1,0,75,0,0
55227,-83.3333333333333,4,1,0,75,0,0
55574,-87.719298245614,4,1,0,75,0,0
56497,-96.1538461538461,4,1,0,75,0,0
56612,-92.5925925925926,4,1,0,75,0,0
56843,-86.3185153215365,4,1,0,75,0,0
57074,-85.4700854700855,4,1,0,75,0,0
57304,-82.4962902919559,4,1,0,75,0,0
57419,-81.5694813221697,4,1,0,75,0,0
57420,-81.5614679486734,4,1,0,75,0,0
57535,-80.6451612903226,4,1,0,75,0,0
57766,-84.7457627118644,4,1,0,75,0,0
57881,-83.35901813675,4,1,0,75,0,0
57996,-81.9820633385135,4,1,0,75,0,0
58227,-86.2068965517241,4,1,0,75,0,0
58458,-84.3116222048414,4,1,0,75,0,0
58689,-82.4580158102181,4,1,0,75,0,0
58919,-80.6529226113263,4,1,0,75,0,0
59266,-71.4285714285714,4,1,0,75,0,0
60191,-90.9090909090909,4,1,0,75,0,0
60306,-89.2857142857143,4,1,0,75,0,0
60537,-83.3333333333333,4,1,0,75,0,0
60768,-81.3008130081301,4,1,0,75,0,0
61114,-74.6268656716418,4,1,0,75,0,0
61576,-78.4362433611959,4,1,0,75,0,0
61922,-81.4159646796325,4,1,0,75,0,0
62153,-83.4680687219212,4,1,0,75,0,0
62383,-85.5626756080846,4,1,0,75,0,0
62499,-86.63894449467,4,1,0,75,0,0
62614,-87.719298245614,4,1,0,75,0,0
62960,-71.4285714285714,4,1,0,75,0,0
63883,-83.3333333333333,4,1,0,75,0,0
63999,-82.3812077302722,4,1,0,75,0,0
64229,-80.5254203454112,4,1,0,75,0,0
64460,-78.7036409799011,4,1,0,75,0,0
64691,-76.9230769230769,4,1,0,75,0,0
64806,-71.4285714285714,4,1,0,75,0,0
65037,-73.1445159009449,4,1,0,75,0,0
65153,-74.0216886381807,4,1,0,75,0,0
65268,-74.9016828893702,4,1,0,75,0,0
65383,-75.792138802491,4,1,0,75,0,0
65614,-77.612910225276,4,1,0,75,0,0
65845,-79.4774224452784,4,1,0,75,0,0
66076,-81.3867262574069,4,1,0,75,0,0
66196,-82.3542785052315,4,1,0,75,0,0
66311,-83.3333333333333,4,1,0,75,0,0
66657,-75.0187546886722,4,1,0,75,0,0
67115,-71.4285714285714,4,1,0,75,0,0
67230,-72.7584273330485,4,1,0,75,0,0
67346,-74.1249316661101,4,1,0,75,0,0
67461,-75.504988358742,4,1,0,75,0,0
67577,-76.9230769230769,4,1,0,75,0,0
68038,-83.3333333333333,4,1,0,75,0,0
68130,-82.0155930805425,4,1,0,75,0,0
68223,-80.7047065875531,4,1,0,75,0,0
68315,-79.4285325020319,4,1,0,75,0,0
68407,-78.1725384080555,4,1,0,75,0,0
68500,-76.9230769230769,4,1,0,75,0,0
68961,-71.4285714285714,4,1,0,75,0,0
69038,-72.3162800977227,4,1,0,75,0,0
69115,-73.215021140412,4,1,0,75,0,0
69192,-74.1249316661101,4,1,0,75,0,0
69269,-75.0461504882737,4,1,0,75,0,0
69346,-75.9788181455218,4,1,0,75,0,0
69423,-76.9230769230769,4,1,0,75,0,0
69654,-80,4,1,0,75,0,0
69884,-77.979587824202,4,1,0,75,0,0
70115,-76.0017484322282,4,1,0,75,0,0
70346,-74.0740740740741,4,1,0,75,0,0
70807,-71.4285714285714,4,1,0,75,0,0
70923,-72.7700992204622,4,1,0,75,0,0
71038,-74.1249316661101,4,1,0,75,0,0
71154,-75.5171008487394,4,1,0,75,0,0
71269,-76.9230769230769,4,1,0,75,0,0
71730,-83.3333333333333,4,1,0,75,0,0
71823,-82.0013848954897,4,1,0,75,0,0
71915,-80.7047065875531,4,1,0,75,0,0
72007,-79.4285325020319,4,1,0,75,0,0
72100,-78.1589959845964,4,1,0,75,0,0
72196,461.538461538462,6,1,0,75,1,0
72196,-76.9230769230769,6,1,0,75,0,0
72656,-100,6,1,0,75,0,0
72732,-98.5678663800753,6,1,0,75,0,0
72809,-97.1378042246912,6,1,0,75,0,0
72886,-95.7284899848639,6,1,0,75,0,0
72963,-94.3396226415094,6,1,0,75,0,0
73117,-97.0873786407767,6,1,0,75,0,0
73209,-97.66442647612,6,1,0,75,0,0
73302,-98.2449040487674,6,1,0,75,0,0
73394,-98.8351978137211,6,1,0,75,0,0
73486,-99.4226339743487,6,1,0,75,0,0
73579,-100,6,1,0,75,0,0
73656,-98.4410059956044,6,1,0,75,0,0
73732,-96.8862836343219,6,1,0,75,0,0
73809,-95.3561156911523,6,1,0,75,0,0
73886,-93.8501143673066,6,1,0,75,0,0
73963,-92.3678979886738,6,1,0,75,0,0
74040,-91.743119266055,6,1,0,75,0,0
74156,-92.3759822446164,6,1,0,75,0,0
74271,-93.0176371104131,6,1,0,75,0,0
74386,-93.6739659367397,6,1,0,75,0,0
74502,-94.333843797856,6,1,0,75,0,0
74579,-91.2110031064107,6,1,0,75,0,0
74656,-88.1554395323164,6,1,0,75,0,0
74732,-85.2022371694505,6,1,0,75,0,0
74809,-82.3479669228818,6,1,0,75,0,0
74886,-79.58931457217,6,1,0,75,0,0
74965,461.538461538462,4,1,0,75,1,1
74965,-76.9230769230769,4,1,0,75,0,1
75080,-83.3333333333333,4,1,0,75,0,1
78875,-83.3333333333333,4,1,0,75,0,1
78990,-82.0144602753138,4,1,0,75,0,1
79106,-80.7052639429122,4,1,0,75,0,1
79221,-79.4279839638562,4,1,0,75,0,1
79337,-78.1600755371414,4,1,0,75,0,1
79452,-76.9230769230769,4,1,0,75,0,1
79683,-80.3705529973185,4,1,0,75,0,1
79914,-83.9725352582321,4,1,0,75,0,1
80144,-87.719298245614,4,1,0,75,0,1
80490,-87.719298245614,4,1,0,75,0,1
80606,-87.3969145304076,4,1,0,75,0,1
80721,-87.078479537009,4,1,0,75,0,1
80837,-86.7584509422856,4,1,0,75,0,1
80894,-86.6016267457398,4,1,0,75,0,1
80952,-86.4423422226412,4,1,0,75,0,1
81067,-86.1273852607974,4,1,0,75,0,1
81183,-85.8108521033655,4,1,0,75,0,1
81298,-85.4981960070962,4,1,0,75,0,1
81529,-84.8736031905883,4,1,0,75,0,1
81644,-84.5643620072247,4,1,0,75,0,1
81721,-84.357934899276,4,1,0,75,0,1
81798,-84.1520116933244,4,1,0,75,0,1
81875,-83.9465911593123,4,1,0,75,0,1
81952,-83.7416720701848,4,1,0,75,0,1
82029,-83.5372532018823,4,1,0,75,0,1
82106,-83.3333333333334,4,1,0,75,0,1
82296,-76.9230769230769,4,1,0,75,0,1
82524,-83.3333333333333,4,1,0,75,0,1
86244,-83.3333333333333,4,1,0,75,0,1
86359,-82.0144602753138,4,1,0,75,0,1
86475,-80.7052639429122,4,1,0,75,0,1
86590,-79.4279839638562,4,1,0,75,0,1
86706,-78.1600755371414,4,1,0,75,0,1
86821,-76.9230769230769,4,1,0,75,0,1
87052,-80.3705529973185,4,1,0,75,0,1
87283,-83.9725352582321,4,1,0,75,0,1
87513,-87.719298245614,4,1,0,75,0,1
87859,-87.719298245614,4,1,0,75,0,1
87975,-87.3969145304076,4,1,0,75,0,1
88090,-87.078479537009,4,1,0,75,0,1
88206,-86.7584509422856,4,1,0,75,0,1
88263,-86.6016267457398,4,1,0,75,0,1
88321,-86.4423422226412,4,1,0,75,0,1
88436,-86.1273852607974,4,1,0,75,0,1
88552,-85.8108521033655,4,1,0,75,0,1
88667,-85.4981960070962,4,1,0,75,0,1
88898,-84.8736031905883,4,1,0,75,0,1
89013,-84.5643620072247,4,1,0,75,0,1
89090,-84.357934899276,4,1,0,75,0,1
89167,-84.1520116933244,4,1,0,75,0,1
89244,-83.9465911593123,4,1,0,75,0,1
89321,-83.7416720701848,4,1,0,75,0,1
89398,-83.5372532018823,4,1,0,75,0,1
89475,-83.3333333333334,4,1,0,75,0,1
89665,-76.9230769230769,4,1,0,75,0,1
89893,-83.3333333333333,4,1,0,75,0,1
93628,-83.3333333333333,4,1,0,75,0,1
93743,-82.0144602753138,4,1,0,75,0,1
93859,-80.7052639429122,4,1,0,75,0,1
93974,-79.4279839638562,4,1,0,75,0,1
94090,-78.1600755371414,4,1,0,75,0,1
94205,-76.9230769230769,4,1,0,75,0,1
94436,-80.3705529973185,4,1,0,75,0,1
94667,-83.9725352582321,4,1,0,75,0,1
94897,-87.719298245614,4,1,0,75,0,1
95243,-87.719298245614,4,1,0,75,0,1
95359,-87.3969145304076,4,1,0,75,0,1
95474,-87.078479537009,4,1,0,75,0,1
95590,-86.7584509422856,4,1,0,75,0,1
95647,-86.6016267457398,4,1,0,75,0,1
95705,-86.4423422226412,4,1,0,75,0,1
95820,-86.1273852607974,4,1,0,75,0,1
95936,-85.8108521033655,4,1,0,75,0,1
96051,-85.4981960070962,4,1,0,75,0,1
96282,-84.8736031905883,4,1,0,75,0,1
96397,-84.5643620072247,4,1,0,75,0,1
96474,-84.357934899276,4,1,0,75,0,1
96551,-84.1520116933244,4,1,0,75,0,1
96628,-83.9465911593123,4,1,0,75,0,1
96705,-83.7416720701848,4,1,0,75,0,1
96782,-83.5372532018823,4,1,0,75,0,1
96859,-83.3333333333334,4,1,0,75,0,1
97049,-76.9230769230769,4,1,0,75,0,1
97277,-83.3333333333333,4,1,0,75,0,1
101013,-83.3333333333333,4,1,0,75,0,1
101128,-82.0144602753138,4,1,0,75,0,1
101244,-80.7052639429122,4,1,0,75,0,1
101359,-79.4279839638562,4,1,0,75,0,1
101475,-78.1600755371414,4,1,0,75,0,1
101590,-76.9230769230769,4,1,0,75,0,1
101821,-80.3705529973185,4,1,0,75,0,1
102052,-83.9725352582321,4,1,0,75,0,1
102282,-87.719298245614,4,1,0,75,0,1
102628,-87.719298245614,4,1,0,75,0,1
102744,-87.3969145304076,4,1,0,75,0,1
102859,-87.078479537009,4,1,0,75,0,1
102975,-86.7584509422856,4,1,0,75,0,1
103032,-86.6016267457398,4,1,0,75,0,1
103090,-86.4423422226412,4,1,0,75,0,1
103205,-86.1273852607974,4,1,0,75,0,1
103321,-85.8108521033655,4,1,0,75,0,1
103436,-85.4981960070962,4,1,0,75,0,1
103667,-84.8736031905883,4,1,0,75,0,1
103782,-84.5643620072247,4,1,0,75,0,1
103859,-84.357934899276,4,1,0,75,0,1
103936,-84.1520116933244,4,1,0,75,0,1
104013,-83.948959032908,4,1,0,75,0,1
104244,-86.7302688638335,4,1,0,75,0,1
104503,-93.4579439252336,4,1,0,75,0,0
104734,-100,4,1,0,75,0,0
107708,-99.3279473263112,4,1,0,75,0,0
107785,-97.7971051999303,4,1,0,75,0,0
107862,-95.5374331312889,4,1,0,75,0,0
107939,-92.749515665099,4,1,0,75,0,0
108016,-89.6523887972243,4,1,0,75,0,0
108093,-86.4542361302156,4,1,0,75,0,0
108170,-83.3333333333333,4,1,0,75,0,0
108393,-100,4,1,0,75,0,0
111415,-99.261238545553,4,1,0,75,0,0
111492,-97.5821420067241,4,1,0,75,0,0
111569,-95.1129850753076,4,1,0,75,0,0
111646,-92.0818774550827,4,1,0,75,0,0
111723,-88.7342017768489,4,1,0,75,0,0
111800,-85.2987987440524,4,1,0,75,0,0
111877,-81.9672131147541,4,1,0,75,0,0
112143,-100,4,1,0,75,0,0
115111,-99.1762968564818,4,1,0,75,0,0
115188,-97.2829507300947,4,1,0,75,0,0
115265,-94.5059591185145,4,1,0,75,0,0
115342,-91.1177328323714,4,1,0,75,0,0
115419,-87.4053127999796,4,1,0,75,0,0
115496,-83.6291506878382,4,1,0,75,0,0
115573,-80,4,1,0,75,0,0
115777,-100,4,1,0,75,0,0
118805,-98.9917173077133,4,1,0,75,0,0
118882,-96.7204343795666,4,1,0,75,0,0
118959,-93.4310117486025,4,1,0,75,0,0
119036,-89.5273216529244,4,1,0,75,0,0
119113,-85.2577240679369,4,1,0,75,0,0
119190,-80.9777999660877,4,1,0,75,0,0
119272,461.538461538462,4,1,0,75,1,8
120195,461.538461538462,4,1,0,75,1,0
120195,-87.719298245614,4,1,0,75,0,0
120368,-100,4,1,0,75,0,0
135657,-93.4579439252336,4,1,0,75,0,0
135830,-83.3333333333333,4,1,0,75,0,0
136176,-71.4285714285714,4,1,0,75,0,0
136522,-62.5,4,1,0,75,0,0
136783,-66.6666666666667,4,1,0,60,0,0
136860,-67.8476780459578,4,1,0,60,0,0
136937,-69.0496112434191,4,1,0,60,0,0
137014,-70.2728368926307,4,1,0,60,0,0
137091,-71.5177321930096,4,1,0,60,0,0
137168,-72.7846810261252,4,1,0,60,0,0
137271,-74.0740740740741,4,1,0,60,0,0
137364,-74.1811875716587,4,1,0,60,0,0
137457,-74.4982980114491,4,1,0,60,0,0
137531,-74.992466123059,4,1,0,60,0,0
137641,-75.6238160117891,4,1,0,60,0,0
137725,-76.3358778625954,4,1,0,60,0,0
137840,-79.4843267918382,4,1,0,60,0,0
137956,-82.8729281767956,4,1,0,60,0,0
138071,-86.5968560217929,4,1,0,60,0,0
138187,-90.6344410876133,4,1,0,60,0,0
138413,-100,4,1,0,60,0,0
138628,-71.4285714285714,4,1,0,75,0,0
138656,-71.4285714285714,4,1,0,75,0,1
138772,-76.9230769230769,4,1,0,75,0,1
142571,-76.9230769230769,4,1,0,75,0,1
142686,-75.7952557596897,4,1,0,75,0,1
142801,-74.6839703437982,4,1,0,75,0,1
142917,-73.5795273155369,4,1,0,75,0,1
143032,-72.5007281902566,4,1,0,75,0,1
143148,-71.4285714285714,4,1,0,75,0,1
143378,-75.1835909663319,4,1,0,75,0,1
143609,-79.1536432970355,4,1,0,75,0,1
143840,-83.3333333333333,4,1,0,75,0,1
144186,-83.3333333333333,4,1,0,75,0,1
144301,-82.8597147146669,4,1,0,75,0,1
144417,-82.3847046152729,4,1,0,75,0,1
144532,-81.9164774552833,4,1,0,75,0,1
144590,-81.681338575238,4,1,0,75,0,1
144648,-81.4468746545492,4,1,0,75,0,1
144763,-80.9839775793261,4,1,0,75,0,1
144878,-80.5237113441832,4,1,0,75,0,1
144994,-80.0620928573119,4,1,0,75,0,1
145224,-79.1546254192983,4,1,0,75,0,1
145340,-78.7008554948255,4,1,0,75,0,1
145417,-78.4010835450948,4,1,0,75,0,1
145494,-78.1024534282105,4,1,0,75,0,1
145571,-77.8049607949257,4,1,0,75,0,1
145648,-77.5086013125596,4,1,0,75,0,1
145724,-77.2171976125601,4,1,0,75,0,1
145801,-76.9230769230769,4,1,0,75,0,1
146032,-71.4285714285714,4,1,0,75,0,1
146263,-76.9230769230769,4,1,0,75,0,1
149935,-76.9230769230769,4,1,0,75,0,1
150050,-75.7952557596897,4,1,0,75,0,1
150165,-74.6839703437982,4,1,0,75,0,1
150281,-73.5795273155369,4,1,0,75,0,1
150396,-72.5007281902566,4,1,0,75,0,1
150512,-71.4285714285714,4,1,0,75,0,1
150742,-75.1835909663319,4,1,0,75,0,1
150973,-79.1536432970355,4,1,0,75,0,1
151204,-83.3333333333333,4,1,0,75,0,1
151550,-83.3333333333333,4,1,0,75,0,1
151665,-82.8597147146669,4,1,0,75,0,1
151781,-82.3847046152729,4,1,0,75,0,1
151896,-81.9164774552833,4,1,0,75,0,1
151954,-81.681338575238,4,1,0,75,0,1
152012,-81.4468746545492,4,1,0,75,0,1
152127,-80.9839775793261,4,1,0,75,0,1
152242,-80.5237113441832,4,1,0,75,0,1
152358,-80.0620928573119,4,1,0,75,0,1
152588,-79.1546254192983,4,1,0,75,0,1
152704,-78.7008554948255,4,1,0,75,0,1
152781,-78.4010835450948,4,1,0,75,0,1
152858,-78.1024534282105,4,1,0,75,0,1
152935,-77.8049607949257,4,1,0,75,0,1
153012,-77.5086013125596,4,1,0,75,0,1
153088,-77.2171976125601,4,1,0,75,0,1
153165,-76.9230769230769,4,1,0,75,0,1
153396,-71.4285714285714,4,1,0,75,0,1
153627,-76.9230769230769,4,1,0,75,0,1
157320,-76.9230769230769,4,1,0,75,0,1
157435,-75.7952557596897,4,1,0,75,0,1
157550,-74.6839703437982,4,1,0,75,0,1
157666,-73.5795273155369,4,1,0,75,0,1
157781,-72.5007281902566,4,1,0,75,0,1
157897,-71.4285714285714,4,1,0,75,0,1
158127,-75.1835909663319,4,1,0,75,0,1
158358,-79.1536432970355,4,1,0,75,0,1
158589,-83.3333333333333,4,1,0,75,0,1
158935,-83.3333333333333,4,1,0,75,0,1
159050,-82.8597147146669,4,1,0,75,0,1
159166,-82.3847046152729,4,1,0,75,0,1
159281,-81.9164774552833,4,1,0,75,0,1
159339,-81.681338575238,4,1,0,75,0,1
159397,-81.4468746545492,4,1,0,75,0,1
159512,-80.9839775793261,4,1,0,75,0,1
159627,-80.5237113441832,4,1,0,75,0,1
159743,-80.0620928573119,4,1,0,75,0,1
159973,-79.1546254192983,4,1,0,75,0,1
160089,-78.7008554948255,4,1,0,75,0,1
160166,-78.4010835450948,4,1,0,75,0,1
160243,-78.1024534282105,4,1,0,75,0,1
160320,-77.8049607949257,4,1,0,75,0,1
160397,-77.5086013125596,4,1,0,75,0,1
160473,-77.2171976125601,4,1,0,75,0,1
160550,-76.9230769230769,4,1,0,75,0,1
160781,-71.4285714285714,4,1,0,75,0,1
161012,-76.9230769230769,4,1,0,75,0,1
164705,-76.9230769230769,4,1,0,75,0,1
164820,-75.7952557596897,4,1,0,75,0,1
164935,-74.6839703437982,4,1,0,75,0,1
165051,-73.5795273155369,4,1,0,75,0,1
165166,-72.5007281902566,4,1,0,75,0,1
165282,-71.4285714285714,4,1,0,75,0,1
165512,-75.1835909663319,4,1,0,75,0,1
165743,-79.1536432970355,4,1,0,75,0,1
165974,-83.3333333333333,4,1,0,75,0,1
166320,-83.3333333333333,4,1,0,75,0,1
166435,-82.1829193807324,4,1,0,75,0,1
166551,-81.0385903591601,4,1,0,75,0,1
166666,-79.9198552585807,4,1,0,75,0,1
166724,-79.361495907392,4,1,0,75,0,1
166782,-78.8165642596289,4,1,0,75,0,1
166897,-77.7191089423618,4,1,0,75,0,1
167012,-76.6461991746298,4,1,0,75,0,1
167128,-75.5789643919079,4,1,0,75,0,1
167358,-73.5066377298811,4,1,0,75,0,1
167474,-72.4831187375364,4,1,0,75,0,1
167551,-71.811596092898,4,1,0,75,0,1
167628,-71.146294795659,4,1,0,75,0,1
167705,-70.4956781750042,4,1,0,75,0,1
167782,-69.8425682499874,4,1,0,75,0,1
167858,-69.19550908702,4,1,0,75,0,1
167935,-68.5544446285842,4,1,0,75,0,1
168028,-67.9193193365089,4,1,0,75,0,1
168118,-67.2900781871587,4,1,0,75,0,1
168195,-66.6666666666667,4,1,0,75,0,0

[HitObjects]
309,157,196,5,8,0:0:0:0:
208,134,1119,1,8,0:0:0:0:
208,134,1349,1,8,0:0:0:0:
208,134,1580,1,0,0:0:0:0:
208,134,1811,1,8,0:0:0:0:
194,128,2965,1,8,0:0:0:0:
194,128,3196,1,0,0:0:0:0:
194,128,3426,1,0,0:0:0:0:
194,128,3657,1,8,0:0:0:0:
194,128,4811,1,0,0:0:0:0:
194,128,5042,1,0,0:0:0:0:
194,128,5272,1,0,0:0:0:0:
194,128,5503,1,8,0:0:0:0:
194,128,6657,1,0,0:0:0:0:
194,128,6888,1,8,0:0:0:0:
194,128,7119,1,0,0:0:0:0:
194,128,7580,1,8,0:0:0:0:
194,128,8503,1,8,0:0:0:0:
194,128,8734,1,8,0:0:0:0:
194,128,8965,1,0,0:0:0:0:
194,128,9196,1,8,0:0:0:0:
194,128,10349,1,8,0:0:0:0:
194,128,10580,1,0,0:0:0:0:
194,128,10811,1,0,0:0:0:0:
194,128,11042,1,8,0:0:0:0:
194,128,12196,1,0,0:0:0:0:
194,128,12426,1,0,0:0:0:0:
194,128,12657,1,0,0:0:0:0:
194,128,12888,1,8,0:0:0:0:
194,128,14042,1,0,0:0:0:0:
194,128,14272,1,8,0:0:0:0:
194,128,14503,1,0,0:0:0:0:
194,128,14965,1,8,0:0:0:0:
194,128,15888,1,0,0:0:0:0:
194,128,16811,1,0,0:0:0:0:
194,128,17042,1,8,0:0:0:0:
194,128,17272,1,0,0:0:0:0:
194,128,17734,1,8,0:0:0:0:
194,128,18196,1,0,0:0:0:0:
194,128,18657,1,8,0:0:0:0:
256,192,20503,8,0,22119,0:0:0:0:
242,115,22349,5,8,0:0:0:0:
242,115,22580,1,0,0:0:0:0:
242,115,22696,1,8,0:0:0:0:
242,115,22811,1,8,0:0:0:0:
242,115,22926,1,0,0:0:0:0:
242,115,23042,1,8,0:0:0:0:
242,115,23157,1,0,0:0:0:0:
243,123,23388,1,8,0:0:0:0:
243,123,23503,1,0,0:0:0:0:
192,256,23580,1,0,0:0:0:0:
192,256,23657,1,0,0:0:0:0:
243,123,23734,1,8,0:0:0:0:
320,128,23849,1,8,0:0:0:0:
212,128,23965,1,0,0:0:0:0:
212,128,24196,1,8,0:0:0:0:
192,256,24426,1,0,0:0:0:0:
344,156,24542,1,8,0:0:0:0:
320,128,24599,1,8,0:0:0:0:
320,128,24657,1,8,0:0:0:0:
216,122,24772,1,0,0:0:0:0:
192,256,24888,1,0,0:0:0:0:
213,115,25003,1,8,0:0:0:0:
213,159,25234,1,8,0:0:0:0:
243,123,25349,1,0,0:0:0:0:
213,159,25465,1,0,0:0:0:0:
243,123,25580,1,8,0:0:0:0:
243,123,25657,1,0,0:0:0:0:
192,256,25734,1,0,0:0:0:0:
243,123,25811,1,8,0:0:0:0:
448,64,25888,1,8,0:0:0:0:
320,128,25965,1,8,0:0:0:0:
192,256,26042,1,0,0:0:0:0:
255,150,26272,1,0,0:0:0:0:
255,150,26388,1,0,0:0:0:0:
255,150,26503,1,8,0:0:0:0:
234,143,26619,1,0,0:0:0:0:
255,150,26734,1,0,0:0:0:0:
255,150,26849,1,8,0:0:0:0:
240,148,27080,1,8,0:0:0:0:
243,147,27311,1,8,0:0:0:0:
239,149,27542,1,0,0:0:0:0:
168,60,27888,1,0,0:0:0:0:
219,117,28003,1,8,0:0:0:0:
217,119,28119,1,0,0:0:0:0:
448,64,28234,1,8,0:0:0:0:
448,64,28292,1,8,0:0:0:0:
360,164,28349,1,8,0:0:0:0:
64,64,28465,1,0,0:0:0:0:
332,236,28580,1,0,0:0:0:0:
213,115,28696,1,8,0:0:0:0:
213,159,28926,1,8,0:0:0:0:
64,64,29042,1,0,0:0:0:0:
448,64,29119,1,8,0:0:0:0:
448,64,29196,1,8,0:0:0:0:
64,64,29272,1,0,0:0:0:0:
64,64,29349,1,0,0:0:0:0:
448,64,29426,1,8,0:0:0:0:
64,64,29503,1,0,0:0:0:0:
243,123,29734,1,4,0:0:0:0:
64,64,29965,1,0,0:0:0:0:
64,64,30080,1,0,0:0:0:0:
242,115,30196,1,8,0:0:0:0:
242,115,30311,1,8,0:0:0:0:
242,115,30426,1,8,0:0:0:0:
242,115,30542,1,0,0:0:0:0:
243,123,30772,1,8,0:0:0:0:
243,123,30888,1,0,0:0:0:0:
213,159,30965,1,0,0:0:0:0:
64,64,31042,1,0,0:0:0:0:
243,123,31119,1,8,0:0:0:0:
252,142,31234,1,8,0:0:0:0:
212,128,31349,1,0,0:0:0:0:
212,128,31580,1,8,0:0:0:0:
219,117,31811,1,8,0:0:0:0:
64,64,31926,1,0,0:0:0:0:
64,64,31984,1,0,0:0:0:0:
218,125,32042,1,0,0:0:0:0:
448,64,32157,1,8,0:0:0:0:
448,64,32272,1,8,0:0:0:0:
64,64,32388,1,0,0:0:0:0:
213,159,32619,1,8,0:0:0:0:
243,123,32734,1,0,0:0:0:0:
213,159,32849,1,0,0:0:0:0:
243,123,32965,1,8,0:0:0:0:
243,123,33042,1,8,0:0:0:0:
448,64,33119,1,8,0:0:0:0:
213,159,33196,1,0,0:0:0:0:
213,159,33272,1,0,0:0:0:0:
64,64,33349,1,0,0:0:0:0:
243,123,33426,1,8,0:0:0:0:
200,232,33657,1,0,0:0:0:0:
200,232,33772,1,0,0:0:0:0:
255,150,33888,1,8,0:0:0:0:
149,175,34003,1,0,0:0:0:0:
255,150,34119,1,0,0:0:0:0:
255,150,34234,1,8,0:0:0:0:
240,148,34465,1,8,0:0:0:0:
240,148,34696,1,8,0:0:0:0:
240,148,34926,1,0,0:0:0:0:
242,147,35272,1,8,0:0:0:0:
64,64,35388,1,0,0:0:0:0:
448,64,35503,1,8,0:0:0:0:
76,164,35619,1,0,0:0:0:0:
64,64,35676,1,0,0:0:0:0:
212,128,35734,1,8,0:0:0:0:
448,64,35849,1,8,0:0:0:0:
218,125,35965,1,0,0:0:0:0:
213,115,36080,1,8,0:0:0:0:
213,159,36311,1,8,0:0:0:0:
243,123,36426,1,0,0:0:0:0:
448,64,36503,1,8,0:0:0:0:
448,64,36580,1,8,0:0:0:0:
64,64,36657,1,0,0:0:0:0:
64,64,36734,1,0,0:0:0:0:
448,64,36811,1,8,0:0:0:0:
64,64,36888,1,0,0:0:0:0:
243,123,37119,1,4,0:0:0:0:
64,64,37349,1,0,0:0:0:0:
200,146,37580,1,8,0:0:0:0:
200,146,37696,1,0,0:0:0:0:
200,146,37926,1,0,0:0:0:0:
200,146,38157,1,8,0:0:0:0:
64,64,38272,1,0,0:0:0:0:
179,139,38388,1,0,0:0:0:0:
200,146,38503,1,8,0:0:0:0:
232,184,38619,1,0,0:0:0:0:
332,240,38734,1,8,0:0:0:0:
200,146,38965,1,0,0:0:0:0:
200,146,39196,1,8,0:0:0:0:
64,64,39311,1,0,0:0:0:0:
200,146,39426,1,0,0:0:0:0:
332,172,39542,1,8,0:0:0:0:
445,190,39657,1,0,0:0:0:0:
200,146,39772,1,0,0:0:0:0:
200,146,40003,1,8,0:0:0:0:
448,64,40119,1,8,0:0:0:0:
200,146,40234,1,0,0:0:0:0:
200,146,40349,1,8,0:0:0:0:
64,64,40580,1,0,0:0:0:0:
200,146,40811,1,4,0:0:0:0:
200,146,41042,1,0,0:0:0:0:
200,146,41157,1,0,0:0:0:0:
200,146,41272,1,8,0:0:0:0:
200,146,41388,1,0,0:0:0:0:
200,146,41619,1,8,0:0:0:0:
132,152,41849,1,0,0:0:0:0:
64,64,41965,1,0,0:0:0:0:
200,146,42080,1,0,0:0:0:0:
200,146,42196,1,8,0:0:0:0:
276,148,42311,1,8,0:0:0:0:
200,146,42426,1,0,0:0:0:0:
200,146,42657,1,0,0:0:0:0:
200,146,42888,1,8,0:0:0:0:
200,146,43003,1,0,0:0:0:0:
200,146,43119,1,8,0:0:0:0:
448,64,43234,1,8,0:0:0:0:
448,64,43349,1,8,0:0:0:0:
256,264,43465,1,0,0:0:0:0:
256,264,43696,1,0,0:0:0:0:
200,146,43926,1,0,0:0:0:0:
200,146,44042,1,8,0:0:0:0:
200,146,44272,1,0,0:0:0:0:
200,146,44503,1,4,0:0:0:0:
64,64,44734,1,0,0:0:0:0:
200,146,44965,1,8,0:0:0:0:
200,146,45196,1,0,0:0:0:0:
200,146,45311,1,0,0:0:0:0:
200,146,45542,1,8,0:0:0:0:
320,140,45657,1,0,0:0:0:0:
64,64,45772,1,0,0:0:0:0:
200,146,45888,1,8,0:0:0:0:
320,140,46003,1,0,0:0:0:0:
200,146,46119,1,8,0:0:0:0:
200,146,46349,1,0,0:0:0:0:
448,64,46580,1,8,0:0:0:0:
200,146,46696,1,0,0:0:0:0:
64,64,46811,1,0,0:0:0:0:
448,64,46926,1,8,0:0:0:0:
113,189,47042,1,0,0:0:0:0:
200,146,47157,1,0,0:0:0:0:
200,146,47388,1,8,0:0:0:0:
200,146,47503,1,0,0:0:0:0:
200,146,47619,1,0,0:0:0:0:
186,132,47734,1,8,0:0:0:0:
200,146,47965,1,8,0:0:0:0:
200,146,48196,1,4,0:0:0:0:
200,146,48426,1,0,0:0:0:0:
200,146,48542,1,0,0:0:0:0:
200,146,48657,1,8,0:0:0:0:
200,146,48772,1,0,0:0:0:0:
200,146,49003,1,8,0:0:0:0:
132,152,49234,1,0,0:0:0:0:
64,64,49349,1,0,0:0:0:0:
200,146,49465,1,0,0:0:0:0:
200,146,49580,1,8,0:0:0:0:
276,148,49696,1,8,0:0:0:0:
200,146,49811,1,0,0:0:0:0:
200,146,50042,1,0,0:0:0:0:
200,146,50272,1,8,0:0:0:0:
200,146,50388,1,0,0:0:0:0:
200,146,50503,1,8,0:0:0:0:
448,64,50619,1,8,0:0:0:0:
200,146,50734,1,8,0:0:0:0:
256,264,50849,1,0,0:0:0:0:
256,264,51080,1,0,0:0:0:0:
200,146,51311,1,0,0:0:0:0:
200,146,51426,1,8,0:0:0:0:
200,146,51657,1,0,0:0:0:0:
164,135,51888,1,12,0:0:0:0:
164,135,52349,1,8,0:0:0:0:
164,135,52811,1,0,0:0:0:0:
156,137,52926,1,0,0:0:0:0:
155,135,53157,1,8,0:0:0:0:
155,135,53388,1,8,0:0:0:0:
156,135,53734,1,0,0:0:0:0:
155,135,54196,1,8,0:0:0:0:
156,135,54542,1,0,0:0:0:0:
155,135,54772,1,0,0:0:0:0:
155,135,55003,1,8,0:0:0:0:
156,135,55234,1,8,0:0:0:0:
156,135,55580,1,8,0:0:0:0:
155,135,56042,1,8,0:0:0:0:
156,135,56503,1,0,0:0:0:0:
156,135,56619,1,0,0:0:0:0:
155,135,56849,1,8,0:0:0:0:
156,135,57080,1,8,0:0:0:0:
332,115,57311,1,8,0:0:0:0:
156,135,57426,1,0,0:0:0:0:
448,64,57542,1,8,0:0:0:0:
64,64,57772,1,0,0:0:0:0:
448,64,57888,1,0,0:0:0:0:
316,119,58003,1,8,0:0:0:0:
156,135,58234,1,0,0:0:0:0:
156,135,58465,1,8,0:0:0:0:
155,135,58696,1,0,0:0:0:0:
156,135,58926,1,8,0:0:0:0:
448,320,59272,1,12,0:0:0:0:
448,320,59734,1,12,0:0:0:0:
156,135,60196,1,0,0:0:0:0:
155,135,60311,1,0,0:0:0:0:
155,135,60542,1,8,0:0:0:0:
155,135,60772,1,8,0:0:0:0:
156,135,61119,1,4,0:0:0:0:
155,135,61580,1,8,0:0:0:0:
156,135,61926,1,0,0:0:0:0:
161,136,62157,1,0,0:0:0:0:
161,136,62388,1,8,0:0:0:0:
155,135,62503,1,0,0:0:0:0:
161,136,62619,1,8,0:0:0:0:
448,320,62965,1,12,0:0:0:0:
448,320,63426,1,12,0:0:0:0:
161,136,63888,1,0,0:0:0:0:
161,136,64003,1,0,0:0:0:0:
161,136,64234,1,8,0:0:0:0:
161,136,64465,1,8,0:0:0:0:
448,64,64696,1,8,0:0:0:0:
161,136,64811,1,4,0:0:0:0:
161,136,65042,1,0,0:0:0:0:
161,136,65157,1,0,0:0:0:0:
161,136,65272,1,8,0:0:0:0:
331,114,65388,1,0,0:0:0:0:
161,136,65619,1,8,0:0:0:0:
161,136,65849,1,8,0:0:0:0:
161,136,66080,1,0,0:0:0:0:
252,104,66196,1,0,0:0:0:0:
161,136,66311,1,8,0:0:0:0:
173,153,66657,1,4,0:0:0:0:
177,150,67119,1,8,0:0:0:0:
173,153,67234,1,8,0:0:0:0:
173,153,67349,1,8,0:0:0:0:
173,153,67465,1,8,0:0:0:0:
171,148,67580,1,4,0:0:0:0:
158,144,68042,1,0,0:0:0:0:
169,142,68134,1,0,0:0:0:0:
167,140,68226,1,8,0:0:0:0:
64,64,68319,1,0,0:0:0:0:
448,64,68411,1,8,0:0:0:0:
160,141,68503,1,4,0:0:0:0:
138,140,68965,1,0,0:0:0:0:
138,140,69042,1,0,0:0:0:0:
155,146,69119,1,8,0:0:0:0:
155,146,69196,1,8,0:0:0:0:
119,149,69272,1,0,0:0:0:0:
64,64,69349,1,0,0:0:0:0:
121,153,69426,1,12,0:0:0:0:
154,142,69657,1,0,0:0:0:0:
154,142,69888,1,8,0:0:0:0:
154,142,70119,1,8,0:0:0:0:
154,142,70349,1,4,0:0:0:0:
177,150,70811,1,8,0:0:0:0:
173,153,70926,1,8,0:0:0:0:
173,153,71042,1,8,0:0:0:0:
173,153,71157,1,8,0:0:0:0:
171,148,71272,1,4,0:0:0:0:
158,144,71734,1,0,0:0:0:0:
169,142,71826,1,0,0:0:0:0:
169,142,71919,1,8,0:0:0:0:
64,64,72011,1,0,0:0:0:0:
131,137,72103,1,8,0:0:0:0:
160,141,72196,1,4,0:0:0:0:
138,140,72657,1,0,0:0:0:0:
169,177,72734,1,8,0:0:0:0:
64,64,72811,1,0,0:0:0:0:
448,64,72888,1,8,0:0:0:0:
138,140,72965,1,8,0:0:0:0:
208,104,73119,1,0,0:0:0:0:
208,104,73211,1,0,0:0:0:0:
293,169,73303,1,8,0:0:0:0:
64,64,73396,1,0,0:0:0:0:
149,139,73488,1,8,0:0:0:0:
154,142,73580,1,0,0:0:0:0:
187,118,73657,1,0,0:0:0:0:
154,142,73734,1,0,0:0:0:0:
290,156,73811,1,8,0:0:0:0:
448,64,73888,1,8,0:0:0:0:
448,64,73965,1,8,0:0:0:0:
197,232,74042,1,0,0:0:0:0:
166,267,74157,1,0,0:0:0:0:
160,139,74272,1,8,0:0:0:0:
321,236,74388,1,8,0:0:0:0:
160,139,74503,1,0,0:0:0:0:
161,102,74580,1,0,0:0:0:0:
161,102,74657,1,8,0:0:0:0:
64,64,74734,1,0,0:0:0:0:
161,102,74811,1,8,0:0:0:0:
448,64,74888,1,8,0:0:0:0:
326,110,74965,1,4,0:0:0:0:
242,115,75195,1,0,0:0:0:0:
242,115,75311,1,8,0:0:0:0:
242,115,75426,1,8,0:0:0:0:
242,115,75541,1,0,0:0:0:0:
242,115,75657,1,8,0:0:0:0:
242,115,75772,1,0,0:0:0:0:
243,123,76003,1,8,0:0:0:0:
243,123,76118,1,0,0:0:0:0:
192,256,76195,1,0,0:0:0:0:
192,256,76272,1,0,0:0:0:0:
243,123,76349,1,8,0:0:0:0:
320,128,76465,1,8,0:0:0:0:
212,128,76580,1,0,0:0:0:0:
212,128,76811,1,8,0:0:0:0:
192,256,77041,1,0,0:0:0:0:
344,156,77157,1,8,0:0:0:0:
320,128,77215,1,8,0:0:0:0:
320,128,77272,1,8,0:0:0:0:
216,122,77388,1,0,0:0:0:0:
192,256,77503,1,0,0:0:0:0:
213,115,77618,1,8,0:0:0:0:
213,159,77849,1,8,0:0:0:0:
243,123,77965,1,0,0:0:0:0:
213,159,78080,1,0,0:0:0:0:
243,123,78195,1,8,0:0:0:0:
243,123,78288,1,0,0:0:0:0:
243,123,78380,1,8,0:0:0:0:
448,64,78472,1,0,0:0:0:0:
320,128,78565,1,8,0:0:0:0:
192,256,78657,1,0,0:0:0:0:
255,150,78888,1,0,0:0:0:0:
255,150,79003,1,0,0:0:0:0:
255,150,79118,1,8,0:0:0:0:
234,143,79234,1,0,0:0:0:0:
255,150,79349,1,0,0:0:0:0:
255,150,79465,1,8,0:0:0:0:
240,148,79695,1,8,0:0:0:0:
243,147,79926,1,8,0:0:0:0:
239,149,80157,1,0,0:0:0:0:
168,60,80503,1,0,0:0:0:0:
219,117,80618,1,8,0:0:0:0:
217,119,80734,1,0,0:0:0:0:
448,64,80849,1,8,0:0:0:0:
448,64,80907,1,8,0:0:0:0:
360,164,80965,1,8,0:0:0:0:
64,64,81080,1,0,0:0:0:0:
332,236,81195,1,0,0:0:0:0:
213,115,81311,1,8,0:0:0:0:
213,159,81541,1,8,0:0:0:0:
64,64,81657,1,0,0:0:0:0:
448,64,81734,1,0,0:0:0:0:
448,64,81811,1,8,0:0:0:0:
64,64,81888,1,0,0:0:0:0:
64,64,81965,1,8,0:0:0:0:
448,64,82041,1,8,0:0:0:0:
64,64,82118,1,0,0:0:0:0:
243,123,82349,1,4,0:0:0:0:
64,64,82580,1,0,0:0:0:0:
64,64,82695,1,0,0:0:0:0:
242,115,82811,1,8,0:0:0:0:
242,115,82926,1,0,0:0:0:0:
242,115,83041,1,8,0:0:0:0:
242,115,83157,1,0,0:0:0:0:
243,123,83388,1,8,0:0:0:0:
243,123,83503,1,0,0:0:0:0:
213,159,83580,1,0,0:0:0:0:
64,64,83657,1,0,0:0:0:0:
243,123,83734,1,8,0:0:0:0:
252,142,83849,1,8,0:0:0:0:
212,128,83965,1,0,0:0:0:0:
212,128,84195,1,8,0:0:0:0:
219,117,84426,1,8,0:0:0:0:
64,64,84541,1,0,0:0:0:0:
64,64,84599,1,0,0:0:0:0:
218,125,84657,1,0,0:0:0:0:
448,64,84772,1,8,0:0:0:0:
448,64,84888,1,8,0:0:0:0:
64,64,85003,1,0,0:0:0:0:
213,159,85234,1,8,0:0:0:0:
243,123,85349,1,0,0:0:0:0:
213,159,85465,1,0,0:0:0:0:
243,123,85580,1,8,0:0:0:0:
243,123,85657,1,8,0:0:0:0:
448,64,85734,1,8,0:0:0:0:
213,159,85811,1,0,0:0:0:0:
213,159,85888,1,0,0:0:0:0:
64,64,85965,1,0,0:0:0:0:
243,123,86041,1,8,0:0:0:0:
200,232,86272,1,0,0:0:0:0:
200,232,86388,1,8,0:0:0:0:
255,150,86503,1,8,0:0:0:0:
149,175,86618,1,0,0:0:0:0:
255,150,86734,1,0,0:0:0:0:
255,150,86849,1,8,0:0:0:0:
240,148,87080,1,8,0:0:0:0:
240,148,87311,1,8,0:0:0:0:
240,148,87541,1,0,0:0:0:0:
242,147,87888,1,8,0:0:0:0:
64,64,88003,1,0,0:0:0:0:
448,64,88118,1,8,0:0:0:0:
76,164,88234,1,0,0:0:0:0:
64,64,88291,1,0,0:0:0:0:
212,128,88349,1,8,0:0:0:0:
448,64,88465,1,8,0:0:0:0:
218,125,88580,1,0,0:0:0:0:
213,115,88695,1,8,0:0:0:0:
213,159,88926,1,8,0:0:0:0:
243,123,89041,1,0,0:0:0:0:
448,64,89118,1,8,0:0:0:0:
448,64,89195,1,8,0:0:0:0:
64,64,89272,1,0,0:0:0:0:
64,64,89349,1,0,0:0:0:0:
448,64,89426,1,8,0:0:0:0:
64,64,89503,1,0,0:0:0:0:
242,115,89734,1,12,0:0:0:0:
242,115,89965,1,0,0:0:0:0:
242,115,90080,1,8,0:0:0:0:
242,115,90195,1,8,0:0:0:0:
242,115,90311,1,0,0:0:0:0:
242,115,90426,1,8,0:0:0:0:
242,115,90541,1,0,0:0:0:0:
243,123,90772,1,8,0:0:0:0:
243,123,90888,1,0,0:0:0:0:
192,256,90965,1,0,0:0:0:0:
192,256,91041,1,0,0:0:0:0:
243,123,91118,1,8,0:0:0:0:
320,128,91234,1,8,0:0:0:0:
212,128,91349,1,0,0:0:0:0:
212,128,91580,1,8,0:0:0:0:
192,256,91811,1,0,0:0:0:0:
344,156,91926,1,8,0:0:0:0:
320,128,91984,1,8,0:0:0:0:
320,128,92041,1,8,0:0:0:0:
216,122,92157,1,0,0:0:0:0:
192,256,92272,1,0,0:0:0:0:
213,115,92388,1,8,0:0:0:0:
213,159,92618,1,8,0:0:0:0:
243,123,92734,1,0,0:0:0:0:
213,159,92849,1,0,0:0:0:0:
243,123,92965,1,8,0:0:0:0:
243,123,93057,1,0,0:0:0:0:
243,123,93149,1,0,0:0:0:0:
448,64,93241,1,8,0:0:0:0:
320,128,93334,1,8,0:0:0:0:
192,256,93426,1,0,0:0:0:0:
255,150,93657,1,0,0:0:0:0:
255,150,93772,1,0,0:0:0:0:
255,150,93888,1,8,0:0:0:0:
234,143,94003,1,0,0:0:0:0:
255,150,94118,1,0,0:0:0:0:
255,150,94234,1,8,0:0:0:0:
240,148,94465,1,8,0:0:0:0:
243,147,94695,1,8,0:0:0:0:
239,149,94926,1,0,0:0:0:0:
168,60,95272,1,0,0:0:0:0:
219,117,95388,1,8,0:0:0:0:
217,119,95503,1,0,0:0:0:0:
448,64,95618,1,8,0:0:0:0:
448,64,95676,1,8,0:0:0:0:
360,164,95734,1,8,0:0:0:0:
64,64,95849,1,0,0:0:0:0:
332,236,95965,1,0,0:0:0:0:
213,115,96080,1,8,0:0:0:0:
213,159,96311,1,8,0:0:0:0:
64,64,96426,1,0,0:0:0:0:
448,64,96503,1,0,0:0:0:0:
448,64,96580,1,8,0:0:0:0:
64,64,96657,1,0,0:0:0:0:
64,64,96734,1,8,0:0:0:0:
448,64,96811,1,8,0:0:0:0:
64,64,96888,1,0,0:0:0:0:
243,123,97118,1,4,0:0:0:0:
64,64,97349,1,0,0:0:0:0:
64,64,97465,1,0,0:0:0:0:
242,115,97580,1,8,0:0:0:0:
242,115,97695,1,8,0:0:0:0:
242,115,97811,1,8,0:0:0:0:
242,115,97926,1,0,0:0:0:0:
243,123,98157,1,8,0:0:0:0:
243,123,98272,1,0,0:0:0:0:
213,159,98349,1,0,0:0:0:0:
64,64,98426,1,0,0:0:0:0:
243,123,98503,1,8,0:0:0:0:
252,142,98618,1,8,0:0:0:0:
212,128,98734,1,0,0:0:0:0:
212,128,98965,1,8,0:0:0:0:
219,117,99195,1,8,0:0:0:0:
64,64,99311,1,0,0:0:0:0:
64,64,99368,1,0,0:0:0:0:
218,125,99426,1,0,0:0:0:0:
448,64,99541,1,8,0:0:0:0:
448,64,99657,1,8,0:0:0:0:
64,64,99772,1,0,0:0:0:0:
213,159,100003,1,8,0:0:0:0:
243,123,100118,1,0,0:0:0:0:
213,159,100234,1,0,0:0:0:0:
243,123,100349,1,8,0:0:0:0:
243,123,100426,1,8,0:0:0:0:
448,64,100503,1,8,0:0:0:0:
213,159,100580,1,0,0:0:0:0:
213,159,100657,1,0,0:0:0:0:
64,64,100734,1,0,0:0:0:0:
243,123,100811,1,8,0:0:0:0:
200,232,101041,1,0,0:0:0:0:
200,232,101157,1,8,0:0:0:0:
255,150,101272,1,8,0:0:0:0:
149,175,101388,1,0,0:0:0:0:
255,150,101503,1,0,0:0:0:0:
255,150,101618,1,8,0:0:0:0:
240,148,101849,1,8,0:0:0:0:
240,148,102080,1,8,0:0:0:0:
240,148,102311,1,0,0:0:0:0:
242,147,102657,1,8,0:0:0:0:
64,64,102772,1,0,0:0:0:0:
448,64,102888,1,8,0:0:0:0:
76,164,103003,1,0,0:0:0:0:
64,64,103061,1,0,0:0:0:0:
212,128,103118,1,8,0:0:0:0:
448,64,103234,1,8,0:0:0:0:
218,125,103349,1,0,0:0:0:0:
213,115,103465,1,8,0:0:0:0:
213,159,103695,1,8,0:0:0:0:
243,123,103811,1,0,0:0:0:0:
448,64,103888,1,8,0:0:0:0:
448,64,103965,1,0,0:0:0:0:
64,64,104041,1,8,0:0:0:0:
448,64,104272,1,8,0:0:0:0:
225,154,104503,5,4,0:0:0:0:
212,132,104965,1,8,0:0:0:0:
220,144,105057,1,8,0:0:0:0:
212,132,105149,1,0,0:0:0:0:
320,128,105241,1,8,0:0:0:0:
216,144,105334,1,0,0:0:0:0:
218,132,105426,1,8,0:0:0:0:
192,256,105518,1,0,0:0:0:0:
212,152,105611,1,0,0:0:0:0:
320,128,105703,1,8,0:0:0:0:
192,256,105795,1,0,0:0:0:0:
320,128,105888,1,8,0:0:0:0:
320,128,105980,1,8,0:0:0:0:
192,256,106072,1,0,0:0:0:0:
320,128,106165,1,8,0:0:0:0:
192,256,106257,1,0,0:0:0:0:
320,128,106349,1,8,0:0:0:0:
192,256,106441,1,0,0:0:0:0:
192,256,106534,1,0,0:0:0:0:
320,128,106626,1,8,0:0:0:0:
192,256,106718,1,0,0:0:0:0:
236,168,106811,1,8,0:0:0:0:
320,128,106903,1,8,0:0:0:0:
225,167,106995,1,0,0:0:0:0:
320,128,107088,1,8,0:0:0:0:
320,128,107180,1,8,0:0:0:0:
248,168,107272,1,8,0:0:0:0:
192,256,107365,1,0,0:0:0:0:
192,256,107457,1,0,0:0:0:0:
320,128,107549,1,8,0:0:0:0:
192,256,107641,1,0,0:0:0:0:
320,128,107734,1,8,0:0:0:0:
320,128,107811,1,8,0:0:0:0:
192,256,107888,1,0,0:0:0:0:
192,256,107965,1,0,0:0:0:0:
320,128,108041,1,8,0:0:0:0:
320,128,108118,1,8,0:0:0:0:
192,256,108195,1,0,0:0:0:0:
212,132,108657,1,8,0:0:0:0:
320,128,108749,1,8,0:0:0:0:
212,132,108841,1,0,0:0:0:0:
192,256,108934,1,0,0:0:0:0:
320,128,109026,1,8,0:0:0:0:
218,132,109118,1,0,0:0:0:0:
192,256,109211,1,0,0:0:0:0:
218,132,109303,1,8,0:0:0:0:
320,128,109395,1,8,0:0:0:0:
192,256,109488,1,0,0:0:0:0:
218,132,109580,1,8,0:0:0:0:
218,132,109672,1,8,0:0:0:0:
192,256,109765,1,0,0:0:0:0:
192,256,109857,1,0,0:0:0:0:
320,128,109949,1,8,0:0:0:0:
218,132,110041,1,0,0:0:0:0:
218,132,110134,1,0,0:0:0:0:
239,161,110226,1,8,0:0:0:0:
218,132,110318,1,8,0:0:0:0:
192,256,110411,1,0,0:0:0:0:
320,128,110503,1,8,0:0:0:0:
239,145,110595,1,8,0:0:0:0:
218,132,110688,1,0,0:0:0:0:
320,128,110780,1,8,0:0:0:0:
320,128,110872,1,8,0:0:0:0:
320,128,110965,1,8,0:0:0:0:
192,256,111057,1,0,0:0:0:0:
192,256,111149,1,0,0:0:0:0:
320,128,111241,1,8,0:0:0:0:
320,128,111334,1,8,0:0:0:0:
192,256,111426,1,0,0:0:0:0:
229,117,111503,1,0,0:0:0:0:
320,128,111580,1,8,0:0:0:0:
192,256,111657,1,0,0:0:0:0:
230,117,111734,1,8,0:0:0:0:
245,139,111811,1,8,0:0:0:0:
230,117,111888,1,0,0:0:0:0:
212,132,112349,1,8,0:0:0:0:
220,144,112441,1,8,0:0:0:0:
212,132,112534,1,0,0:0:0:0:
320,128,112626,1,8,0:0:0:0:
216,144,112718,1,0,0:0:0:0:
218,132,112811,1,8,0:0:0:0:
192,256,112903,1,0,0:0:0:0:
212,152,112995,1,0,0:0:0:0:
320,128,113088,1,8,0:0:0:0:
192,256,113180,1,0,0:0:0:0:
320,128,113272,1,8,0:0:0:0:
320,128,113365,1,8,0:0:0:0:
192,256,113457,1,0,0:0:0:0:
320,128,113549,1,8,0:0:0:0:
192,256,113641,1,0,0:0:0:0:
320,128,113734,1,8,0:0:0:0:
192,256,113826,1,0,0:0:0:0:
192,256,113918,1,0,0:0:0:0:
320,128,114011,1,8,0:0:0:0:
192,256,114103,1,0,0:0:0:0:
236,168,114195,1,8,0:0:0:0:
320,128,114288,1,8,0:0:0:0:
225,167,114380,1,0,0:0:0:0:
320,128,114472,1,8,0:0:0:0:
320,128,114565,1,8,0:0:0:0:
248,168,114657,1,8,0:0:0:0:
192,256,114749,1,0,0:0:0:0:
192,256,114841,1,0,0:0:0:0:
320,128,114934,1,8,0:0:0:0:
192,256,115026,1,0,0:0:0:0:
320,128,115118,1,8,0:0:0:0:
320,128,115195,1,8,0:0:0:0:
192,256,115272,1,0,0:0:0:0:
192,256,115349,1,0,0:0:0:0:
320,128,115426,1,8,0:0:0:0:
320,128,115503,1,8,0:0:0:0:
192,256,115580,1,0,0:0:0:0:
212,132,116041,1,8,0:0:0:0:
320,128,116134,1,8,0:0:0:0:
212,132,116226,1,0,0:0:0:0:
192,256,116318,1,0,0:0:0:0:
320,128,116411,1,8,0:0:0:0:
218,132,116503,1,0,0:0:0:0:
192,256,116595,1,0,0:0:0:0:
218,132,116688,1,8,0:0:0:0:
320,128,116780,1,8,0:0:0:0:
192,256,116872,1,0,0:0:0:0:
218,132,116965,1,8,0:0:0:0:
218,132,117057,1,8,0:0:0:0:
192,256,117149,1,0,0:0:0:0:
192,256,117241,1,0,0:0:0:0:
320,128,117334,1,8,0:0:0:0:
218,132,117426,1,0,0:0:0:0:
218,132,117518,1,0,0:0:0:0:
239,161,117611,1,8,0:0:0:0:
218,132,117703,1,8,0:0:0:0:
192,256,117795,1,0,0:0:0:0:
320,128,117888,1,8,0:0:0:0:
239,145,117980,1,8,0:0:0:0:
218,132,118072,1,0,0:0:0:0:
320,128,118165,1,8,0:0:0:0:
320,128,118257,1,8,0:0:0:0:
320,128,118349,1,8,0:0:0:0:
192,256,118441,1,0,0:0:0:0:
192,256,118534,1,0,0:0:0:0:
320,128,118626,1,8,0:0:0:0:
320,128,118718,1,8,0:0:0:0:
192,256,118811,1,0,0:0:0:0:
229,117,118888,1,0,0:0:0:0:
320,128,118965,1,8,0:0:0:0:
192,256,119041,1,0,0:0:0:0:
230,117,119118,1,8,0:0:0:0:
245,139,119195,1,8,0:0:0:0:
237,140,120195,1,12,0:0:0:0:
242,126,120541,1,0,0:0:0:0:
242,126,120656,1,8,0:0:0:0:
246,126,121002,1,0,0:0:0:0:
298,140,121233,1,8,0:0:0:0:
242,117,121348,1,0,0:0:0:0:
241,114,121464,1,0,0:0:0:0:
298,140,121579,1,8,0:0:0:0:
320,128,121810,1,8,0:0:0:0:
263,116,122041,1,0,0:0:0:0:
259,119,122387,1,0,0:0:0:0:
240,131,122502,1,8,0:0:0:0:
226,122,122618,1,0,0:0:0:0:
191,153,122848,1,0,0:0:0:0:
201,162,122964,1,0,0:0:0:0:
316,151,123079,1,8,0:0:0:0:
192,137,123310,1,0,0:0:0:0:
192,137,123425,1,8,0:0:0:0:
192,137,123656,1,0,0:0:0:0:
192,137,123887,1,4,0:0:0:0:
191,111,124233,1,0,0:0:0:0:
191,111,124348,1,8,0:0:0:0:
191,111,124695,1,0,0:0:0:0:
165,120,124925,1,8,0:0:0:0:
161,176,125041,1,0,0:0:0:0:
192,190,125156,1,0,0:0:0:0:
268,104,125271,1,8,0:0:0:0:
192,256,125502,1,0,0:0:0:0:
249,84,125733,1,0,0:0:0:0:
209,81,126079,1,8,0:0:0:0:
210,75,126195,1,8,0:0:0:0:
209,81,126310,1,0,0:0:0:0:
209,81,126541,1,0,0:0:0:0:
209,81,126656,1,0,0:0:0:0:
209,81,126771,1,8,0:0:0:0:
209,81,127002,1,0,0:0:0:0:
209,81,127118,1,8,0:0:0:0:
209,81,127348,1,0,0:0:0:0:
237,140,127579,1,12,0:0:0:0:
242,126,127925,1,0,0:0:0:0:
242,126,128041,1,8,0:0:0:0:
246,126,128387,1,0,0:0:0:0:
262,122,128618,1,8,0:0:0:0:
202,142,128733,1,0,0:0:0:0:
274,113,128848,1,0,0:0:0:0:
271,115,128964,1,8,0:0:0:0:
257,209,129195,1,8,0:0:0:0:
263,116,129425,1,0,0:0:0:0:
259,119,129771,1,0,0:0:0:0:
240,131,129887,1,8,0:0:0:0:
226,122,130002,1,0,0:0:0:0:
225,121,130233,1,0,0:0:0:0:
225,121,130348,1,0,0:0:0:0:
225,121,130464,1,8,0:0:0:0:
192,137,130695,1,0,0:0:0:0:
192,137,130810,1,8,0:0:0:0:
192,137,131041,1,0,0:0:0:0:
192,137,131271,1,4,0:0:0:0:
191,111,131618,1,0,0:0:0:0:
191,111,131733,1,8,0:0:0:0:
191,111,132079,1,0,0:0:0:0:
165,120,132310,1,8,0:0:0:0:
268,104,132425,1,0,0:0:0:0:
245,108,132541,1,0,0:0:0:0:
268,104,132656,1,8,0:0:0:0:
192,256,132887,1,0,0:0:0:0:
249,84,133118,1,0,0:0:0:0:
209,81,133464,1,8,0:0:0:0:
210,75,133579,1,8,0:0:0:0:
209,81,133695,1,0,0:0:0:0:
209,81,133925,1,0,0:0:0:0:
209,81,134041,1,0,0:0:0:0:
209,81,134156,1,8,0:0:0:0:
209,81,134387,1,0,0:0:0:0:
209,81,134502,1,8,0:0:0:0:
209,98,134733,1,0,0:0:0:0:
209,98,134964,1,12,0:0:0:0:
210,98,135310,1,0,0:0:0:0:
212,98,135425,1,8,0:0:0:0:
200,83,135771,1,0,0:0:0:0:
229,167,135887,1,12,0:0:0:0:
384,192,136233,1,12,0:0:0:0:
128,192,136579,1,4,0:0:0:0:
320,128,136810,1,8,0:0:0:0:
320,128,136887,1,8,0:0:0:0:
192,256,136964,1,8,0:0:0:0:
320,128,137041,1,8,0:0:0:0:
320,128,137118,1,8,0:0:0:0:
192,256,137195,1,8,0:0:0:0:
320,128,137271,1,0,0:0:0:0:
320,128,137364,1,0,0:0:0:0:
320,128,137456,1,0,0:0:0:0:
320,128,137548,1,0,0:0:0:0:
320,128,137641,1,0,0:0:0:0:
192,256,137733,1,8,0:0:0:0:
192,256,137848,1,8,0:0:0:0:
295,289,137964,1,8,0:0:0:0:
295,289,138079,1,8,0:0:0:0:
203,147,138195,1,0,0:0:0:0:
203,147,138425,1,0,0:0:0:0:
326,110,138656,1,4,0:0:0:0:
242,115,138887,1,0,0:0:0:0:
242,115,139002,1,8,0:0:0:0:
242,115,139118,1,8,0:0:0:0:
242,115,139233,1,0,0:0:0:0:
242,115,139348,1,8,0:0:0:0:
242,115,139464,1,0,0:0:0:0:
243,123,139695,1,8,0:0:0:0:
243,123,139810,1,0,0:0:0:0:
192,256,139887,1,0,0:0:0:0:
192,256,139964,1,0,0:0:0:0:
243,123,140041,1,8,0:0:0:0:
320,128,140156,1,8,0:0:0:0:
212,128,140271,1,0,0:0:0:0:
192,256,140387,1,0,0:0:0:0:
212,128,140502,1,8,0:0:0:0:
192,256,140733,1,0,0:0:0:0:
344,156,140848,1,8,0:0:0:0:
320,128,140906,1,8,0:0:0:0:
320,128,140964,1,8,0:0:0:0:
216,122,141079,1,0,0:0:0:0:
192,256,141195,1,0,0:0:0:0:
213,115,141310,1,8,0:0:0:0:
213,159,141541,1,8,0:0:0:0:
243,123,141656,1,0,0:0:0:0:
213,159,141771,1,0,0:0:0:0:
243,123,141887,1,8,0:0:0:0:
243,123,141979,1,0,0:0:0:0:
243,123,142071,1,8,0:0:0:0:
448,64,142164,1,0,0:0:0:0:
320,128,142256,1,8,0:0:0:0:
192,256,142348,1,0,0:0:0:0:
255,150,142579,1,0,0:0:0:0:
255,150,142695,1,0,0:0:0:0:
255,150,142810,1,8,0:0:0:0:
234,143,142925,1,0,0:0:0:0:
255,150,143041,1,0,0:0:0:0:
255,150,143156,1,8,0:0:0:0:
240,148,143387,1,8,0:0:0:0:
243,147,143618,1,8,0:0:0:0:
239,149,143848,1,0,0:0:0:0:
168,60,144195,1,0,0:0:0:0:
219,117,144310,1,8,0:0:0:0:
217,119,144425,1,0,0:0:0:0:
448,64,144541,1,8,0:0:0:0:
448,64,144598,1,8,0:0:0:0:
192,256,144656,1,0,0:0:0:0:
320,128,144771,1,8,0:0:0:0:
320,128,144887,1,8,0:0:0:0:
192,256,145002,1,0,0:0:0:0:
213,159,145233,1,8,0:0:0:0:
64,64,145348,1,0,0:0:0:0:
448,64,145425,1,0,0:0:0:0:
448,64,145502,1,8,0:0:0:0:
64,64,145579,1,0,0:0:0:0:
64,64,145656,1,8,0:0:0:0:
448,64,145733,1,8,0:0:0:0:
64,64,145810,1,0,0:0:0:0:
243,123,146041,1,4,0:0:0:0:
64,64,146271,1,0,0:0:0:0:
64,64,146387,1,0,0:0:0:0:
242,115,146502,1,8,0:0:0:0:
242,115,146618,1,0,0:0:0:0:
242,115,146733,1,8,0:0:0:0:
242,115,146848,1,0,0:0:0:0:
243,123,147079,1,8,0:0:0:0:
243,123,147195,1,0,0:0:0:0:
213,159,147271,1,0,0:0:0:0:
64,64,147348,1,0,0:0:0:0:
243,123,147425,1,8,0:0:0:0:
252,142,147541,1,8,0:0:0:0:
212,128,147656,1,0,0:0:0:0:
320,128,147771,1,8,0:0:0:0:
192,256,147887,1,0,0:0:0:0:
219,117,148118,1,8,0:0:0:0:
64,64,148233,1,0,0:0:0:0:
64,64,148291,1,0,0:0:0:0:
218,125,148348,1,0,0:0:0:0:
448,64,148464,1,8,0:0:0:0:
448,64,148579,1,8,0:0:0:0:
64,64,148695,1,0,0:0:0:0:
213,159,148925,1,8,0:0:0:0:
243,123,149041,1,0,0:0:0:0:
213,159,149156,1,0,0:0:0:0:
243,123,149271,1,8,0:0:0:0:
243,123,149348,1,8,0:0:0:0:
448,64,149425,1,8,0:0:0:0:
213,159,149502,1,0,0:0:0:0:
213,159,149579,1,0,0:0:0:0:
64,64,149656,1,0,0:0:0:0:
243,123,149733,1,8,0:0:0:0:
200,232,149964,1,0,0:0:0:0:
200,232,150079,1,8,0:0:0:0:
255,150,150195,1,8,0:0:0:0:
149,175,150310,1,0,0:0:0:0:
255,150,150425,1,0,0:0:0:0:
255,150,150541,1,8,0:0:0:0:
240,148,150771,1,8,0:0:0:0:
240,148,151002,1,8,0:0:0:0:
240,148,151233,1,0,0:0:0:0:
242,147,151579,1,8,0:0:0:0:
64,64,151695,1,0,0:0:0:0:
448,64,151810,1,8,0:0:0:0:
76,164,151925,1,0,0:0:0:0:
64,64,151983,1,0,0:0:0:0:
212,128,152041,1,8,0:0:0:0:
448,64,152156,1,8,0:0:0:0:
218,125,152271,1,0,0:0:0:0:
213,115,152387,1,8,0:0:0:0:
213,159,152618,1,8,0:0:0:0:
243,123,152733,1,0,0:0:0:0:
448,64,152810,1,8,0:0:0:0:
448,64,152887,1,8,0:0:0:0:
64,64,152964,1,0,0:0:0:0:
64,64,153041,1,0,0:0:0:0:
448,64,153118,1,8,0:0:0:0:
64,64,153195,1,0,0:0:0:0:
242,115,153425,1,12,0:0:0:0:
242,115,153656,1,0,0:0:0:0:
242,115,153771,1,8,0:0:0:0:
242,115,153887,1,8,0:0:0:0:
242,115,154002,1,0,0:0:0:0:
242,115,154118,1,8,0:0:0:0:
242,115,154233,1,0,0:0:0:0:
243,123,154464,1,8,0:0:0:0:
243,123,154579,1,0,0:0:0:0:
192,256,154656,1,0,0:0:0:0:
192,256,154733,1,0,0:0:0:0:
243,123,154810,1,8,0:0:0:0:
320,128,154925,1,8,0:0:0:0:
212,128,155041,1,0,0:0:0:0:
192,256,155156,1,0,0:0:0:0:
212,128,155271,1,8,0:0:0:0:
192,256,155502,1,0,0:0:0:0:
344,156,155618,1,8,0:0:0:0:
320,128,155675,1,8,0:0:0:0:
320,128,155733,1,8,0:0:0:0:
216,122,155848,1,0,0:0:0:0:
192,256,155964,1,0,0:0:0:0:
213,115,156079,1,8,0:0:0:0:
213,159,156310,1,8,0:0:0:0:
243,123,156425,1,0,0:0:0:0:
213,159,156541,1,0,0:0:0:0:
243,123,156656,1,8,0:0:0:0:
243,123,156748,1,0,0:0:0:0:
243,123,156841,1,0,0:0:0:0:
448,64,156933,1,8,0:0:0:0:
320,128,157025,1,8,0:0:0:0:
192,256,157118,1,0,0:0:0:0:
255,150,157348,1,0,0:0:0:0:
255,150,157464,1,0,0:0:0:0:
255,150,157579,1,8,0:0:0:0:
234,143,157695,1,0,0:0:0:0:
255,150,157810,1,0,0:0:0:0:
255,150,157925,1,8,0:0:0:0:
240,148,158156,1,8,0:0:0:0:
243,147,158387,1,8,0:0:0:0:
239,149,158618,1,0,0:0:0:0:
168,60,158964,1,0,0:0:0:0:
219,117,159079,1,8,0:0:0:0:
217,119,159195,1,0,0:0:0:0:
448,64,159310,1,8,0:0:0:0:
448,64,159368,1,8,0:0:0:0:
192,256,159425,1,0,0:0:0:0:
320,128,159541,1,8,0:0:0:0:
320,128,159656,1,8,0:0:0:0:
192,256,159771,1,0,0:0:0:0:
213,159,160002,1,8,0:0:0:0:
64,64,160118,1,0,0:0:0:0:
448,64,160195,1,0,0:0:0:0:
448,64,160271,1,8,0:0:0:0:
64,64,160348,1,0,0:0:0:0:
64,64,160425,1,8,0:0:0:0:
448,64,160502,1,8,0:0:0:0:
64,64,160579,1,0,0:0:0:0:
243,123,160810,1,4,0:0:0:0:
64,64,161041,1,0,0:0:0:0:
64,64,161156,1,0,0:0:0:0:
242,115,161271,1,8,0:0:0:0:
242,115,161387,1,8,0:0:0:0:
242,115,161502,1,8,0:0:0:0:
242,115,161618,1,0,0:0:0:0:
243,123,161848,1,8,0:0:0:0:
243,123,161964,1,0,0:0:0:0:
213,159,162041,1,0,0:0:0:0:
64,64,162118,1,0,0:0:0:0:
243,123,162195,1,8,0:0:0:0:
252,142,162310,1,8,0:0:0:0:
212,128,162425,1,0,0:0:0:0:
320,128,162541,1,8,0:0:0:0:
192,256,162656,1,0,0:0:0:0:
219,117,162887,1,8,0:0:0:0:
64,64,163002,1,0,0:0:0:0:
64,64,163060,1,0,0:0:0:0:
218,125,163118,1,0,0:0:0:0:
448,64,163233,1,8,0:0:0:0:
448,64,163348,1,8,0:0:0:0:
64,64,163464,1,0,0:0:0:0:
213,159,163695,1,8,0:0:0:0:
243,123,163810,1,0,0:0:0:0:
213,159,163925,1,0,0:0:0:0:
243,123,164041,1,8,0:0:0:0:
243,123,164118,1,8,0:0:0:0:
448,64,164195,1,8,0:0:0:0:
213,159,164271,1,0,0:0:0:0:
213,159,164348,1,0,0:0:0:0:
64,64,164425,1,0,0:0:0:0:
243,123,164502,1,8,0:0:0:0:
200,232,164733,1,0,0:0:0:0:
200,232,164848,1,8,0:0:0:0:
255,150,164964,1,8,0:0:0:0:
149,175,165079,1,0,0:0:0:0:
255,150,165195,1,0,0:0:0:0:
255,150,165310,1,8,0:0:0:0:
240,148,165541,1,8,0:0:0:0:
240,148,165771,1,8,0:0:0:0:
240,148,166002,1,0,0:0:0:0:
242,147,166348,1,8,0:0:0:0:
64,64,166464,1,0,0:0:0:0:
448,64,166579,1,8,0:0:0:0:
76,164,166695,1,0,0:0:0:0:
64,64,166752,1,0,0:0:0:0:
212,128,166810,1,8,0:0:0:0:
448,64,166925,1,8,0:0:0:0:
218,125,167041,1,0,0:0:0:0:
213,115,167156,1,8,0:0:0:0:
213,159,167387,1,8,0:0:0:0:
243,123,167502,1,0,0:0:0:0:
192,256,167579,1,0,0:0:0:0:
320,128,167656,1,8,0:0:0:0:
192,256,167733,1,0,0:0:0:0:
320,128,167810,1,8,0:0:0:0:
192,256,167887,1,0,0:0:0:0:
320,128,167964,1,8,0:0:0:0:
192,256,168041,1,0,0:0:0:0:
320,128,168118,1,8,0:0:0:0:
