osu file format v14

[General]
AudioFilename: audio.ogg
AudioLeadIn: 0
PreviewTime: 74936
Countdown: 0
SampleSet: Normal
StackLeniency: 0
Mode: 1
LetterboxInBreaks: 0
WidescreenStoryboard: 1

[Editor]
Bookmarks: 37119,51888,66669,74977,104515,136822,138668,168207
DistanceSpacing: 1.4
BeatDivisor: 4
GridSize: 4
TimelineZoom: 1

[Metadata]
Title:sn4pside
TitleUnicode:sn4pside
Artist:pm04034
ArtistUnicode:pm04034
Creator:Miyoi
Version:muzukashii
Source:
Tags:Midnaait Reficul Alchyr Electronic Instrumental Piano snapside pianitox tech
BeatmapID:3379285
BeatmapSetID:1502424

[Difficulty]
HPDrainRate:6
CircleSize:2
OverallDifficulty:5
ApproachRate:10
SliderMultiplier:1.4
SliderTickRate:1

[Events]
//Background and Video events
0,0,"g.jpg",0,-95
//Break Periods
//Storyboard Layer 0 (Background)
//Storyboard Layer 1 (Fail)
//Storyboard Layer 2 (Pass)
//Storyboard Layer 3 (Foreground)
//Storyboard Layer 4 (Overlay)
//Storyboard Sound Samples

[TimingPoints]
196,461.538461538462,4,1,0,75,1,0
20272,-100,4,1,0,30,0,0
22234,-100,4,1,0,75,0,0
72196,461.538461538462,6,1,0,75,1,0
74965,461.538461538462,4,1,0,75,1,1
104503,-100,4,1,0,75,0,0
119272,461.538461538462,4,1,0,75,1,8
120195,461.538461538462,4,1,0,75,1,0
138656,-100,4,1,0,75,0,1
168195,-100,4,1,0,75,0,0

[HitObjects]
309,157,196,5,8,0:0:0:0:
208,134,1119,1,8,0:0:0:0:
208,134,1349,1,8,0:0:0:0:
208,134,1580,1,0,0:0:0:0:
208,134,1811,1,8,0:0:0:0:
194,128,2965,1,8,0:0:0:0:
194,128,3196,1,0,0:0:0:0:
194,128,3426,1,0,0:0:0:0:
194,128,3657,1,8,0:0:0:0:
194,128,4811,1,0,0:0:0:0:
194,128,5042,1,0,0:0:0:0:
194,128,5272,1,0,0:0:0:0:
194,128,5503,1,8,0:0:0:0:
194,128,6657,1,0,0:0:0:0:
194,128,6888,1,0,0:0:0:0:
194,128,7119,1,0,0:0:0:0:
194,128,7580,1,8,0:0:0:0:
194,128,8503,1,8,0:0:0:0:
194,128,8734,1,8,0:0:0:0:
194,128,8965,1,0,0:0:0:0:
194,128,9196,1,8,0:0:0:0:
194,128,10349,1,8,0:0:0:0:
194,128,10580,1,0,0:0:0:0:
194,128,10811,1,0,0:0:0:0:
194,128,11042,1,8,0:0:0:0:
194,128,12196,1,0,0:0:0:0:
194,128,12426,1,0,0:0:0:0:
194,128,12657,1,0,0:0:0:0:
194,128,12888,1,8,0:0:0:0:
194,128,14042,1,0,0:0:0:0:
194,128,14272,1,0,0:0:0:0:
194,128,14503,1,0,0:0:0:0:
194,128,14965,1,8,0:0:0:0:
194,128,15888,1,0,0:0:0:0:
194,128,16811,1,0,0:0:0:0:
194,128,17042,1,0,0:0:0:0:
194,128,17272,1,0,0:0:0:0:
194,128,17734,1,8,0:0:0:0:
194,128,18196,1,0,0:0:0:0:
194,128,18657,1,8,0:0:0:0:
256,192,20503,8,0,22119,0:0:0:0:
242,115,22349,5,8,0:0:0:0:
242,115,22811,1,8,0:0:0:0:
242,115,23157,1,0,0:0:0:0:
243,123,23503,1,0,0:0:0:0:
212,128,23619,1,0,0:0:0:0:
243,123,23734,1,0,0:0:0:0:
212,128,23965,1,8,0:0:0:0:
212,128,24196,1,0,0:0:0:0:
344,156,24657,1,8,0:0:0:0:
213,115,25003,1,0,0:0:0:0:
243,123,25349,1,0,0:0:0:0:
243,123,25580,1,8,0:0:0:0:
243,123,25696,1,8,0:0:0:0:
243,123,25811,1,8,0:0:0:0:
243,123,26042,1,0,0:0:0:0:
255,150,26503,1,8,0:0:0:0:
255,150,26849,1,0,0:0:0:0:
240,148,27080,1,0,0:0:0:0:
239,149,27311,1,8,0:0:0:0:
241,149,27542,1,8,0:0:0:0:
168,60,27888,1,0,0:0:0:0:
222,138,28003,1,0,0:0:0:0:
217,119,28119,1,0,0:0:0:0:
360,164,28349,1,0,0:0:0:0:
264,119,28465,1,0,0:0:0:0:
213,115,28696,1,8,0:0:0:0:
243,123,29734,1,4,0:0:0:0:
242,115,30196,1,8,0:0:0:0:
242,115,30542,1,0,0:0:0:0:
243,123,30888,1,8,0:0:0:0:
213,159,31003,1,8,0:0:0:0:
243,123,31119,1,8,0:0:0:0:
212,128,31349,1,8,0:0:0:0:
212,128,31580,1,0,0:0:0:0:
218,125,32042,1,8,0:0:0:0:
213,115,32388,1,0,0:0:0:0:
243,123,32734,1,0,0:0:0:0:
243,123,32965,1,8,0:0:0:0:
243,123,33080,1,8,0:0:0:0:
213,159,33196,1,8,0:0:0:0:
243,123,33426,1,0,0:0:0:0:
255,150,33888,1,8,0:0:0:0:
255,150,34234,1,8,0:0:0:0:
241,153,34465,1,0,0:0:0:0:
240,148,34580,1,0,0:0:0:0:
240,148,34811,1,8,0:0:0:0:
242,147,35272,1,0,0:0:0:0:
219,117,35388,1,0,0:0:0:0:
100,152,35503,1,0,0:0:0:0:
212,128,35734,1,8,0:0:0:0:
213,115,36080,1,0,0:0:0:0:
213,159,36426,1,8,0:0:0:0:
243,123,36657,1,8,0:0:0:0:
243,123,36772,1,8,0:0:0:0:
243,123,36888,1,8,0:0:0:0:
243,123,37119,1,4,0:0:0:0:
200,146,37926,1,0,0:0:0:0:
179,139,38157,1,8,0:0:0:0:
200,146,38503,1,8,0:0:0:0:
232,184,38619,1,8,0:0:0:0:
332,240,38734,1,8,0:0:0:0:
200,146,38965,1,0,0:0:0:0:
200,146,39426,1,8,0:0:0:0:
200,146,39772,1,0,0:0:0:0:
184,244,40003,1,8,0:0:0:0:
200,146,40234,1,8,0:0:0:0:
200,146,40349,1,8,0:0:0:0:
200,146,40580,1,8,0:0:0:0:
200,146,40811,1,4,0:0:0:0:
200,146,41619,1,8,0:0:0:0:
132,152,41849,1,0,0:0:0:0:
200,146,42196,1,8,0:0:0:0:
276,148,42311,1,8,0:0:0:0:
200,146,42426,1,8,0:0:0:0:
200,146,42657,1,0,0:0:0:0:
200,146,43119,1,8,0:0:0:0:
256,264,43465,1,0,0:0:0:0:
256,264,43696,1,0,0:0:0:0:
200,146,43926,1,8,0:0:0:0:
200,146,44042,1,8,0:0:0:0:
200,146,44272,1,8,0:0:0:0:
200,146,44503,1,4,0:0:0:0:
200,146,45311,1,0,0:0:0:0:
200,146,45542,1,8,0:0:0:0:
200,146,45888,1,8,0:0:0:0:
320,140,46003,1,8,0:0:0:0:
200,146,46119,1,8,0:0:0:0:
200,146,46349,1,0,0:0:0:0:
200,146,46811,1,8,0:0:0:0:
192,148,47157,1,0,0:0:0:0:
186,132,47388,1,8,0:0:0:0:
200,146,47619,1,8,0:0:0:0:
200,146,47734,1,8,0:0:0:0:
200,146,47965,1,8,0:0:0:0:
200,146,48196,1,4,0:0:0:0:
200,146,49003,1,8,0:0:0:0:
132,152,49234,1,0,0:0:0:0:
200,146,49580,1,8,0:0:0:0:
276,148,49696,1,8,0:0:0:0:
200,146,49811,1,8,0:0:0:0:
200,146,50042,1,0,0:0:0:0:
200,146,50503,1,8,0:0:0:0:
256,264,50849,1,0,0:0:0:0:
256,264,51080,1,0,0:0:0:0:
200,146,51311,1,8,0:0:0:0:
200,146,51426,1,8,0:0:0:0:
200,146,51657,1,0,0:0:0:0:
164,135,51888,1,12,0:0:0:0:
164,135,52349,1,8,0:0:0:0:
164,135,52811,1,0,0:0:0:0:
156,137,52926,1,0,0:0:0:0:
155,135,53157,1,8,0:0:0:0:
155,135,53388,1,8,0:0:0:0:
156,135,53734,1,0,0:0:0:0:
155,135,54196,1,8,0:0:0:0:
156,135,54542,1,0,0:0:0:0:
155,135,54772,1,0,0:0:0:0:
155,135,55003,1,8,0:0:0:0:
156,135,55580,1,8,0:0:0:0:
155,135,56042,1,8,0:0:0:0:
156,135,56503,1,0,0:0:0:0:
156,135,56619,1,0,0:0:0:0:
155,135,56849,1,8,0:0:0:0:
156,135,57080,1,8,0:0:0:0:
156,135,57426,1,0,0:0:0:0:
156,135,57888,1,8,0:0:0:0:
156,135,58234,1,0,0:0:0:0:
156,135,58465,1,8,0:0:0:0:
156,135,58696,1,8,0:0:0:0:
156,135,59272,1,8,0:0:0:0:
155,135,59734,1,8,0:0:0:0:
156,135,60196,1,0,0:0:0:0:
155,135,60311,1,0,0:0:0:0:
155,135,60542,1,8,0:0:0:0:
155,135,60772,1,8,0:0:0:0:
156,135,61119,1,4,0:0:0:0:
155,135,61580,1,8,0:0:0:0:
156,135,61926,1,0,0:0:0:0:
161,136,62157,1,0,0:0:0:0:
161,136,62388,1,8,0:0:0:0:
165,135,62619,1,0,0:0:0:0:
161,136,62965,1,8,0:0:0:0:
161,136,63426,1,8,0:0:0:0:
161,136,63888,1,0,0:0:0:0:
161,136,64003,1,0,0:0:0:0:
161,136,64234,1,8,0:0:0:0:
161,136,64465,1,8,0:0:0:0:
161,136,64811,1,4,0:0:0:0:
161,136,65272,1,8,0:0:0:0:
161,136,65619,1,0,0:0:0:0:
161,136,65849,1,8,0:0:0:0:
161,136,66080,1,8,0:0:0:0:
173,153,66657,1,4,0:0:0:0:
177,150,67119,1,8,0:0:0:0:
159,148,67234,1,8,0:0:0:0:
173,153,67349,1,8,0:0:0:0:
171,148,67580,1,4,0:0:0:0:
158,144,68042,1,8,0:0:0:0:
169,142,68134,1,8,0:0:0:0:
167,140,68226,1,8,0:0:0:0:
160,141,68503,1,4,0:0:0:0:
138,140,68965,1,0,0:0:0:0:
79,153,69080,1,0,0:0:0:0:
138,140,69196,1,0,0:0:0:0:
121,153,69426,1,12,0:0:0:0:
154,142,70349,1,4,0:0:0:0:
177,150,70811,1,8,0:0:0:0:
239,157,70926,1,8,0:0:0:0:
173,153,71042,1,8,0:0:0:0:
171,148,71272,1,4,0:0:0:0:
158,144,71734,1,8,0:0:0:0:
169,142,71826,1,8,0:0:0:0:
169,142,71919,1,8,0:0:0:0:
160,141,72196,1,4,0:0:0:0:
138,140,72657,1,8,0:0:0:0:
208,104,73119,1,0,0:0:0:0:
199,131,73211,1,0,0:0:0:0:
200,130,73303,1,0,0:0:0:0:
154,142,73580,1,8,0:0:0:0:
187,118,73672,1,8,0:0:0:0:
154,142,73765,1,8,0:0:0:0:
197,232,74042,1,0,0:0:0:0:
166,267,74157,1,0,0:0:0:0:
160,139,74272,1,0,0:0:0:0:
160,139,74503,1,8,0:0:0:0:
243,123,74965,1,4,0:0:0:0:
242,115,75772,1,0,0:0:0:0:
212,128,76003,1,0,0:0:0:0:
243,123,76118,1,0,0:0:0:0:
243,123,76349,1,8,0:0:0:0:
212,128,76580,1,8,0:0:0:0:
212,128,76811,1,0,0:0:0:0:
344,156,77272,1,8,0:0:0:0:
213,115,77618,1,0,0:0:0:0:
243,123,77965,1,0,0:0:0:0:
243,123,78195,1,8,0:0:0:0:
243,123,78288,1,8,0:0:0:0:
243,123,78380,1,8,0:0:0:0:
243,123,78657,1,0,0:0:0:0:
255,150,79118,1,8,0:0:0:0:
255,150,79465,1,0,0:0:0:0:
216,153,79695,1,0,0:0:0:0:
240,148,79811,1,0,0:0:0:0:
239,149,80041,1,8,0:0:0:0:
168,60,80503,1,0,0:0:0:0:
222,138,80618,1,0,0:0:0:0:
217,119,80734,1,0,0:0:0:0:
360,164,80965,1,8,0:0:0:0:
213,115,81311,1,8,0:0:0:0:
197,115,81541,1,0,0:0:0:0:
221,114,81657,1,0,0:0:0:0:
221,114,81888,1,8,0:0:0:0:
221,114,82003,1,8,0:0:0:0:
221,114,82118,1,8,0:0:0:0:
243,123,82349,1,4,0:0:0:0:
242,115,83157,1,0,0:0:0:0:
213,159,83388,1,0,0:0:0:0:
243,123,83503,1,0,0:0:0:0:
243,123,83734,1,8,0:0:0:0:
212,128,83965,1,8,0:0:0:0:
212,128,84195,1,0,0:0:0:0:
218,125,84657,1,8,0:0:0:0:
213,115,85003,1,8,0:0:0:0:
218,126,85234,1,0,0:0:0:0:
243,123,85349,1,0,0:0:0:0:
243,123,85580,1,8,0:0:0:0:
243,123,86041,1,0,0:0:0:0:
255,150,86503,1,8,0:0:0:0:
255,150,86849,1,8,0:0:0:0:
241,153,87080,1,0,0:0:0:0:
240,148,87195,1,0,0:0:0:0:
240,148,87426,1,8,0:0:0:0:
242,147,87888,1,0,0:0:0:0:
219,117,88003,1,0,0:0:0:0:
100,152,88118,1,0,0:0:0:0:
212,128,88349,1,8,0:0:0:0:
213,115,88695,1,0,0:0:0:0:
226,124,88926,1,8,0:0:0:0:
213,159,89041,1,8,0:0:0:0:
243,123,89272,1,8,0:0:0:0:
243,123,89388,1,8,0:0:0:0:
243,123,89503,1,8,0:0:0:0:
243,123,89734,1,4,0:0:0:0:
242,115,90541,1,0,0:0:0:0:
212,128,90772,1,0,0:0:0:0:
243,123,90888,1,0,0:0:0:0:
243,123,91118,1,8,0:0:0:0:
212,128,91349,1,8,0:0:0:0:
212,128,91580,1,0,0:0:0:0:
344,156,92041,1,8,0:0:0:0:
213,115,92388,1,0,0:0:0:0:
243,123,92734,1,0,0:0:0:0:
243,123,92965,1,8,0:0:0:0:
243,123,93057,1,8,0:0:0:0:
243,123,93149,1,8,0:0:0:0:
243,123,93426,1,0,0:0:0:0:
255,150,93888,1,8,0:0:0:0:
255,150,94234,1,0,0:0:0:0:
216,153,94465,1,0,0:0:0:0:
240,148,94580,1,0,0:0:0:0:
239,149,94811,1,8,0:0:0:0:
168,60,95272,1,0,0:0:0:0:
222,138,95388,1,0,0:0:0:0:
217,119,95503,1,0,0:0:0:0:
360,164,95734,1,8,0:0:0:0:
213,115,96080,1,8,0:0:0:0:
222,138,96311,1,0,0:0:0:0:
221,114,96426,1,0,0:0:0:0:
221,114,96657,1,8,0:0:0:0:
221,114,96772,1,8,0:0:0:0:
221,114,96888,1,8,0:0:0:0:
243,123,97118,1,4,0:0:0:0:
242,115,97926,1,0,0:0:0:0:
213,159,98157,1,0,0:0:0:0:
243,123,98272,1,0,0:0:0:0:
243,123,98503,1,8,0:0:0:0:
212,128,98734,1,8,0:0:0:0:
212,128,98965,1,0,0:0:0:0:
218,125,99426,1,8,0:0:0:0:
213,115,99772,1,8,0:0:0:0:
218,126,100003,1,0,0:0:0:0:
243,123,100118,1,0,0:0:0:0:
243,123,100349,1,8,0:0:0:0:
243,123,100811,1,0,0:0:0:0:
255,150,101272,1,8,0:0:0:0:
255,150,101618,1,8,0:0:0:0:
241,153,101849,1,0,0:0:0:0:
240,148,101965,1,0,0:0:0:0:
240,148,102195,1,8,0:0:0:0:
242,147,102657,1,0,0:0:0:0:
219,117,102772,1,0,0:0:0:0:
100,152,102888,1,0,0:0:0:0:
212,128,103118,1,8,0:0:0:0:
194,140,103349,1,0,0:0:0:0:
213,159,103580,1,8,0:0:0:0:
243,123,104503,1,4,0:0:0:0:
212,132,104965,1,0,0:0:0:0:
220,125,105057,1,0,0:0:0:0:
220,125,105149,1,0,0:0:0:0:
218,132,105426,1,8,0:0:0:0:
244,164,105888,1,8,0:0:0:0:
259,168,105980,1,8,0:0:0:0:
178,156,106072,1,8,0:0:0:0:
228,180,106349,1,0,0:0:0:0:
236,168,106811,1,0,0:0:0:0:
187,171,106903,1,0,0:0:0:0:
199,170,106995,1,0,0:0:0:0:
248,168,107272,1,8,0:0:0:0:
218,132,107734,1,8,0:0:0:0:
195,169,107849,1,8,0:0:0:0:
195,169,107965,1,8,0:0:0:0:
230,117,108195,1,0,0:0:0:0:
212,132,108657,1,0,0:0:0:0:
218,132,108749,1,0,0:0:0:0:
218,132,108841,1,0,0:0:0:0:
218,132,109118,1,8,0:0:0:0:
218,132,109580,1,8,0:0:0:0:
218,132,109672,1,8,0:0:0:0:
218,132,109765,1,8,0:0:0:0:
218,132,110041,1,0,0:0:0:0:
218,132,110503,1,0,0:0:0:0:
239,145,110595,1,0,0:0:0:0:
218,132,110688,1,0,0:0:0:0:
218,132,110965,1,8,0:0:0:0:
227,118,111426,1,8,0:0:0:0:
230,117,111541,1,8,0:0:0:0:
230,117,111657,1,8,0:0:0:0:
230,117,111888,1,0,0:0:0:0:
212,132,112349,1,0,0:0:0:0:
216,144,112441,1,0,0:0:0:0:
130,159,112534,1,0,0:0:0:0:
218,132,112811,1,8,0:0:0:0:
244,164,113272,1,8,0:0:0:0:
234,147,113365,1,8,0:0:0:0:
233,147,113457,1,8,0:0:0:0:
228,180,113734,1,0,0:0:0:0:
236,168,114195,1,0,0:0:0:0:
269,167,114288,1,0,0:0:0:0:
225,167,114380,1,0,0:0:0:0:
248,168,114657,1,8,0:0:0:0:
218,132,115118,1,8,0:0:0:0:
194,179,115234,1,8,0:0:0:0:
213,173,115349,1,8,0:0:0:0:
230,117,115580,1,0,0:0:0:0:
212,132,116041,1,0,0:0:0:0:
218,132,116134,1,0,0:0:0:0:
212,132,116226,1,0,0:0:0:0:
218,132,116503,1,8,0:0:0:0:
218,132,116965,1,8,0:0:0:0:
218,132,117057,1,8,0:0:0:0:
218,132,117149,1,8,0:0:0:0:
218,132,117426,1,0,0:0:0:0:
218,132,118349,1,0,0:0:0:0:
227,118,118811,1,8,0:0:0:0:
230,117,118926,1,8,0:0:0:0:
230,117,119041,1,8,0:0:0:0:
228,149,119157,1,8,0:0:0:0:
237,140,120195,1,4,0:0:0:0:
242,126,120656,1,8,0:0:0:0:
242,117,121118,1,0,0:0:0:0:
274,127,121233,1,0,0:0:0:0:
241,114,121348,1,0,0:0:0:0:
298,140,121579,1,8,0:0:0:0:
209,142,121810,1,8,0:0:0:0:
263,116,122041,1,0,0:0:0:0:
240,131,122502,1,8,0:0:0:0:
316,151,122964,1,8,0:0:0:0:
276,148,123079,1,8,0:0:0:0:
192,137,123195,1,8,0:0:0:0:
192,137,123425,1,0,0:0:0:0:
192,137,123656,1,8,0:0:0:0:
192,137,123887,1,4,0:0:0:0:
272,144,124348,1,8,0:0:0:0:
191,111,124810,1,0,0:0:0:0:
165,120,124925,1,0,0:0:0:0:
161,176,125041,1,0,0:0:0:0:
268,104,125271,1,8,0:0:0:0:
265,198,125502,1,8,0:0:0:0:
249,84,125733,1,0,0:0:0:0:
210,75,126195,1,8,0:0:0:0:
209,81,126656,1,0,0:0:0:0:
237,140,127579,1,4,0:0:0:0:
242,126,128041,1,8,0:0:0:0:
262,122,128502,1,0,0:0:0:0:
202,142,128618,1,0,0:0:0:0:
274,113,128733,1,0,0:0:0:0:
271,115,128964,1,8,0:0:0:0:
257,209,129195,1,8,0:0:0:0:
263,116,129425,1,0,0:0:0:0:
259,119,129887,1,8,0:0:0:0:
225,121,130348,1,8,0:0:0:0:
225,121,130464,1,8,0:0:0:0:
225,121,130579,1,8,0:0:0:0:
192,137,130810,1,0,0:0:0:0:
192,137,131041,1,8,0:0:0:0:
192,137,131271,1,4,0:0:0:0:
191,111,131733,1,8,0:0:0:0:
191,111,132195,1,0,0:0:0:0:
165,120,132310,1,0,0:0:0:0:
268,104,132425,1,0,0:0:0:0:
268,104,132656,1,8,0:0:0:0:
234,97,132887,1,8,0:0:0:0:
249,84,133118,1,0,0:0:0:0:
210,75,133579,1,8,0:0:0:0:
209,81,134041,1,0,0:0:0:0:
209,98,134964,1,4,0:0:0:0:
212,98,135425,1,8,0:0:0:0:
229,167,135887,1,12,0:0:0:0:
229,167,136233,1,12,0:0:0:0:
229,167,136579,1,4,0:0:0:0:
116,142,136810,1,8,0:0:0:0:
223,135,136887,1,8,0:0:0:0:
155,105,136964,1,8,0:0:0:0:
175,141,137271,1,0,0:0:0:0:
175,141,137364,1,0,0:0:0:0:
175,141,137456,1,0,0:0:0:0:
295,289,137733,1,8,0:0:0:0:
295,289,137848,1,8,0:0:0:0:
295,289,137964,1,8,0:0:0:0:
203,147,138195,1,0,0:0:0:0:
203,147,138425,1,0,0:0:0:0:
243,123,138656,1,4,0:0:0:0:
242,115,139464,1,0,0:0:0:0:
212,128,139695,1,0,0:0:0:0:
243,123,139810,1,0,0:0:0:0:
243,123,140041,1,8,0:0:0:0:
212,128,140271,1,8,0:0:0:0:
212,128,140502,1,0,0:0:0:0:
344,156,140964,1,8,0:0:0:0:
213,115,141310,1,0,0:0:0:0:
243,123,141656,1,0,0:0:0:0:
243,123,141887,1,8,0:0:0:0:
243,123,141979,1,8,0:0:0:0:
243,123,142071,1,8,0:0:0:0:
243,123,142348,1,0,0:0:0:0:
255,150,142810,1,8,0:0:0:0:
255,150,143156,1,0,0:0:0:0:
216,153,143387,1,0,0:0:0:0:
240,148,143502,1,0,0:0:0:0:
239,149,143733,1,8,0:0:0:0:
168,60,144195,1,0,0:0:0:0:
222,138,144310,1,0,0:0:0:0:
217,119,144425,1,0,0:0:0:0:
360,164,144656,1,8,0:0:0:0:
213,115,145002,1,8,0:0:0:0:
228,104,145233,1,0,0:0:0:0:
221,114,145348,1,0,0:0:0:0:
221,114,145579,1,8,0:0:0:0:
221,114,145695,1,8,0:0:0:0:
221,114,145810,1,8,0:0:0:0:
243,123,146041,1,4,0:0:0:0:
242,115,146848,1,0,0:0:0:0:
213,159,147079,1,0,0:0:0:0:
243,123,147195,1,0,0:0:0:0:
243,123,147425,1,8,0:0:0:0:
212,128,147656,1,8,0:0:0:0:
212,128,147887,1,0,0:0:0:0:
218,125,148348,1,8,0:0:0:0:
213,115,148695,1,8,0:0:0:0:
218,126,148925,1,0,0:0:0:0:
243,123,149041,1,0,0:0:0:0:
243,123,149271,1,8,0:0:0:0:
243,123,149733,1,0,0:0:0:0:
255,150,150195,1,8,0:0:0:0:
255,150,150541,1,8,0:0:0:0:
241,153,150771,1,0,0:0:0:0:
240,148,150887,1,0,0:0:0:0:
240,148,151118,1,8,0:0:0:0:
242,147,151579,1,0,0:0:0:0:
219,117,151695,1,0,0:0:0:0:
100,152,151810,1,0,0:0:0:0:
212,128,152041,1,8,0:0:0:0:
213,115,152387,1,0,0:0:0:0:
224,105,152618,1,8,0:0:0:0:
213,159,152733,1,8,0:0:0:0:
243,123,152964,1,8,0:0:0:0:
243,123,153079,1,8,0:0:0:0:
243,123,153195,1,8,0:0:0:0:
243,123,153425,1,4,0:0:0:0:
242,115,154233,1,0,0:0:0:0:
212,128,154464,1,0,0:0:0:0:
243,123,154579,1,0,0:0:0:0:
243,123,154810,1,8,0:0:0:0:
212,128,155041,1,8,0:0:0:0:
212,128,155271,1,0,0:0:0:0:
344,156,155733,1,8,0:0:0:0:
213,115,156079,1,0,0:0:0:0:
243,123,156425,1,0,0:0:0:0:
243,123,156656,1,8,0:0:0:0:
243,123,156748,1,8,0:0:0:0:
243,123,156841,1,8,0:0:0:0:
243,123,157118,1,0,0:0:0:0:
255,150,157579,1,8,0:0:0:0:
255,150,157925,1,0,0:0:0:0:
216,153,158156,1,0,0:0:0:0:
240,148,158271,1,0,0:0:0:0:
239,149,158502,1,8,0:0:0:0:
168,60,158964,1,0,0:0:0:0:
222,138,159079,1,0,0:0:0:0:
217,119,159195,1,0,0:0:0:0:
360,164,159425,1,8,0:0:0:0:
213,115,159771,1,8,0:0:0:0:
224,105,160002,1,0,0:0:0:0:
221,114,160118,1,0,0:0:0:0:
221,114,160348,1,8,0:0:0:0:
221,114,160464,1,8,0:0:0:0:
221,114,160579,1,8,0:0:0:0:
243,123,160810,1,4,0:0:0:0:
242,115,161618,1,0,0:0:0:0:
213,159,161848,1,0,0:0:0:0:
243,123,161964,1,0,0:0:0:0:
243,123,162195,1,8,0:0:0:0:
212,128,162425,1,8,0:0:0:0:
212,128,162656,1,0,0:0:0:0:
218,125,163118,1,8,0:0:0:0:
213,115,163464,1,8,0:0:0:0:
218,126,163695,1,0,0:0:0:0:
243,123,163810,1,0,0:0:0:0:
243,123,164041,1,8,0:0:0:0:
243,123,164502,1,0,0:0:0:0:
255,150,164964,1,8,0:0:0:0:
255,150,165310,1,8,0:0:0:0:
241,153,165541,1,0,0:0:0:0:
240,148,165656,1,0,0:0:0:0:
240,148,165887,1,8,0:0:0:0:
242,147,166348,1,0,0:0:0:0:
219,117,166464,1,0,0:0:0:0:
100,152,166579,1,0,0:0:0:0:
212,128,166810,1,8,0:0:0:0:
223,121,167041,1,0,0:0:0:0:
213,159,167271,1,8,0:0:0:0:
212,143,167502,1,0,0:0:0:0:
212,144,167733,1,8,0:0:0:0:
214,145,167848,1,8,0:0:0:0:
214,145,167964,1,8,0:0:0:0:
