osu file format v14

[General]
AudioFilename: audio.mp3
AudioLeadIn: 0
PreviewTime: 20910
Countdown: 0
SampleSet: Normal
StackLeniency: 1
Mode: 1
LetterboxInBreaks: 0
WidescreenStoryboard: 1

[Editor]
DistanceSpacing: 1.2
BeatDivisor: 2
GridSize: 32
TimelineZoom: 0.7999998

[Metadata]
Title:Nonspeed
TitleUnicode:Nonspeed
Artist:pm04034
ArtistUnicode:pm04034
Creator:Axer
Version:kantan
Source:
Tags:piano electronic instrumental funk rock
BeatmapID:2603856
BeatmapSetID:1134649

[Difficulty]
HPDrainRate:8
CircleSize:2
OverallDifficulty:2
ApproachRate:10
SliderMultiplier:1.4
SliderTickRate:1

[Events]
//Background and Video events
0,0,"pianitox.jpg",0,-50
//Break Periods
2,46765,52515
//Storyboard Layer 0 (Background)
//Storyboard Layer 1 (Fail)
//Storyboard Layer 2 (Pass)
//Storyboard Layer 3 (Foreground)
//Storyboard Layer 4 (Overlay)
//Storyboard Sound Samples

[TimingPoints]
165,400,4,1,0,66,1,0
165,-111.111111111111,4,1,0,66,0,0
3365,-111.111111111111,4,1,0,66,0,0
4965,-111.111111111111,4,1,0,66,0,0
5765,-111.111111111111,4,1,0,66,0,0
20965,-111.111111111111,4,1,0,88,0,1
33765,-111.111111111111,4,1,0,88,0,0
34165,-111.111111111111,4,1,0,88,0,1
46565,-111.111111111111,4,1,0,88,0,0
46665,-111.111111111111,4,1,0,66,0,0
52965,-111.111111111111,4,1,0,66,0,0
54565,-111.111111111111,4,1,0,66,0,0
54665,-111.111111111111,4,1,0,66,0,0
54865,-111.111111111111,4,1,0,66,0,0
55065,-111.111111111111,4,1,0,66,0,0
55365,-111.111111111111,4,1,0,66,0,0
55465,-111.111111111111,4,1,0,66,0,0
55565,-111.111111111111,4,1,0,66,0,0
55665,-111.111111111111,4,1,0,66,0,0
55765,-111.111111111111,4,1,0,66,0,0
55865,-111.111111111111,4,1,0,66,0,0
55965,-111.111111111111,4,1,0,66,0,0
56065,-111.111111111111,4,1,0,66,0,0
56165,-111.111111111111,4,1,0,66,0,0
57765,-111.111111111111,4,1,0,88,0,1
70565,-111.111111111111,4,1,0,88,0,0
70965,-111.111111111111,4,1,0,88,0,1
82565,-111.111111111111,4,1,0,88,0,1
82765,-111.111111111111,4,1,0,88,0,1
82965,-111.111111111111,4,1,0,88,0,1
83031,-111.111111111111,4,1,0,88,0,1
83098,-111.111111111111,4,1,0,88,0,1
83165,-111.111111111111,4,1,0,88,0,1
83231,-111.111111111111,4,1,0,88,0,1
83298,-111.111111111111,4,1,0,88,0,1
83365,600,4,1,0,66,1,0
83365,-74.0740740740741,4,1,0,66,0,0
83515,-71.4285714285714,4,1,0,33,0,0

[HitObjects]
256,192,165,5,0,0:0:0:0:
256,192,1765,1,0,0:0:0:0:
256,192,2565,1,0,0:0:0:0:
256,192,2965,1,0,0:0:0:0:
256,192,3365,1,8,0:0:0:0:
256,192,4965,1,8,0:0:0:0:
256,192,5765,1,0,0:0:0:0:
256,192,6565,1,0,0:0:0:0:
256,192,7165,1,0,0:0:0:0:
256,192,7765,1,0,0:0:0:0:
256,192,8165,1,12,0:0:0:0:
256,192,9365,1,0,0:0:0:0:
256,192,9765,1,0,0:0:0:0:
256,192,10565,1,8,0:0:0:0:
256,192,10965,1,0,0:0:0:0:
256,192,11365,1,8,0:0:0:0:
256,192,12565,1,0,0:0:0:0:
256,192,12965,1,0,0:0:0:0:
256,192,13765,1,8,0:0:0:0:
256,192,14565,1,8,0:0:0:0:
256,192,15365,1,0,0:0:0:0:
256,192,16165,1,0,0:0:0:0:
256,192,16565,1,8,0:0:0:0:
256,192,17365,1,8,0:0:0:0:
256,192,17765,1,0,0:0:0:0:
256,192,18565,1,0,0:0:0:0:
256,192,19365,1,0,0:0:0:0:
256,192,20965,1,12,0:0:0:0:
256,192,21565,1,8,0:0:0:0:
256,192,22165,1,8,0:0:0:0:
256,192,22565,1,0,0:0:0:0:
256,192,22965,1,0,0:0:0:0:
256,192,23365,1,8,0:0:0:0:
256,192,24165,1,8,0:0:0:0:
256,192,24765,1,0,0:0:0:0:
256,192,25365,1,8,0:0:0:0:
256,192,25765,1,8,0:0:0:0:
256,192,26965,1,0,0:0:0:0:
256,192,27365,1,8,0:0:0:0:
256,192,28165,1,0,0:0:0:0:
256,192,28565,1,8,0:0:0:0:
256,192,28965,1,0,0:0:0:0:
256,192,29765,1,8,0:0:0:0:
256,192,30165,1,8,0:0:0:0:
256,192,30565,1,0,0:0:0:0:
256,192,31365,1,8,0:0:0:0:
256,192,32165,1,0,0:0:0:0:
256,192,32565,1,0,0:0:0:0:
256,192,32965,1,8,0:0:0:0:
256,192,34165,1,12,0:0:0:0:
256,192,34965,1,8,0:0:0:0:
256,192,35365,1,0,0:0:0:0:
256,192,35765,1,0,0:0:0:0:
256,192,36165,1,8,0:0:0:0:
256,192,36965,1,8,0:0:0:0:
256,192,37565,1,0,0:0:0:0:
256,192,38165,1,8,0:0:0:0:
256,192,38565,1,8,0:0:0:0:
256,192,39765,1,0,0:0:0:0:
256,192,40165,1,8,0:0:0:0:
256,192,40965,1,0,0:0:0:0:
256,192,41365,1,8,0:0:0:0:
256,192,41765,1,0,0:0:0:0:
256,192,42565,1,8,0:0:0:0:
256,192,42965,1,8,0:0:0:0:
256,192,43365,1,0,0:0:0:0:
256,192,44165,1,8,0:0:0:0:
256,192,44965,1,0,0:0:0:0:
256,192,45365,1,0,0:0:0:0:
256,192,45765,1,8,0:0:0:0:
256,192,46165,1,0,0:0:0:0:
256,192,46565,1,12,0:0:0:0:
256,192,52965,5,8,0:0:0:0:
256,192,53765,1,8,0:0:0:0:
256,192,54565,1,8,0:0:0:0:
256,192,55365,1,8,0:0:0:0:
256,192,55765,1,8,0:0:0:0:
256,192,56165,1,0,0:0:0:0:
256,192,56565,1,0,0:0:0:0:
256,192,56965,1,8,0:0:0:0:
256,192,57765,1,12,0:0:0:0:
256,192,58365,1,8,0:0:0:0:
256,192,58965,1,8,0:0:0:0:
256,192,59365,1,0,0:0:0:0:
256,192,59765,1,0,0:0:0:0:
256,192,60165,1,8,0:0:0:0:
256,192,60965,1,8,0:0:0:0:
256,192,61565,1,0,0:0:0:0:
256,192,62165,1,8,0:0:0:0:
256,192,62565,1,8,0:0:0:0:
256,192,63765,1,0,0:0:0:0:
256,192,64165,1,8,0:0:0:0:
256,192,64965,1,0,0:0:0:0:
256,192,65365,1,8,0:0:0:0:
256,192,65765,1,0,0:0:0:0:
256,192,66565,1,8,0:0:0:0:
256,192,66965,1,8,0:0:0:0:
256,192,67365,1,0,0:0:0:0:
256,192,68165,1,8,0:0:0:0:
256,192,68965,1,0,0:0:0:0:
256,192,69365,1,0,0:0:0:0:
256,192,69765,1,8,0:0:0:0:
256,192,70965,1,12,0:0:0:0:
256,192,71765,1,8,0:0:0:0:
256,192,72165,1,0,0:0:0:0:
256,192,72565,1,0,0:0:0:0:
256,192,72965,1,8,0:0:0:0:
256,192,73765,1,8,0:0:0:0:
256,192,74365,1,0,0:0:0:0:
256,192,74965,1,8,0:0:0:0:
256,192,75365,1,8,0:0:0:0:
256,192,76565,1,0,0:0:0:0:
256,192,76965,1,8,0:0:0:0:
256,192,77765,1,0,0:0:0:0:
256,192,78165,1,8,0:0:0:0:
256,192,78565,1,0,0:0:0:0:
256,192,79365,1,8,0:0:0:0:
256,192,79765,1,8,0:0:0:0:
256,192,80165,1,0,0:0:0:0:
256,192,80965,1,8,0:0:0:0:
256,192,81765,1,0,0:0:0:0:
256,192,82165,1,0,0:0:0:0:
256,192,82565,1,8,0:0:0:0:
256,192,82965,1,0,0:0:0:0:
256,192,83365,1,12,0:0:0:0:
256,192,84265,1,0,0:0:0:0:
256,192,85165,1,8,0:0:0:0:
256,192,85765,1,8,0:0:0:0:
256,192,86965,1,0,0:0:0:0:
256,192,87565,1,8,0:0:0:0:
256,192,88165,1,8,0:0:0:0:
256,192,89365,1,8,0:0:0:0:
256,192,89965,1,0,0:0:0:0:
256,192,90565,1,8,0:0:0:0:
256,192,91765,1,8,0:0:0:0:
256,192,92365,1,0,0:0:0:0:
256,192,92965,1,8,0:0:0:0:
256,192,93415,1,8,0:0:0:0:
256,192,93865,1,8,0:0:0:0:
256,192,95365,1,8,0:0:0:0:
256,192,95815,1,8,0:0:0:0:
256,192,96265,1,8,0:0:0:0:
256,192,97765,1,0,0:0:0:0:
256,192,98365,1,8,0:0:0:0:
256,192,98965,1,8,0:0:0:0:
256,192,99565,1,8,0:0:0:0:
256,192,99865,1,8,0:0:0:0:
256,192,100165,1,8,0:0:0:0:
256,192,101365,1,8,0:0:0:0:
256,192,101815,1,8,0:0:0:0:
256,192,102265,1,8,0:0:0:0:
256,192,102565,1,0,0:0:0:0:
256,192,102715,8,0,106165,0:0:0:0:
