osu file format v14

[General]
AudioFilename: audio.mp3
AudioLeadIn: 0
PreviewTime: 20910
Countdown: 0
SampleSet: Normal
StackLeniency: 1
Mode: 1
LetterboxInBreaks: 0
WidescreenStoryboard: 1

[Editor]
DistanceSpacing: 1.2
BeatDivisor: 8
GridSize: 32
TimelineZoom: 1.9

[Metadata]
Title:Nonspeed
TitleUnicode:Nonspeed
Artist:pm04034
ArtistUnicode:pm04034
Creator:Axer
Version:inner oni
Source:
Tags:piano electronic instrumental funk rock
BeatmapID:2387792
BeatmapSetID:1134649

[Difficulty]
HPDrainRate:6
CircleSize:2
OverallDifficulty:5.5
ApproachRate:10
SliderMultiplier:1.4
SliderTickRate:1

[Events]
//Background and Video events
0,0,"pianitox.jpg",0,-50
//Break Periods
//Storyboard Layer 0 (Background)
//Storyboard Layer 1 (Fail)
//Storyboard Layer 2 (Pass)
//Storyboard Layer 3 (Foreground)
//Storyboard Layer 4 (Overlay)
//Storyboard Sound Samples

[TimingPoints]
165,400,4,1,0,66,1,0
165,-100,4,1,0,66,0,0
3365,-90.9090909090909,4,1,0,66,0,0
4965,-86.9565217391304,4,1,0,66,0,0
5765,-80,4,1,0,66,0,0
20965,-75.187969924812,4,1,0,88,0,1
33765,-75.187969924812,4,1,0,88,0,0
34165,-75.187969924812,4,1,0,88,0,1
46565,-75.187969924812,4,1,0,88,0,0
46665,-100,4,1,0,66,0,0
52965,-90.9090909090909,4,1,0,66,0,0
54565,-90.9090909090909,4,1,0,66,0,0
54665,-90.1408450704225,4,1,0,66,0,0
54865,-88.6426592797784,4,1,0,66,0,0
55065,-87.1934604904632,4,1,0,66,0,0
55365,-85.1063829787234,4,1,0,66,0,0
55465,-84.4327176781003,4,1,0,66,0,0
55565,-83.7696335078534,4,1,0,66,0,0
55665,-83.1168831168831,4,1,0,66,0,0
55765,-82.4742268041237,4,1,0,66,0,0
55865,-81.8414322250639,4,1,0,66,0,0
55965,-81.2182741116751,4,1,0,66,0,0
56065,-80.6045340050378,4,1,0,66,0,0
56165,-80,4,1,0,66,0,0
57765,-75.187969924812,4,1,0,88,0,1
70565,-75.187969924812,4,1,0,88,0,0
70965,-75.187969924812,4,1,0,88,0,1
82565,-75.187969924812,4,1,0,88,0,1
82765,-80.1056754069969,4,1,0,88,0,1
82965,-85.711763339536,4,1,0,88,0,1
83031,-87.7589437333532,4,1,0,88,0,1
83098,-89.9063894672867,4,1,0,88,0,1
83165,-92.1614816617084,4,1,0,88,0,1
83231,-94.5327012246711,4,1,0,88,0,1
83298,-97.0290669976005,4,1,0,88,0,1
83365,600,4,1,0,66,1,0
83365,-66.6666666666667,4,1,0,66,0,0
83515,-66.6666666666667,4,1,0,33,0,0

[HitObjects]
256,192,165,5,0,0:0:0:0:
256,192,265,1,0,0:0:0:0:
256,192,465,1,0,0:0:0:0:
256,192,565,1,0,0:0:0:0:
256,192,665,1,0,0:0:0:0:
256,192,965,1,0,0:0:0:0:
256,192,1065,1,0,0:0:0:0:
256,192,1265,1,0,0:0:0:0:
256,192,1365,1,0,0:0:0:0:
256,192,1465,1,0,0:0:0:0:
256,192,1765,1,0,0:0:0:0:
256,192,1865,1,0,0:0:0:0:
256,192,2065,1,0,0:0:0:0:
256,192,2165,1,0,0:0:0:0:
256,192,2265,1,0,0:0:0:0:
256,192,2565,1,8,0:0:0:0:
256,192,2665,1,0,0:0:0:0:
256,192,2765,1,0,0:0:0:0:
256,192,2865,1,8,0:0:0:0:
256,192,2965,1,0,0:0:0:0:
256,192,3065,1,0,0:0:0:0:
256,192,3165,1,8,0:0:0:0:
256,192,3365,1,8,0:0:0:0:
256,192,3465,1,8,0:0:0:0:
256,192,3665,1,8,0:0:0:0:
256,192,3765,1,8,0:0:0:0:
256,192,3865,1,8,0:0:0:0:
256,192,4165,1,8,0:0:0:0:
256,192,4265,1,8,0:0:0:0:
256,192,4465,1,8,0:0:0:0:
256,192,4565,1,8,0:0:0:0:
256,192,4665,1,8,0:0:0:0:
256,192,4965,1,8,0:0:0:0:
256,192,5065,1,8,0:0:0:0:
256,192,5265,1,8,0:0:0:0:
256,192,5365,1,8,0:0:0:0:
256,192,5465,1,8,0:0:0:0:
256,192,5765,1,8,0:0:0:0:
256,192,5865,1,0,0:0:0:0:
256,192,5965,1,8,0:0:0:0:
256,192,6065,1,8,0:0:0:0:
256,192,6165,1,0,0:0:0:0:
256,192,6265,1,8,0:0:0:0:
256,192,6365,1,0,0:0:0:0:
256,192,6465,1,0,0:0:0:0:
256,192,6565,1,8,0:0:0:0:
256,192,6765,1,0,0:0:0:0:
256,192,6865,1,8,0:0:0:0:
256,192,6965,1,0,0:0:0:0:
256,192,7065,1,0,0:0:0:0:
256,192,7165,1,8,0:0:0:0:
256,192,7365,1,0,0:0:0:0:
256,192,7465,1,0,0:0:0:0:
256,192,7565,1,8,0:0:0:0:
256,192,7665,1,8,0:0:0:0:
256,192,7765,1,0,0:0:0:0:
256,192,7865,1,8,0:0:0:0:
256,192,7965,1,0,0:0:0:0:
256,192,8165,1,12,0:0:0:0:
256,192,8365,1,0,0:0:0:0:
256,192,8465,1,0,0:0:0:0:
256,192,8565,1,8,0:0:0:0:
256,192,8665,1,0,0:0:0:0:
256,192,8765,1,8,0:0:0:0:
256,192,8965,1,8,0:0:0:0:
256,192,9065,1,0,0:0:0:0:
256,192,9165,1,0,0:0:0:0:
256,192,9265,1,8,0:0:0:0:
256,192,9465,1,0,0:0:0:0:
256,192,9565,1,8,0:0:0:0:
256,192,9665,1,8,0:0:0:0:
256,192,9765,1,0,0:0:0:0:
256,192,9965,1,8,0:0:0:0:
256,192,10065,1,0,0:0:0:0:
256,192,10265,1,0,0:0:0:0:
256,192,10365,1,0,0:0:0:0:
256,192,10565,1,8,0:0:0:0:
256,192,10665,1,0,0:0:0:0:
256,192,10865,1,0,0:0:0:0:
256,192,11065,1,0,0:0:0:0:
256,192,11165,1,0,0:0:0:0:
256,192,11265,1,0,0:0:0:0:
256,192,11365,1,8,0:0:0:0:
256,192,11565,1,0,0:0:0:0:
256,192,11665,1,0,0:0:0:0:
256,192,11765,1,8,0:0:0:0:
256,192,11865,1,0,0:0:0:0:
256,192,11965,1,8,0:0:0:0:
256,192,12065,1,0,0:0:0:0:
256,192,12265,1,0,0:0:0:0:
256,192,12365,1,8,0:0:0:0:
256,192,12465,1,8,0:0:0:0:
256,192,12565,1,0,0:0:0:0:
256,192,12665,1,8,0:0:0:0:
256,192,12765,1,0,0:0:0:0:
256,192,12965,1,8,0:0:0:0:
256,192,13065,1,8,0:0:0:0:
256,192,13165,1,8,0:0:0:0:
256,192,13265,1,0,0:0:0:0:
256,192,13465,1,0,0:0:0:0:
256,192,13565,1,8,0:0:0:0:
256,192,13665,1,0,0:0:0:0:
256,192,13765,1,8,0:0:0:0:
256,192,13965,1,0,0:0:0:0:
256,192,14165,1,0,0:0:0:0:
256,192,14365,1,0,0:0:0:0:
256,192,14565,1,8,0:0:0:0:
256,192,14965,1,0,0:0:0:0:
256,192,15065,1,8,0:0:0:0:
256,192,15265,1,0,0:0:0:0:
256,192,15365,1,8,0:0:0:0:
256,192,15465,1,0,0:0:0:0:
256,192,15565,1,8,0:0:0:0:
256,192,15665,1,0,0:0:0:0:
256,192,15865,1,0,0:0:0:0:
256,192,15965,1,8,0:0:0:0:
256,192,16065,1,0,0:0:0:0:
256,192,16165,1,8,0:0:0:0:
256,192,16265,1,0,0:0:0:0:
256,192,16365,1,0,0:0:0:0:
256,192,16465,1,8,0:0:0:0:
256,192,16665,1,0,0:0:0:0:
256,192,16765,1,8,0:0:0:0:
256,192,16965,1,0,0:0:0:0:
256,192,17065,1,8,0:0:0:0:
256,192,17265,1,8,0:0:0:0:
256,192,17365,1,0,0:0:0:0:
256,192,17565,1,0,0:0:0:0:
256,192,17765,1,0,0:0:0:0:
256,192,17865,1,8,0:0:0:0:
256,192,17965,1,0,0:0:0:0:
256,192,18065,1,8,0:0:0:0:
256,192,18165,1,0,0:0:0:0:
256,192,18365,1,8,0:0:0:0:
256,192,18465,1,0,0:0:0:0:
256,192,18565,1,8,0:0:0:0:
256,192,18665,1,0,0:0:0:0:
256,192,18765,1,8,0:0:0:0:
256,192,18965,1,0,0:0:0:0:
256,192,19065,1,0,0:0:0:0:
256,192,19165,1,8,0:0:0:0:
256,192,19265,1,0,0:0:0:0:
256,192,19365,1,8,0:0:0:0:
256,192,19565,1,0,0:0:0:0:
256,192,19665,1,0,0:0:0:0:
256,192,19765,1,8,0:0:0:0:
256,192,19865,1,8,0:0:0:0:
256,192,20065,1,8,0:0:0:0:
256,192,20365,1,8,0:0:0:0:
256,192,20565,1,0,0:0:0:0:
256,192,20665,1,0,0:0:0:0:
256,192,20765,1,8,0:0:0:0:
256,192,20965,1,12,0:0:0:0:
256,192,21165,1,0,0:0:0:0:
256,192,21265,1,8,0:0:0:0:
256,192,21465,1,0,0:0:0:0:
256,192,21565,1,8,0:0:0:0:
256,192,21765,1,0,0:0:0:0:
256,192,21865,1,8,0:0:0:0:
256,192,22065,1,0,0:0:0:0:
256,192,22165,1,8,0:0:0:0:
256,192,22265,1,0,0:0:0:0:
256,192,22365,1,8,0:0:0:0:
256,192,22465,1,8,0:0:0:0:
256,192,22565,1,0,0:0:0:0:
256,192,22665,1,0,0:0:0:0:
256,192,22765,1,0,0:0:0:0:
256,192,22865,1,8,0:0:0:0:
256,192,23065,1,0,0:0:0:0:
256,192,23165,1,8,0:0:0:0:
256,192,23265,1,0,0:0:0:0:
256,192,23365,1,8,0:0:0:0:
256,192,23498,1,0,0:0:0:0:
256,192,23565,1,0,0:0:0:0:
256,192,23631,1,0,0:0:0:0:
256,192,23765,1,8,0:0:0:0:
256,192,23898,1,0,0:0:0:0:
256,192,24031,1,0,0:0:0:0:
256,192,24165,1,8,0:0:0:0:
256,192,24365,1,8,0:0:0:0:
256,192,24465,1,8,0:0:0:0:
256,192,24665,1,8,0:0:0:0:
256,192,24765,1,8,0:0:0:0:
256,192,24965,1,8,0:0:0:0:
256,192,25065,1,0,0:0:0:0:
256,192,25165,1,0,0:0:0:0:
256,192,25265,1,8,0:0:0:0:
256,192,25365,1,0,0:0:0:0:
256,192,25465,1,0,0:0:0:0:
256,192,25565,1,8,0:0:0:0:
256,192,25765,1,8,0:0:0:0:
256,192,25965,1,8,0:0:0:0:
256,192,26065,1,8,0:0:0:0:
256,192,26265,1,8,0:0:0:0:
256,192,26365,1,8,0:0:0:0:
256,192,26565,1,8,0:0:0:0:
256,192,26665,1,0,0:0:0:0:
256,192,26765,1,0,0:0:0:0:
256,192,26865,1,0,0:0:0:0:
256,192,26965,1,8,0:0:0:0:
256,192,27065,1,8,0:0:0:0:
256,192,27165,1,0,0:0:0:0:
256,192,27265,1,0,0:0:0:0:
256,192,27365,1,8,0:0:0:0:
256,192,27565,1,0,0:0:0:0:
256,192,27665,1,8,0:0:0:0:
256,192,27865,1,0,0:0:0:0:
256,192,27965,1,8,0:0:0:0:
256,192,28065,1,8,0:0:0:0:
256,192,28165,1,0,0:0:0:0:
256,192,28365,1,0,0:0:0:0:
256,192,28565,1,8,0:0:0:0:
256,192,28665,1,0,0:0:0:0:
256,192,28765,1,8,0:0:0:0:
256,192,28965,1,0,0:0:0:0:
256,192,29165,1,8,0:0:0:0:
256,192,29265,1,0,0:0:0:0:
256,192,29465,1,8,0:0:0:0:
256,192,29565,1,0,0:0:0:0:
256,192,29765,1,8,0:0:0:0:
256,192,29865,1,0,0:0:0:0:
256,192,30065,1,0,0:0:0:0:
256,192,30165,1,8,0:0:0:0:
256,192,30265,1,0,0:0:0:0:
256,192,30365,1,8,0:0:0:0:
256,192,30465,1,8,0:0:0:0:
256,192,30565,1,0,0:0:0:0:
256,192,30765,1,0,0:0:0:0:
256,192,30865,1,0,0:0:0:0:
256,192,30965,1,8,0:0:0:0:
256,192,31065,1,0,0:0:0:0:
256,192,31165,1,8,0:0:0:0:
256,192,31365,1,8,0:0:0:0:
256,192,31465,1,0,0:0:0:0:
256,192,31665,1,0,0:0:0:0:
256,192,31765,1,8,0:0:0:0:
256,192,31865,1,0,0:0:0:0:
256,192,31965,1,8,0:0:0:0:
256,192,32165,1,0,0:0:0:0:
256,192,32265,1,8,0:0:0:0:
256,192,32365,1,8,0:0:0:0:
256,192,32465,1,0,0:0:0:0:
256,192,32665,1,0,0:0:0:0:
256,192,32765,1,8,0:0:0:0:
256,192,32865,1,0,0:0:0:0:
256,192,32965,1,8,0:0:0:0:
256,192,33165,1,0,0:0:0:0:
256,192,33265,1,8,0:0:0:0:
256,192,33465,1,0,0:0:0:0:
256,192,33565,1,8,0:0:0:0:
256,192,33765,1,0,0:0:0:0:
256,192,34165,1,4,0:0:0:0:
256,192,34365,1,8,0:0:0:0:
256,192,34565,1,0,0:0:0:0:
256,192,34665,1,8,0:0:0:0:
256,192,34865,1,0,0:0:0:0:
256,192,34965,1,8,0:0:0:0:
256,192,35065,1,0,0:0:0:0:
256,192,35165,1,8,0:0:0:0:
256,192,35265,1,8,0:0:0:0:
256,192,35365,1,0,0:0:0:0:
256,192,35465,1,0,0:0:0:0:
256,192,35565,1,0,0:0:0:0:
256,192,35665,1,8,0:0:0:0:
256,192,35865,1,0,0:0:0:0:
256,192,35965,1,8,0:0:0:0:
256,192,36065,1,0,0:0:0:0:
256,192,36165,1,8,0:0:0:0:
256,192,36298,1,0,0:0:0:0:
256,192,36365,1,0,0:0:0:0:
256,192,36431,1,0,0:0:0:0:
256,192,36565,1,8,0:0:0:0:
256,192,36698,1,0,0:0:0:0:
256,192,36831,1,0,0:0:0:0:
256,192,36965,1,8,0:0:0:0:
256,192,37165,1,8,0:0:0:0:
256,192,37265,1,8,0:0:0:0:
256,192,37465,1,8,0:0:0:0:
256,192,37565,1,8,0:0:0:0:
256,192,37765,1,8,0:0:0:0:
256,192,37865,1,0,0:0:0:0:
256,192,37965,1,0,0:0:0:0:
256,192,38065,1,8,0:0:0:0:
256,192,38165,1,0,0:0:0:0:
256,192,38265,1,0,0:0:0:0:
256,192,38365,1,8,0:0:0:0:
256,192,38565,1,8,0:0:0:0:
256,192,38765,1,8,0:0:0:0:
256,192,38865,1,8,0:0:0:0:
256,192,39065,1,8,0:0:0:0:
256,192,39165,1,8,0:0:0:0:
256,192,39365,1,8,0:0:0:0:
256,192,39465,1,0,0:0:0:0:
256,192,39565,1,0,0:0:0:0:
256,192,39665,1,8,0:0:0:0:
256,192,39765,1,8,0:0:0:0:
256,192,39865,1,0,0:0:0:0:
256,192,39965,1,8,0:0:0:0:
256,192,40065,1,0,0:0:0:0:
256,192,40165,1,8,0:0:0:0:
256,192,40365,1,0,0:0:0:0:
256,192,40465,1,8,0:0:0:0:
256,192,40665,1,0,0:0:0:0:
256,192,40765,1,8,0:0:0:0:
256,192,40865,1,8,0:0:0:0:
256,192,40965,1,0,0:0:0:0:
256,192,41165,1,0,0:0:0:0:
256,192,41365,1,8,0:0:0:0:
256,192,41465,1,0,0:0:0:0:
256,192,41565,1,8,0:0:0:0:
256,192,41765,1,0,0:0:0:0:
256,192,41965,1,8,0:0:0:0:
256,192,42065,1,0,0:0:0:0:
256,192,42265,1,8,0:0:0:0:
256,192,42365,1,0,0:0:0:0:
256,192,42565,1,8,0:0:0:0:
256,192,42665,1,0,0:0:0:0:
256,192,42865,1,0,0:0:0:0:
256,192,42965,1,8,0:0:0:0:
256,192,43065,1,0,0:0:0:0:
256,192,43165,1,8,0:0:0:0:
256,192,43265,1,8,0:0:0:0:
256,192,43365,1,0,0:0:0:0:
256,192,43565,1,0,0:0:0:0:
256,192,43665,1,0,0:0:0:0:
256,192,43765,1,8,0:0:0:0:
256,192,43865,1,0,0:0:0:0:
256,192,43965,1,8,0:0:0:0:
256,192,44165,1,8,0:0:0:0:
256,192,44265,1,0,0:0:0:0:
256,192,44465,1,0,0:0:0:0:
256,192,44565,1,8,0:0:0:0:
256,192,44665,1,0,0:0:0:0:
256,192,44765,1,8,0:0:0:0:
256,192,44965,1,0,0:0:0:0:
256,192,45065,1,8,0:0:0:0:
256,192,45165,1,8,0:0:0:0:
256,192,45265,1,0,0:0:0:0:
256,192,45465,1,8,0:0:0:0:
256,192,45565,1,0,0:0:0:0:
256,192,45665,1,0,0:0:0:0:
256,192,45765,1,8,0:0:0:0:
256,192,45965,1,0,0:0:0:0:
256,192,46065,1,8,0:0:0:0:
256,192,46265,1,0,0:0:0:0:
256,192,46365,1,8,0:0:0:0:
256,192,46565,1,12,0:0:0:0:
256,192,47365,1,0,0:0:0:0:
256,192,48165,1,0,0:0:0:0:
256,192,48965,1,0,0:0:0:0:
256,192,49765,1,0,0:0:0:0:
256,192,50565,1,0,0:0:0:0:
256,192,51365,1,0,0:0:0:0:
256,192,52165,1,0,0:0:0:0:
256,192,52965,1,8,0:0:0:0:
256,192,53065,1,8,0:0:0:0:
256,192,53265,1,8,0:0:0:0:
256,192,53465,1,8,0:0:0:0:
256,192,53765,1,8,0:0:0:0:
256,192,53865,1,8,0:0:0:0:
256,192,54065,1,8,0:0:0:0:
256,192,54265,1,8,0:0:0:0:
256,192,54565,1,8,0:0:0:0:
256,192,54665,1,8,0:0:0:0:
256,192,54865,1,8,0:0:0:0:
256,192,55065,1,8,0:0:0:0:
256,192,55365,1,8,0:0:0:0:
256,192,55465,1,0,0:0:0:0:
256,192,55565,1,0,0:0:0:0:
256,192,55665,1,8,0:0:0:0:
256,192,55765,1,0,0:0:0:0:
256,192,55865,1,0,0:0:0:0:
256,192,55965,1,8,0:0:0:0:
256,192,56165,1,0,0:0:0:0:
256,192,56565,1,0,0:0:0:0:
256,192,56665,1,0,0:0:0:0:
256,192,56865,1,8,0:0:0:0:
256,192,57065,1,0,0:0:0:0:
256,192,57165,1,8,0:0:0:0:
256,192,57365,1,0,0:0:0:0:
256,192,57465,1,0,0:0:0:0:
256,192,57565,1,8,0:0:0:0:
256,192,57765,1,12,0:0:0:0:
256,192,57965,1,0,0:0:0:0:
256,192,58065,1,8,0:0:0:0:
256,192,58265,1,0,0:0:0:0:
256,192,58365,1,8,0:0:0:0:
256,192,58565,1,0,0:0:0:0:
256,192,58665,1,8,0:0:0:0:
256,192,58865,1,0,0:0:0:0:
256,192,58965,1,8,0:0:0:0:
256,192,59065,1,0,0:0:0:0:
256,192,59165,1,8,0:0:0:0:
256,192,59265,1,8,0:0:0:0:
256,192,59365,1,0,0:0:0:0:
256,192,59465,1,0,0:0:0:0:
256,192,59565,1,0,0:0:0:0:
256,192,59665,1,8,0:0:0:0:
256,192,59865,1,0,0:0:0:0:
256,192,59965,1,8,0:0:0:0:
256,192,60065,1,0,0:0:0:0:
256,192,60165,1,8,0:0:0:0:
256,192,60298,1,0,0:0:0:0:
256,192,60365,1,0,0:0:0:0:
256,192,60431,1,0,0:0:0:0:
256,192,60565,1,8,0:0:0:0:
256,192,60698,1,0,0:0:0:0:
256,192,60831,1,0,0:0:0:0:
256,192,60965,1,8,0:0:0:0:
256,192,61165,1,8,0:0:0:0:
256,192,61265,1,8,0:0:0:0:
256,192,61465,1,8,0:0:0:0:
256,192,61565,1,8,0:0:0:0:
256,192,61765,1,8,0:0:0:0:
256,192,61865,1,0,0:0:0:0:
256,192,61965,1,0,0:0:0:0:
256,192,62065,1,8,0:0:0:0:
256,192,62165,1,0,0:0:0:0:
256,192,62265,1,0,0:0:0:0:
256,192,62365,1,8,0:0:0:0:
256,192,62565,1,8,0:0:0:0:
256,192,62765,1,8,0:0:0:0:
256,192,62865,1,8,0:0:0:0:
256,192,63065,1,8,0:0:0:0:
256,192,63165,1,8,0:0:0:0:
256,192,63365,1,8,0:0:0:0:
256,192,63465,1,0,0:0:0:0:
256,192,63565,1,0,0:0:0:0:
256,192,63665,1,0,0:0:0:0:
256,192,63765,1,8,0:0:0:0:
256,192,63865,1,8,0:0:0:0:
256,192,63965,1,0,0:0:0:0:
256,192,64065,1,0,0:0:0:0:
256,192,64165,1,8,0:0:0:0:
256,192,64365,1,0,0:0:0:0:
256,192,64465,1,8,0:0:0:0:
256,192,64665,1,0,0:0:0:0:
256,192,64765,1,8,0:0:0:0:
256,192,64865,1,8,0:0:0:0:
256,192,64965,1,0,0:0:0:0:
256,192,65165,1,0,0:0:0:0:
256,192,65365,1,8,0:0:0:0:
256,192,65465,1,0,0:0:0:0:
256,192,65565,1,8,0:0:0:0:
256,192,65765,1,0,0:0:0:0:
256,192,65965,1,8,0:0:0:0:
256,192,66065,1,0,0:0:0:0:
256,192,66265,1,8,0:0:0:0:
256,192,66365,1,0,0:0:0:0:
256,192,66565,1,8,0:0:0:0:
256,192,66665,1,0,0:0:0:0:
256,192,66865,1,0,0:0:0:0:
256,192,66965,1,8,0:0:0:0:
256,192,67065,1,0,0:0:0:0:
256,192,67165,1,8,0:0:0:0:
256,192,67265,1,8,0:0:0:0:
256,192,67365,1,0,0:0:0:0:
256,192,67565,1,0,0:0:0:0:
256,192,67665,1,0,0:0:0:0:
256,192,67765,1,8,0:0:0:0:
256,192,67865,1,0,0:0:0:0:
256,192,67965,1,8,0:0:0:0:
256,192,68165,1,8,0:0:0:0:
256,192,68265,1,0,0:0:0:0:
256,192,68465,1,0,0:0:0:0:
256,192,68565,1,8,0:0:0:0:
256,192,68665,1,0,0:0:0:0:
256,192,68765,1,8,0:0:0:0:
256,192,68965,1,0,0:0:0:0:
256,192,69065,1,8,0:0:0:0:
256,192,69165,1,8,0:0:0:0:
256,192,69265,1,0,0:0:0:0:
256,192,69465,1,0,0:0:0:0:
256,192,69565,1,8,0:0:0:0:
256,192,69665,1,0,0:0:0:0:
256,192,69765,1,8,0:0:0:0:
256,192,69965,1,0,0:0:0:0:
256,192,70065,1,8,0:0:0:0:
256,192,70265,1,0,0:0:0:0:
256,192,70365,1,8,0:0:0:0:
256,192,70565,1,0,0:0:0:0:
256,192,70965,1,4,0:0:0:0:
256,192,71165,1,8,0:0:0:0:
256,192,71365,1,0,0:0:0:0:
256,192,71465,1,8,0:0:0:0:
256,192,71665,1,0,0:0:0:0:
256,192,71765,1,8,0:0:0:0:
256,192,71865,1,0,0:0:0:0:
256,192,71965,1,8,0:0:0:0:
256,192,72065,1,8,0:0:0:0:
256,192,72165,1,0,0:0:0:0:
256,192,72265,1,0,0:0:0:0:
256,192,72365,1,0,0:0:0:0:
256,192,72465,1,8,0:0:0:0:
256,192,72665,1,0,0:0:0:0:
256,192,72765,1,8,0:0:0:0:
256,192,72865,1,0,0:0:0:0:
256,192,72965,1,8,0:0:0:0:
256,192,73098,1,0,0:0:0:0:
256,192,73165,1,0,0:0:0:0:
256,192,73231,1,0,0:0:0:0:
256,192,73365,1,8,0:0:0:0:
256,192,73498,1,0,0:0:0:0:
256,192,73631,1,0,0:0:0:0:
256,192,73765,1,8,0:0:0:0:
256,192,73965,1,8,0:0:0:0:
256,192,74065,1,8,0:0:0:0:
256,192,74265,1,8,0:0:0:0:
256,192,74365,1,8,0:0:0:0:
256,192,74565,1,8,0:0:0:0:
256,192,74665,1,0,0:0:0:0:
256,192,74765,1,0,0:0:0:0:
256,192,74865,1,8,0:0:0:0:
256,192,74965,1,0,0:0:0:0:
256,192,75065,1,0,0:0:0:0:
256,192,75165,1,8,0:0:0:0:
256,192,75365,1,8,0:0:0:0:
256,192,75565,1,8,0:0:0:0:
256,192,75665,1,8,0:0:0:0:
256,192,75865,1,8,0:0:0:0:
256,192,75965,1,8,0:0:0:0:
256,192,76165,1,8,0:0:0:0:
256,192,76265,1,0,0:0:0:0:
256,192,76365,1,0,0:0:0:0:
256,192,76465,1,8,0:0:0:0:
256,192,76565,1,8,0:0:0:0:
256,192,76665,1,0,0:0:0:0:
256,192,76765,1,8,0:0:0:0:
256,192,76865,1,0,0:0:0:0:
256,192,76965,1,8,0:0:0:0:
256,192,77165,1,0,0:0:0:0:
256,192,77265,1,8,0:0:0:0:
256,192,77465,1,0,0:0:0:0:
256,192,77565,1,8,0:0:0:0:
256,192,77665,1,8,0:0:0:0:
256,192,77765,1,0,0:0:0:0:
256,192,77965,1,0,0:0:0:0:
256,192,78165,1,8,0:0:0:0:
256,192,78265,1,0,0:0:0:0:
256,192,78365,1,8,0:0:0:0:
256,192,78565,1,0,0:0:0:0:
256,192,78765,1,8,0:0:0:0:
256,192,78865,1,0,0:0:0:0:
256,192,79065,1,8,0:0:0:0:
256,192,79165,1,0,0:0:0:0:
256,192,79365,1,8,0:0:0:0:
256,192,79465,1,0,0:0:0:0:
256,192,79665,1,0,0:0:0:0:
256,192,79765,1,8,0:0:0:0:
256,192,79865,1,0,0:0:0:0:
256,192,79965,1,8,0:0:0:0:
256,192,80065,1,8,0:0:0:0:
256,192,80165,1,0,0:0:0:0:
256,192,80365,1,0,0:0:0:0:
256,192,80465,1,0,0:0:0:0:
256,192,80565,1,8,0:0:0:0:
256,192,80665,1,0,0:0:0:0:
256,192,80765,1,8,0:0:0:0:
256,192,80965,1,8,0:0:0:0:
256,192,81065,1,0,0:0:0:0:
256,192,81265,1,0,0:0:0:0:
256,192,81365,1,8,0:0:0:0:
256,192,81465,1,0,0:0:0:0:
256,192,81565,1,8,0:0:0:0:
256,192,81765,1,0,0:0:0:0:
256,192,81865,1,8,0:0:0:0:
256,192,81965,1,8,0:0:0:0:
256,192,82065,1,0,0:0:0:0:
256,192,82265,1,8,0:0:0:0:
256,192,82365,1,0,0:0:0:0:
256,192,82465,1,0,0:0:0:0:
256,192,82565,1,8,0:0:0:0:
256,192,82765,1,0,0:0:0:0:
256,192,82965,1,8,0:0:0:0:
256,192,83031,1,8,0:0:0:0:
256,192,83098,1,8,0:0:0:0:
256,192,83165,1,8,0:0:0:0:
256,192,83365,1,4,0:0:0:0:
256,192,83665,1,8,0:0:0:0:
256,192,83815,1,0,0:0:0:0:
256,192,84115,1,8,0:0:0:0:
256,192,84265,1,0,0:0:0:0:
256,192,84565,1,8,0:0:0:0:
256,192,84715,1,0,0:0:0:0:
256,192,85015,1,8,0:0:0:0:
256,192,85165,1,8,0:0:0:0:
256,192,85315,1,0,0:0:0:0:
256,192,85390,1,8,0:0:0:0:
256,192,85465,1,0,0:0:0:0:
256,192,85765,1,8,0:0:0:0:
256,192,85915,1,8,0:0:0:0:
256,192,85990,1,8,0:0:0:0:
256,192,86065,1,0,0:0:0:0:
256,192,86215,1,8,0:0:0:0:
256,192,86365,1,0,0:0:0:0:
256,192,86515,1,0,0:0:0:0:
256,192,86665,1,8,0:0:0:0:
256,192,86965,1,8,0:0:0:0:
256,192,87165,1,0,0:0:0:0:
256,192,87365,1,8,0:0:0:0:
256,192,87565,1,8,0:0:0:0:
256,192,87765,1,0,0:0:0:0:
256,192,87965,1,0,0:0:0:0:
256,192,88165,1,8,0:0:0:0:
256,192,88465,1,8,0:0:0:0:
256,192,88615,1,0,0:0:0:0:
256,192,88915,1,8,0:0:0:0:
256,192,89065,1,0,0:0:0:0:
256,192,89365,1,8,0:0:0:0:
256,192,89515,1,0,0:0:0:0:
256,192,89665,1,0,0:0:0:0:
256,192,89815,1,8,0:0:0:0:
256,192,89965,1,8,0:0:0:0:
256,192,90265,1,0,0:0:0:0:
256,192,90565,1,8,0:0:0:0:
256,192,90865,1,8,0:0:0:0:
256,192,91015,1,0,0:0:0:0:
256,192,91315,1,8,0:0:0:0:
256,192,91465,1,0,0:0:0:0:
256,192,91765,1,8,0:0:0:0:
256,192,91915,1,0,0:0:0:0:
256,192,92065,1,0,0:0:0:0:
256,192,92215,1,8,0:0:0:0:
256,192,92365,1,8,0:0:0:0:
256,192,92665,1,0,0:0:0:0:
256,192,92965,1,8,0:0:0:0:
256,192,93265,1,0,0:0:0:0:
256,192,93340,1,0,0:0:0:0:
256,192,93415,1,8,0:0:0:0:
256,192,93715,1,0,0:0:0:0:
256,192,93790,1,0,0:0:0:0:
256,192,93865,1,8,0:0:0:0:
256,192,94015,1,0,0:0:0:0:
256,192,94165,1,8,0:0:0:0:
256,192,94465,1,0,0:0:0:0:
256,192,94765,1,0,0:0:0:0:
256,192,94915,1,0,0:0:0:0:
256,192,95065,1,8,0:0:0:0:
256,192,95365,1,8,0:0:0:0:
256,192,95665,1,0,0:0:0:0:
256,192,95815,1,8,0:0:0:0:
256,192,96115,1,8,0:0:0:0:
256,192,96265,1,0,0:0:0:0:
256,192,96565,1,0,0:0:0:0:
256,192,96715,1,8,0:0:0:0:
256,192,97015,1,8,0:0:0:0:
256,192,97165,1,0,0:0:0:0:
256,192,97315,1,0,0:0:0:0:
256,192,97465,1,8,0:0:0:0:
256,192,97615,1,8,0:0:0:0:
256,192,97765,1,0,0:0:0:0:
256,192,98065,1,0,0:0:0:0:
256,192,98215,1,0,0:0:0:0:
256,192,98365,1,8,0:0:0:0:
256,192,98665,1,8,0:0:0:0:
256,192,98965,1,8,0:0:0:0:
256,192,99115,1,0,0:0:0:0:
256,192,99415,1,0,0:0:0:0:
256,192,99565,1,8,0:0:0:0:
256,192,99640,1,8,0:0:0:0:
256,192,99715,1,0,0:0:0:0:
256,192,99865,1,0,0:0:0:0:
256,192,100015,1,0,0:0:0:0:
256,192,100165,1,8,0:0:0:0:
256,192,100465,1,0,0:0:0:0:
256,192,100615,1,0,0:0:0:0:
256,192,100765,1,8,0:0:0:0:
256,192,100915,1,0,0:0:0:0:
256,192,101065,1,8,0:0:0:0:
256,192,101215,1,0,0:0:0:0:
256,192,101365,1,8,0:0:0:0:
256,192,101665,1,0,0:0:0:0:
256,192,101815,1,8,0:0:0:0:
256,192,102115,1,0,0:0:0:0:
256,192,102265,1,8,0:0:0:0:
256,192,102565,1,0,0:0:0:0:
256,192,102640,1,0,0:0:0:0:
256,192,102715,1,8,0:0:0:0:
256,192,102865,8,0,106165,0:0:0:0:
