osu file format v14

[General]
AudioFilename: audio.mp3
AudioLeadIn: 0
PreviewTime: 0
Countdown: 0
SampleSet: Normal
StackLeniency: 0.7
Mode: 0
LetterboxInBreaks: 0
WidescreenStoryboard: 0

[Editor]
DistanceSpacing: 2
BeatDivisor: 4
GridSize: 16
TimelineZoom: 2.8

[Metadata]
Title:i hate this
TitleUnicode:i hate this
Artist:pluffaduff
ArtistUnicode:pluffaduff
Creator:eLzL
Version:Hey, Not bad :D
Source:
Tags:aditiosss anjay mabar
BeatmapID:2207124
BeatmapSetID:1056062

[Difficulty]
HPDrainRate:3.3
CircleSize:4.5
OverallDifficulty:8
ApproachRate:9
SliderMultiplier:1.4
SliderTickRate:1

[Events]
//Background and Video events
//Break Periods
//Storyboard Layer 0 (Background)
//Storyboard Layer 1 (Fail)
//Storyboard Layer 2 (Pass)
//Storyboard Layer 3 (Foreground)
//Storyboard Layer 4 (Overlay)
//Storyboard Sound Samples

[TimingPoints]
0,322.58064516129,4,1,0,100,1,0
0,-83.3333333333333,4,1,0,100,0,0
2258,-100,4,1,0,100,0,0
2580,-66.6666666666667,4,1,0,100,0,1
7419,-33.3333333333333,4,1,0,100,0,1
7741,-66.6666666666667,4,1,0,100,0,0
9999,-58.8235294117647,4,1,0,100,0,0
10322,-66.6666666666667,4,1,0,100,0,1
12580,-133.333333333333,4,1,0,100,0,1
12903,-100,4,1,0,100,0,0
13263,322.58064516129,4,1,0,100,1,0
15161,-33.3333333333333,4,1,0,100,0,0
15483,-66.6666666666667,4,1,0,100,0,1
17741,-33.3333333333333,4,1,0,100,0,1
18064,-100,4,1,0,100,0,0
20322,-33.3333333333333,4,1,0,80,0,0
20645,-66.6666666666667,4,1,0,100,0,1
22903,-33.3333333333333,4,1,0,100,0,1
23225,-100,4,1,0,100,0,0
25483,-50,4,1,0,100,0,0
25806,-66.6666666666667,4,1,0,100,0,1

[HitObjects]
217,143,0,6,0,P|221:93|194:41,1,83.9999974365235
110,197,322,5,0,0:0:0:0:
206,334,483,2,0,B|250:259|250:259|346:258,1,167.999994873047
499,253,967,1,0,0:0:0:0:
350,375,1129,2,0,L|341:184,1,167.999994873047
339,136,1612,1,0,0:0:0:0:
339,136,1935,2,0,P|338:199|317:232,1,83.9999974365235
227,119,2258,2,0,P|227:69|238:45,1,70,8|0,0:0|0:0,0:0:0:0:
385,38,2580,6,0,L|499:55,2,105.000004005432,4|0|4,0:0|0:0|0:0,0:0:0:0:
273,216,3064,2,0,P|289:141|227:25,1,210.000008010865,4|0,0:0|0:0,0:0:0:0:
64,157,3548,1,8,0:0:0:0:
223,125,3709,1,4,0:0:0:0:
29,68,3870,1,4,0:0:0:0:
206,192,4032,1,4,0:0:0:0:
106,27,4193,2,0,P|117:100|100:145,1,105.000004005432,8|0,0:0|0:0,0:0:0:0:
49,282,4516,2,0,P|39:216|57:142,1,105.000004005432,4|0,0:0|0:0,0:0:0:0:
116,114,4838,1,8,0:0:0:0:
271,175,5000,1,8,0:0:0:0:
165,356,5161,6,0,L|140:205,1,105.000004005432,4|4,0:0|0:0,0:0:0:0:
217,95,5483,1,8,0:0:0:0:
23,178,5645,2,0,P|-1:255|14:300,1,105.000004005432,4|0,0:0|0:0,0:0:0:0:
75,344,5967,1,4,0:0:0:0:
176,232,6129,1,8,0:0:0:0:
395,337,6290,2,0,P|419:268|361:125,1,210.000008010865,4|0,0:0|0:0,0:0:0:0:
308,89,6774,1,8,0:0:0:0:
288,252,6935,1,4,0:0:0:0:
476,133,7096,1,4,0:0:0:0:
333,20,7258,1,4,0:0:0:0:
37,170,7419,2,0,B|168:133|215:167|214:168|158:128|158:128|255:175|366:153,1,420.000016021729,8|0,0:0|0:0,0:0:0:0:
394,148,8064,5,4,0:0:0:0:
402,199,8387,5,4,0:0:0:0:
383,247,8709,5,4,0:0:0:0:
341,277,9032,5,4,0:0:0:0:
289,281,9354,5,4,0:0:0:0:
245,244,9677,5,4,0:0:0:0:
230,191,10000,6,0,L|304:157,1,59.5000011348725,8|0,0:0|0:0,0:0:0:0:
474,149,10322,2,4,P|399:138|354:150,1,105.000004005432,0|0,0:0|0:0,0:0:0:0:
181,236,10645,1,8,0:0:0:0:
375,314,10806,2,4,P|407:244|360:96,1,210.000008010865
129,228,11290,1,8,0:0:0:0:
334,195,11451,1,4,0:0:0:0:
219,67,11612,1,4,0:0:0:0:
217,311,11774,1,4,0:0:0:0:
416,236,11935,1,8,0:0:0:0:
142,213,12096,1,4,0:0:0:0:
434,198,12258,1,8,0:0:0:0:
78,347,12419,1,4,0:0:0:0:
500,200,12580,2,0,P|524:156|509:103,1,105.000004005432,8|0,0:0|0:0,0:0:0:0:
486,74,13262,5,4,0:0:0:0:
460,98,13585,1,4,0:0:0:0:
430,114,13907,1,4,0:0:0:0:
396,123,14230,1,4,0:0:0:0:
361,123,14553,1,4,0:0:0:0:
327,114,14875,1,4,0:0:0:0:
304,90,15198,2,8,P|274:66|311:85,1,105.000004005432,8|0,0:0|0:0,0:0:0:0:
307,84,15521,6,4,P|322:142|357:178,1,105.000004005432,0|0,0:0|0:0,0:0:0:0:
512,176,15843,1,8,0:0:0:0:
446,384,16004,2,4,P|464:304|418:170,1,210.000008010865
341,71,16488,1,8,0:0:0:0:
235,259,16650,2,4,B|266:179|266:179|239:124|239:124|268:33,1,210.000008010865
487,77,17133,2,8,P|408:78|346:111,1,105.000004005432
133,248,17456,2,4,P|245:236|255:213,1,105.000004005432
210,47,17779,2,0,B|234:111|184:196|184:196|234:105|179:193|218:126|144:335|296:410,1,420.000016021729,8|0,0:0|0:0,0:0:0:0:
254,355,18424,5,4,0:0:0:0:
278,324,18746,1,4,0:0:0:0:
312,304,19069,1,4,0:0:0:0:
350,295,19391,1,4,0:0:0:0:
389,297,19714,1,4,0:0:0:0:
425,311,20037,1,4,0:0:0:0:
473,329,20359,5,8,0:0:0:0:
496,338,20682,6,4,P|495:265|466:227,1,105.000004005432
303,59,21004,1,8,0:0:0:0:
8,139,21165,2,4,P|102:143|227:50,1,210.000008010865
154,24,21649,1,8,0:0:0:0:
176,248,21811,2,0,P|259:217|277:171,2,105.000004005432,4|0|4,0:0|0:0|0:0,0:0:0:0:
99,189,22294,1,8,0:0:0:0:
332,293,22456,5,4,0:0:0:0:
62,262,22617,1,8,0:0:0:0:
413,179,22778,5,4,0:0:0:0:
53,383,22940,2,0,B|15:252|49:205|50:206|10:262|10:262|57:165|36:54,1,420.000016021729,8|0,0:0|0:0,0:0:0:0:
47,29,23585,5,4,0:0:0:0:
72,52,23907,1,4,0:0:0:0:
104,67,24230,1,4,0:0:0:0:
138,73,24552,1,4,0:0:0:0:
173,69,24876,1,4,0:0:0:0:
205,56,25198,1,4,0:0:0:0:
232,34,25520,2,0,L|252:120,1,70,8|0,0:0|0:0,0:0:0:0:
249,104,25843,6,4,P|257:144|309:199,1,105.000004005432
500,244,26165,1,8,0:0:0:0:
329,368,26327,2,4,P|363:286|336:140,1,210.000008010865
253,92,26811,1,8,0:0:0:0:
70,155,26972,1,4,0:0:0:0:
263,164,27133,1,4,0:0:0:0:
134,166,27294,1,4,0:0:0:0:
149,49,27456,1,8,0:0:0:0:
119,310,27617,1,4,0:0:0:0:
268,121,27778,1,8,0:0:0:0:
288,382,27939,1,4,0:0:0:0:
457,22,28101,1,8,0:0:0:0:
256,192,28262,12,0,28504,0:0:0:0:
