osu file format v14

[General]
AudioFilename: Phish - 12.29.11 - You Enjoy Myself.mp3
AudioLeadIn: 0
PreviewTime: -1
Countdown: 1
SampleSet: Normal
StackLeniency: 0.7
Mode: 0
LetterboxInBreaks: 0
WidescreenStoryboard: 0

[Editor]
Bookmarks: 29533
DistanceSpacing: 3.3
BeatDivisor: 8
GridSize: 8
TimelineZoom: 1

[Metadata]
Title:you enjoy myself
TitleUnicode:you enjoy myself
Artist:phish
ArtistUnicode:phish
Creator:kasdeya
Version:kasdeJAM
Source:
Tags:
BeatmapID:823017
BeatmapSetID:375838

[Difficulty]
HPDrainRate:7.2
CircleSize:4.3
OverallDifficulty:8.1
ApproachRate:7.6
SliderMultiplier:1.4
SliderTickRate:1

[Events]
//Background and Video events
//Break Periods
2,11962,13143
//Storyboard Layer 0 (Background)
//Storyboard Layer 1 (Fail)
//Storyboard Layer 2 (Pass)
//Storyboard Layer 3 (Foreground)
//Storyboard Sound Samples

[TimingPoints]
366.657843932224,318.758965095893,4,1,0,100,1,0

[HitObjects]
104,96,1522,5,0,0:0:0:0:
250,158,1681,1,0,0:0:0:0:
187,199,1840,1,0,0:0:0:0:
32,132,2000,1,0,0:0:0:0:
194,95,2159,1,0,0:0:0:0:
61,197,2319,1,0,0:0:0:0:
125,141,2478,1,0,0:0:0:0:
194,95,2637,1,0,0:0:0:0:
199,215,2797,1,0,0:0:0:0:
448,103,2956,1,0,0:0:0:0:
361,279,3076,2,0,L|452:221,1,105
450,223,3434,5,0,0:0:0:0:
287,87,3594,1,0,0:0:0:0:
198,252,3753,1,0,0:0:0:0:
418,324,3912,1,0,0:0:0:0:
359,127,4072,1,0,0:0:0:0:
199,153,4231,1,0,0:0:0:0:
284,325,4390,1,0,0:0:0:0:
437,224,4550,1,0,0:0:0:0:
276,126,4709,1,0,0:0:0:0:
156,252,4869,2,0,L|89:279,1,70
85,276,5187,5,0,0:0:0:0:
85,94,5347,1,0,0:0:0:0:
26,26,5506,1,0,0:0:0:0:
143,174,5666,1,0,0:0:0:0:
172,82,5825,1,0,0:0:0:0:
59,209,5984,1,0,0:0:0:0:
240,160,6144,1,0,0:0:0:0:
173,275,6303,1,0,0:0:0:0:
327,306,6462,1,0,0:0:0:0:
257,240,6622,2,0,L|348:195,1,87.5
335,201,6980,1,0,0:0:0:0:
259,42,7259,5,0,0:0:0:0:
109,159,7419,1,0,0:0:0:0:
235,247,7578,1,0,0:0:0:0:
378,172,7737,1,0,0:0:0:0:
172,94,7897,2,0,L|283:182,1,140
132,266,8574,1,0,0:0:0:0:
425,82,9172,5,0,0:0:0:0:
452,46,9331,1,0,0:0:0:0:
226,251,9491,1,0,0:0:0:0:
393,35,9650,1,0,0:0:0:0:
165,211,9809,1,0,0:0:0:0:
456,122,9969,1,0,0:0:0:0:
312,292,10128,2,0,L|337:271,1,17.5
221,98,10327,1,0,0:0:0:0:
154,297,10487,1,0,0:0:0:0:
329,177,10646,1,0,0:0:0:0:
70,118,10806,1,0,0:0:0:0:
272,287,10965,1,0,0:0:0:0:
65,239,11124,1,0,0:0:0:0:
286,111,11284,1,0,0:0:0:0:
143,275,11443,1,0,0:0:0:0:
156,77,11602,1,0,0:0:0:0:
357,304,11762,1,0,0:0:0:0:
304,288,13953,6,0,L|296:272,1,17.5
75,53,14352,5,0,0:0:0:0:
169,197,14511,1,0,0:0:0:0:
358,143,14670,1,0,0:0:0:0:
296,46,14830,1,0,0:0:0:0:
77,70,14989,1,0,0:0:0:0:
143,193,15149,1,0,0:0:0:0:
363,327,15308,2,0,L|279:214,1,140
324,271,15786,1,0,0:0:0:0:
323,120,15946,1,0,0:0:0:0:
167,232,16105,1,0,0:0:0:0:
172,94,16264,5,0,0:0:0:0:
259,198,16424,1,0,0:0:0:0:
232,78,16583,1,0,0:0:0:0:
259,198,16742,1,0,0:0:0:0:
373,263,16902,1,0,0:0:0:0:
259,198,17061,1,0,0:0:0:0:
245,284,17221,1,0,0:0:0:0:
158,224,17380,1,0,0:0:0:0:
229,118,17539,1,0,0:0:0:0:
229,118,17699,1,0,0:0:0:0:
96,77,17858,1,0,0:0:0:0:
150,233,18017,1,0,0:0:0:0:
374,270,18177,1,0,0:0:0:0:
342,100,18336,5,0,0:0:0:0:
226,306,18496,1,0,0:0:0:0:
161,111,18655,1,0,0:0:0:0:
374,270,18814,1,0,0:0:0:0:
243,190,18974,1,0,0:0:0:0:
119,238,19133,1,0,0:0:0:0:
375,157,19292,1,0,0:0:0:0:
243,190,19452,1,0,0:0:0:0:
183,78,19611,1,0,0:0:0:0:
305,313,19771,1,0,0:0:0:0:
235,187,19930,1,0,0:0:0:0:
326,62,20089,5,0,0:0:0:0:
336,224,20249,1,0,0:0:0:0:
148,233,20408,1,0,0:0:0:0:
139,99,20568,1,0,0:0:0:0:
139,99,20727,1,0,0:0:0:0:
148,233,20886,1,0,0:0:0:0:
324,240,21046,1,0,0:0:0:0:
285,95,21205,1,0,0:0:0:0:
285,95,21364,1,0,0:0:0:0:
324,240,21524,1,0,0:0:0:0:
168,243,21683,1,0,0:0:0:0:
324,240,21843,1,0,0:0:0:0:
251,290,22002,5,0,0:0:0:0:
139,189,22161,1,0,0:0:0:0:
239,82,22321,1,0,0:0:0:0:
439,193,22480,1,0,0:0:0:0:
239,82,22639,1,0,0:0:0:0:
65,46,22799,1,0,0:0:0:0:
274,191,22958,1,0,0:0:0:0:
332,60,23118,1,0,0:0:0:0:
442,197,23277,1,0,0:0:0:0:
70,63,23436,1,0,0:0:0:0:
274,191,23596,1,0,0:0:0:0:
146,249,23755,1,0,0:0:0:0:
321,92,23914,1,0,0:0:0:0:
368,338,24074,1,0,0:0:0:0:
206,209,24233,1,0,0:0:0:0:
210,51,24393,1,0,0:0:0:0:
354,181,24552,1,0,0:0:0:0:
114,299,24711,1,0,0:0:0:0:
26,133,24871,1,0,0:0:0:0:
296,99,25030,1,0,0:0:0:0:
114,77,25190,1,0,0:0:0:0:
48,228,25349,1,0,0:0:0:0:
243,264,25508,1,0,0:0:0:0:
381,183,25668,2,0,L|309:178,1,70
156,96,25986,1,0,0:0:0:0:
356,280,26146,1,0,0:0:0:0:
464,198,26305,1,0,0:0:0:0:
257,38,26465,1,0,0:0:0:0:
356,280,26624,1,0,0:0:0:0:
464,198,26783,1,0,0:0:0:0:
165,119,26943,1,0,0:0:0:0:
263,41,27102,1,0,0:0:0:0:
153,208,27261,1,0,0:0:0:0:
235,277,27421,1,0,0:0:0:0:
414,144,27580,1,0,0:0:0:0:
359,85,27700,1,0,0:0:0:0:
208,137,28058,1,0,0:0:0:0:
305,257,28218,1,0,0:0:0:0:
114,270,28536,1,0,0:0:0:0:
94,156,28696,1,0,0:0:0:0:
163,88,29453,5,0,0:0:0:0:
188,123,29572,1,0,0:0:0:0:
134,275,29732,1,0,0:0:0:0:
357,277,29891,1,0,0:0:0:0:
454,190,30051,1,0,0:0:0:0:
375,73,30210,1,0,0:0:0:0:
230,186,30369,1,0,0:0:0:0:
448,284,30529,1,0,0:0:0:0:
253,88,30688,1,0,0:0:0:0:
270,304,30847,1,0,0:0:0:0:
77,173,31007,1,0,0:0:0:0:
358,277,31166,1,0,0:0:0:0:
168,153,31326,1,0,0:0:0:0:
414,46,31485,1,0,0:0:0:0:
247,37,31644,1,0,0:0:0:0:
41,106,31804,1,0,0:0:0:0:
57,280,31963,1,0,0:0:0:0:
201,328,32123,1,0,0:0:0:0:
432,338,32282,1,0,0:0:0:0:
422,175,32441,1,0,0:0:0:0:
341,253,32601,1,0,0:0:0:0:
142,204,32760,1,0,0:0:0:0:
276,73,32919,1,0,0:0:0:0:
332,153,33079,1,0,0:0:0:0:
184,313,33238,1,0,0:0:0:0:
165,103,33398,1,0,0:0:0:0:
293,254,33557,1,0,0:0:0:0:
165,103,33716,1,0,0:0:0:0:
341,146,33876,1,0,0:0:0:0:
174,320,34035,1,0,0:0:0:0:
268,59,34194,1,0,0:0:0:0:
454,324,34354,1,0,0:0:0:0:
58,242,34513,1,0,0:0:0:0:
93,82,34673,1,0,0:0:0:0:
224,300,34832,1,0,0:0:0:0:
397,135,34991,1,0,0:0:0:0:
95,88,35151,1,0,0:0:0:0:
224,300,35310,1,0,0:0:0:0:
397,135,35469,1,0,0:0:0:0:
219,294,35629,1,0,0:0:0:0:
85,90,35788,1,0,0:0:0:0:
234,183,35948,2,0,L|474:155,1,227.5
261,112,36625,5,0,0:0:0:0:
276,243,36784,1,0,0:0:0:0:
112,95,37183,5,0,0:0:0:0:
103,283,37342,1,0,0:0:0:0:
320,300,37502,1,0,0:0:0:0:
392,173,37661,1,0,0:0:0:0:
175,129,37820,1,0,0:0:0:0:
199,302,37980,1,0,0:0:0:0:
381,258,38139,1,0,0:0:0:0:
305,131,38298,1,0,0:0:0:0:
381,258,38458,1,0,0:0:0:0:
199,302,38617,1,0,0:0:0:0:
165,177,38777,1,0,0:0:0:0:
265,213,38936,1,0,0:0:0:0:
208,71,39095,1,0,0:0:0:0:
34,204,39255,1,0,0:0:0:0:
121,329,39414,1,0,0:0:0:0:
264,355,39574,1,0,0:0:0:0:
394,217,39733,1,0,0:0:0:0:
466,335,39892,1,0,0:0:0:0:
188,192,40052,5,0,0:0:0:0:
352,155,40490,1,0,0:0:0:0:
109,311,40928,5,0,0:0:0:0:
30,82,41088,1,0,0:0:0:0:
259,39,41247,1,0,0:0:0:0:
469,142,41406,1,0,0:0:0:0:
306,293,41566,1,0,0:0:0:0:
259,39,41725,1,0,0:0:0:0:
121,291,41885,1,0,0:0:0:0:
469,142,42044,1,0,0:0:0:0:
59,126,42203,1,0,0:0:0:0:
250,45,42363,1,0,0:0:0:0:
388,226,42522,1,0,0:0:0:0:
192,344,42681,1,0,0:0:0:0:
59,126,42841,1,0,0:0:0:0:
159,73,43000,1,0,0:0:0:0:
221,169,43160,1,0,0:0:0:0:
105,224,43319,1,0,0:0:0:0:
221,169,43478,1,0,0:0:0:0:
159,73,43638,1,0,0:0:0:0:
263,26,43797,1,0,0:0:0:0:
443,276,43956,1,0,0:0:0:0:
197,349,44116,1,0,0:0:0:0:
132,249,44275,1,0,0:0:0:0:
372,170,44435,1,0,0:0:0:0:
263,210,44594,1,0,0:0:0:0:
319,309,44753,1,0,0:0:0:0:
427,275,44913,1,0,0:0:0:0:
263,210,45072,1,0,0:0:0:0:
121,144,45231,1,0,0:0:0:0:
56,54,45391,1,0,0:0:0:0:
176,59,45550,1,0,0:0:0:0:
273,117,45710,1,0,0:0:0:0:
316,244,45869,1,0,0:0:0:0:
209,309,46028,2,0,L|123:176,1,157.5
223,180,46507,1,0,0:0:0:0:
326,95,46666,1,0,0:0:0:0:
343,214,46825,1,0,0:0:0:0:
262,301,46985,2,0,P|128:304|88:255,1,192.5
170,319,47503,1,0,0:0:0:0:
212,204,47782,1,0,0:0:0:0:
392,164,47981,2,0,L|221:88,1,175
306,129,48459,5,0,0:0:0:0:
341,280,48778,1,0,0:0:0:0:
247,298,48937,1,0,0:0:0:0:
112,151,49375,1,0,0:0:0:0:
346,155,49694,1,0,0:0:0:0:
183,322,49853,1,0,0:0:0:0:
185,91,50212,1,0,0:0:0:0:
286,134,50371,1,0,0:0:0:0:
328,279,50531,1,0,0:0:0:0:
446,54,50690,1,0,0:0:0:0:
274,130,50850,1,0,0:0:0:0:
439,276,51009,1,0,0:0:0:0:
82,141,51168,1,0,0:0:0:0:
99,235,51328,1,0,0:0:0:0:
215,218,51487,1,0,0:0:0:0:
157,74,51647,1,0,0:0:0:0:
269,49,51806,1,0,0:0:0:0:
72,278,52244,5,0,0:0:0:0:
75,182,52384,1,0,0:0:0:0:
152,126,52543,1,0,0:0:0:0:
237,128,52702,5,0,0:0:0:0:
296,192,52882,1,0,0:0:0:0:
299,277,53041,1,0,0:0:0:0:
204,283,53200,5,0,0:0:0:0:
201,195,53360,1,0,0:0:0:0:
286,109,53519,1,0,0:0:0:0:
373,106,53639,5,0,0:0:0:0:
452,188,53798,1,0,0:0:0:0:
454,289,53958,1,0,0:0:0:0:
280,109,54117,5,0,0:0:0:0:
181,175,54276,1,0,0:0:0:0:
177,282,54436,1,0,0:0:0:0:
287,275,54595,5,0,0:0:0:0:
288,184,54754,1,0,0:0:0:0:
181,106,54914,1,0,0:0:0:0:
181,106,55073,5,0,0:0:0:0:
288,184,55233,1,0,0:0:0:0:
295,277,55392,1,0,0:0:0:0:
288,184,55551,5,0,0:0:0:0:
181,106,55711,1,0,0:0:0:0:
295,277,55830,1,0,0:0:0:0:
76,138,56029,5,0,0:0:0:0:
141,59,56189,1,0,0:0:0:0:
247,84,56348,1,0,0:0:0:0:
441,50,56508,5,0,0:0:0:0:
440,163,56667,1,0,0:0:0:0:
319,165,56826,1,0,0:0:0:0:
314,52,56986,5,0,0:0:0:0:
319,165,57105,1,0,0:0:0:0:
440,163,57265,1,0,0:0:0:0:
441,50,57424,5,0,0:0:0:0:
314,52,57583,1,0,0:0:0:0:
319,165,57743,1,0,0:0:0:0:
440,163,57902,5,0,0:0:0:0:
316,159,58062,1,0,0:0:0:0:
314,52,58221,1,0,0:0:0:0:
319,165,58380,1,0,0:0:0:0:
431,166,58540,1,0,0:0:0:0:
439,59,58699,1,0,0:0:0:0:
306,62,58858,5,0,0:0:0:0:
191,62,59018,1,0,0:0:0:0:
192,167,59177,1,0,0:0:0:0:
311,164,59337,5,0,0:0:0:0:
312,289,59496,1,0,0:0:0:0:
185,289,59655,1,0,0:0:0:0:
192,167,59815,5,0,0:0:0:0:
311,164,59974,1,0,0:0:0:0:
312,289,60133,1,0,0:0:0:0:
448,289,60293,5,0,0:0:0:0:
449,162,60452,1,0,0:0:0:0:
316,164,60612,1,0,0:0:0:0:
312,289,60771,5,0,0:0:0:0:
172,286,60930,1,0,0:0:0:0:
175,171,61090,1,0,0:0:0:0:
175,171,61249,5,0,0:0:0:0:
305,164,61408,1,0,0:0:0:0:
312,289,61568,1,0,0:0:0:0:
241,238,61727,5,0,0:0:0:0:
103,72,61887,1,0,0:0:0:0:
155,159,62046,1,0,0:0:0:0:
399,55,62205,5,0,0:0:0:0:
235,235,62365,1,0,0:0:0:0:
313,165,62524,1,0,0:0:0:0:
52,335,62684,5,0,0:0:0:0:
233,240,62843,1,0,0:0:0:0:
139,280,63002,1,0,0:0:0:0:
219,229,63162,5,0,0:0:0:0:
65,64,63321,1,0,0:0:0:0:
131,147,63480,1,0,0:0:0:0:
223,228,63640,5,0,0:0:0:0:
401,328,63799,1,0,0:0:0:0:
334,297,63959,1,0,0:0:0:0:
48,55,64118,5,0,0:0:0:0:
132,55,64277,1,0,0:0:0:0:
236,66,64437,1,0,0:0:0:0:
235,144,64596,5,0,0:0:0:0:
236,249,64755,1,0,0:0:0:0:
235,341,64915,1,0,0:0:0:0:
126,337,65074,5,0,0:0:0:0:
132,243,65234,1,0,0:0:0:0:
132,159,65393,1,0,0:0:0:0:
132,78,65552,5,0,0:0:0:0:
228,79,65712,1,0,0:0:0:0:
228,166,65871,1,0,0:0:0:0:
221,245,66031,5,0,0:0:0:0:
215,336,66190,1,0,0:0:0:0:
328,345,66349,1,0,0:0:0:0:
328,267,66509,5,0,0:0:0:0:
328,180,66668,1,0,0:0:0:0:
328,100,66827,1,0,0:0:0:0:
412,95,66987,5,0,0:0:0:0:
405,184,67146,1,0,0:0:0:0:
408,276,67306,1,0,0:0:0:0:
464,349,67465,5,0,0:0:0:0:
375,349,67624,1,0,0:0:0:0:
278,349,67784,1,0,0:0:0:0:
190,350,67943,5,0,0:0:0:0:
92,348,68102,1,0,0:0:0:0:
39,281,68262,1,0,0:0:0:0:
33,187,68421,5,0,0:0:0:0:
28,101,68581,1,0,0:0:0:0:
65,38,68740,1,0,0:0:0:0:
143,41,68899,5,0,0:0:0:0:
215,38,69059,1,0,0:0:0:0:
285,38,69218,1,0,0:0:0:0:
365,36,69377,5,0,0:0:0:0:
448,34,69537,1,0,0:0:0:0:
459,115,69696,5,0,0:0:0:0:
441,197,69856,1,0,0:0:0:0:
405,275,70015,1,0,0:0:0:0:
337,304,70174,5,0,0:0:0:0:
240,317,70334,1,0,0:0:0:0:
145,308,70493,1,0,0:0:0:0:
86,257,70653,5,0,0:0:0:0:
92,158,70812,1,0,0:0:0:0:
152,86,70971,1,0,0:0:0:0:
244,68,71131,5,0,0:0:0:0:
339,90,71290,1,0,0:0:0:0:
387,146,71449,1,0,0:0:0:0:
406,229,71609,5,0,0:0:0:0:
364,284,71768,1,0,0:0:0:0:
270,307,71928,1,0,0:0:0:0:
197,310,72087,5,0,0:0:0:0:
126,277,72246,1,0,0:0:0:0:
135,186,72406,1,0,0:0:0:0:
188,121,72565,5,0,0:0:0:0:
254,108,72724,1,0,0:0:0:0:
329,135,72884,1,0,0:0:0:0:
339,205,73043,5,0,0:0:0:0:
303,282,73242,1,0,0:0:0:0:
210,282,73402,1,0,0:0:0:0:
170,224,73561,5,0,0:0:0:0:
201,148,73721,1,0,0:0:0:0:
286,149,73920,1,0,0:0:0:0:
314,220,74079,5,0,0:0:0:0:
255,271,74239,1,0,0:0:0:0:
210,217,74398,1,0,0:0:0:0:
257,195,74557,6,0,L|157:104,1,122.5
