osu file format v14

[General]
AudioFilename: audio.mp3
AudioLeadIn: 0
PreviewTime: 27976
Countdown: 0
SampleSet: Soft
StackLeniency: 0.7
Mode: 0
LetterboxInBreaks: 0
WidescreenStoryboard: 1

[Editor]
DistanceSpacing: 1.5
BeatDivisor: 4
GridSize: 16
TimelineZoom: 1

[Metadata]
Title:Sensei ni Itchao
TitleUnicode:先生に言っちゃお
Artist:philo
ArtistUnicode:フィロ
Creator:Basensorex
Version:Normal
Source:
Tags:tell the teacher vocaloid utaite hip hop japanese j-pop j pop jp jap イチョウ 可不 kafu ginkgo cover icho ichou
BeatmapID:3685222
BeatmapSetID:1797787

[Difficulty]
HPDrainRate:3.2
CircleSize:3.8
OverallDifficulty:4
ApproachRate:5.2
SliderMultiplier:1.2
SliderTickRate:1

[Events]
//Background and Video events
0,0,"philo.png",0,0
Video,0,"philo video.mp4"
//Break Periods
//Storyboard Layer 0 (Background)
//Storyboard Layer 1 (Fail)
//Storyboard Layer 2 (Pass)
//Storyboard Layer 3 (Foreground)
//Storyboard Layer 4 (Overlay)
//Storyboard Sound Samples

[TimingPoints]
428,576.923076923077,4,2,22,40,1,0
428,-111.111111111111,4,2,22,40,0,0
9658,-100,4,2,22,60,0,0
25812,-100,4,2,22,70,0,0
28120,-90.9090909090909,4,2,22,80,0,1
41966,-100,4,2,22,50,0,0

[Colours]
Combo1 : 137,183,0
Combo2 : 179,0,0
Combo3 : 121,121,121

[HitObjects]
70,35,428,6,0,P|31:70|30:122,1,107.999996704102,2|2,0:2|0:2,0:0:0:0:
85,181,1293,1,2,0:2:0:0:
157,144,1581,2,0,L|210:150,1,53.9999983520508,2|2,0:2|0:2,0:0:0:0:
266,208,2158,1,2,0:2:0:0:
412,138,2735,6,0,L|425:30,2,107.999996704102,2|2|2,0:2|0:2|0:2,0:0:0:0:
476,196,4178,1,2,0:2:0:0:
476,196,4466,1,2,0:2:0:0:
459,357,5043,6,0,P|406:356|371:317,1,107.999996704102,2|2,0:2|0:2,0:0:0:0:
317,256,5908,1,2,0:2:0:0:
236,265,6196,2,0,L|182:271,1,53.9999983520508,2|2,0:2|0:2,0:0:0:0:
143,342,6773,1,2,0:2:0:0:
18,237,7351,6,0,L|4:129,2,107.999996704102,2|2|2,0:2|0:2|0:2,0:0:0:0:
97,271,8794,1,2,0:2:0:0:
97,271,9082,1,2,0:2:0:0:
167,105,9658,6,0,B|221:81|221:81|276:109,1,120,6|8,1:2|0:2,0:0:0:0:
314,130,10379,1,2,0:2:0:0:
402,114,10668,2,0,L|410:173,1,60,2|2,1:2|0:2,0:0:0:0:
415,218,11101,1,2,1:2:0:0:
350,280,11389,2,0,L|343:339,1,60,10|2,0:2|0:2,0:0:0:0:
258,371,11966,6,0,P|208:335|147:352,1,120,2|8,1:2|0:2,0:0:0:0:
115,370,12687,1,2,0:2:0:0:
43,314,12976,2,0,P|39:285|47:256,1,60,2|2,1:2|0:2,0:0:0:0:
69,216,13408,1,2,1:2:0:0:
154,187,13697,2,0,P|158:158|150:129,1,60,10|2,0:2|0:2,0:0:0:0:
87,72,14274,5,2,1:2:0:0:
87,72,14418,1,2,0:2:0:0:
203,4,14851,2,0,L|262:11,1,60,8|0,0:2|0:0,0:0:0:0:
292,51,15283,1,2,1:2:0:0:
292,51,15428,2,0,L|351:43,1,60,2|2,0:2|1:2,0:0:0:0:
424,94,16004,1,10,0:2:0:0:
304,228,16581,6,0,P|275:235|245:231,1,60,2|0,1:2|0:0,0:0:0:0:
220,199,17014,1,2,1:2:0:0:
220,199,17158,2,0,P|191:191|161:195,1,60,10|0,0:2|0:0,0:0:0:0:
72,205,17735,1,2,1:2:0:0:
43,290,18024,1,2,1:2:0:0:
111,347,18312,2,0,L|140:343,1,30,10|2,0:2|0:2,0:0:0:0:
185,339,18601,1,2,0:2:0:0:
272,366,18889,6,0,L|391:351,1,120,2|8,1:2|0:2,0:0:0:0:
459,292,19754,1,0,0:0:0:0:
411,215,20043,2,0,L|381:210,2,30,2|2|2,0:2|0:2|1:2,0:0:0:0:
470,146,20620,2,0,L|462:87,1,60,10|2,0:2|0:2,0:0:0:0:
434,57,21053,1,2,0:2:0:0:
434,57,21197,5,0,1:2:0:0:
259,13,21774,2,0,P|229:9|200:17,1,60,10|2,0:2|0:2,0:0:0:0:
174,47,22206,1,2,1:2:0:0:
174,47,22351,2,0,P|144:52|115:44,1,60,2|2,1:2|1:2,0:0:0:0:
31,76,22928,1,10,0:2:0:0:
72,155,23216,1,2,0:2:0:0:
22,230,23504,6,0,P|11:287|46:333,1,120,0|8,1:2|0:2,0:0:0:0:
132,305,24370,1,0,0:0:0:0:
199,365,24658,2,0,L|318:350,1,120,2|8,0:2|0:2,0:0:0:0:
450,227,25812,5,10,0:2:0:0:
361,70,26389,1,10,0:2:0:0:
188,122,26966,1,10,0:2:0:0:
115,68,27254,6,0,L|85:72,1,30,0|0,1:2|1:2,0:0:0:0:
40,77,27543,1,10,0:2:0:0:
54,275,28120,6,0,L|152:287,1,99.0000030212403,6|2,1:2|1:2,0:0:0:0:
201,294,28697,1,10,0:2:0:0:
265,368,28985,1,2,1:2:0:0:
360,340,29274,2,0,L|363:307,1,33.0000010070801,2|2,1:2|0:2,0:0:0:0:
372,258,29562,1,2,0:2:0:0:
464,222,29851,2,0,L|455:156,1,66.0000020141602,10|0,0:2|1:2,0:0:0:0:
422,63,30428,6,0,B|374:44|374:44|330:61,1,99.0000030212403,2|0,1:2|1:2,0:0:0:0:
287,86,31004,1,10,0:2:0:0:
215,16,31293,1,2,1:2:0:0:
142,83,31581,2,0,L|76:74,1,66.0000020141602,2|2,1:2|0:2,0:0:0:0:
16,152,32158,1,10,0:2:0:0:
85,222,32447,1,0,1:2:0:0:
182,212,32735,6,0,L|280:200,1,99.0000030212403,2|2,1:2|1:2,0:0:0:0:
329,192,33312,1,10,0:2:0:0:
412,245,33601,1,2,1:2:0:0:
392,341,33889,2,0,P|376:347|360:350,1,33.0000010070801,2|2,1:2|0:2,0:0:0:0:
311,344,34178,1,2,0:2:0:0:
223,297,34466,2,0,P|190:294|159:305,1,66.0000020141602,10|0,0:2|1:2,0:0:0:0:
65,274,35043,6,0,B|46:226|46:226|63:182,1,99.0000030212403,2|0,1:2|1:2,0:0:0:0:
86,138,35620,1,10,0:2:0:0:
163,77,35908,1,2,1:2:0:0:
240,138,36197,2,0,L|306:147,1,66.0000020141602,2|2,1:2|0:2,0:0:0:0:
392,99,36774,1,10,0:2:0:0:
484,133,37062,1,0,1:2:0:0:
504,230,37351,6,0,L|492:328,1,99.0000030212403,2|2,1:2|1:2,0:0:0:0:
484,377,37928,1,10,0:2:0:0:
396,331,38216,1,2,1:2:0:0:
308,377,38504,2,0,L|275:372,1,33.0000010070801,2|2,1:2|0:2,0:0:0:0:
226,361,38793,1,2,0:2:0:0:
161,285,39081,2,0,L|95:294,1,66.0000020141602,10|0,0:2|1:2,0:0:0:0:
25,224,39658,6,0,B|6:176|6:176|23:132,1,99.0000030212403,2|0,1:2|1:2,0:0:0:0:
50,90,40235,1,10,0:2:0:0:
134,38,40524,1,2,1:2:0:0:
203,108,40812,2,0,L|194:174,1,66.0000020141602,2|2,1:2|0:2,0:0:0:0:
266,241,41389,1,10,0:2:0:0:
242,337,41678,1,0,1:2:0:0:
345,360,41966,6,0,P|402:370|448:334,1,120,2|10,1:2|0:2,0:0:0:0:
463,244,42831,1,2,1:2:0:0:
399,180,43120,2,0,L|406:120,1,60,2|2,1:2|0:0,0:0:0:0:
346,53,43697,1,10,0:2:0:0:
168,84,44274,6,0,L|48:98,1,120,2|10,1:2|0:2,0:0:0:0:
1,175,45139,1,2,1:2:0:0:
62,241,45428,2,0,P|71:269|71:299,1,60,2|2,0:0|0:0,0:0:0:0:
11,366,46004,1,2,0:0:0:0:
