osu file format v14

[General]
AudioFilename: audio.mp3
AudioLeadIn: 0
PreviewTime: 27976
Countdown: 0
SampleSet: Soft
StackLeniency: 0.7
Mode: 0
LetterboxInBreaks: 0
WidescreenStoryboard: 1

[Editor]
DistanceSpacing: 1.7
BeatDivisor: 4
GridSize: 16
TimelineZoom: 1.3

[Metadata]
Title:Sensei ni Itchao
TitleUnicode:先生に言っちゃお
Artist:philo
ArtistUnicode:フィロ
Creator:Basensorex
Version:Ikenainda
Source:
Tags:tell the teacher vocaloid utaite hip hop japanese j-pop j pop jp jap イチョウ 可不 kafu ginkgo cover icho ichou
BeatmapID:3685220
BeatmapSetID:1797787

[Difficulty]
HPDrainRate:5.6
CircleSize:4.2
OverallDifficulty:8.6
ApproachRate:9.2
SliderMultiplier:2.8
SliderTickRate:1

[Events]
//Background and Video events
0,0,"philo.png",0,0
Video,0,"philo video.mp4"
//Break Periods
//Storyboard Layer 0 (Background)
//Storyboard Layer 1 (Fail)
//Storyboard Layer 2 (Pass)
//Storyboard Layer 3 (Foreground)
//Storyboard Layer 4 (Overlay)
//Storyboard Sound Samples

[TimingPoints]
428,576.923076923077,4,2,22,40,1,0
428,-133.333333333333,4,2,22,40,0,0
9658,-100,4,2,22,60,0,0
25812,-100,4,2,22,70,0,0
27543,-133.333333333333,4,2,22,70,0,0
27976,-133.333333333333,4,2,22,5,0,0
28120,-80,4,2,22,80,0,1
41966,-117.647058823529,4,2,22,50,0,0

[Colours]
Combo1 : 137,183,0
Combo2 : 179,0,0
Combo3 : 121,121,121

[HitObjects]
106,36,428,6,0,P|53:28|3:17,1,105.000004005432,2|0,0:2|0:0,0:0:0:0:
67,123,860,1,2,0:2:0:0:
158,116,1004,2,0,P|209:104|261:96,1,105.000004005432,2|2,0:2|0:2,0:0:0:0:
260,96,1581,1,2,0:2:0:0:
357,118,1726,1,2,0:2:0:0:
328,35,1870,1,2,0:2:0:0:
328,35,2158,1,2,0:2:0:0:
487,183,2735,22,1,B|438:163|405:189|418:199|390:221|336:207,1,157.500006008148,2|0,0:2|0:0,0:0:0:0:
256,248,3312,2,0,P|227:290|232:341,1,105.000004005432,2|2,0:2|0:2,0:0:0:0:
232,341,3889,1,2,0:2:0:0:
119,261,4178,1,2,0:2:0:0:
23,359,4466,1,2,0:2:0:0:
393,115,5043,6,0,P|444:126|496:134,1,105.000004005432,2|0,0:2|0:0,0:0:0:0:
420,27,5475,1,2,0:2:0:0:
330,51,5619,2,0,P|278:58|227:70,1,105.000004005432,2|2,0:2|0:2,0:0:0:0:
227,70,6197,1,2,0:2:0:0:
189,158,6341,1,2,0:2:0:0:
139,84,6485,1,2,0:2:0:0:
139,84,6774,1,2,0:2:0:0:
8,245,7351,6,0,P|82:234|126:295,1,157.500006008148,2|0,0:2|0:0,0:0:0:0:
192,360,7928,2,0,P|243:365|285:336,1,105.000004005432,2|2,0:2|0:2,0:0:0:0:
285,336,8504,1,2,0:2:0:0:
425,234,8793,1,2,0:2:0:0:
512,367,9081,1,2,0:2:0:0:
431,216,9226,6,0,B|437:168|437:168|442:164|442:164|449:109,1,105.000004005432,2|2,0:2|0:2,0:0:0:0:
512,62,9658,6,0,B|432:78|432:78|415:45|369:44,1,140,6|2,1:2|0:2,0:0:0:0:
258,132,10091,1,0,1:2:0:0:
306,0,10235,1,8,0:2:0:0:
354,130,10379,2,0,P|347:164|343:199,1,70,2|2,0:2|0:2,0:0:0:0:
507,335,10668,6,0,P|465:281|397:279,1,140,2|2,1:2|0:2,0:0:0:0:
293,379,11101,2,0,P|328:379|359:363,1,70,2|0,1:2|0:0,0:0:0:0:
223,240,11389,1,10,0:2:0:0:
199,375,11533,1,2,0:2:0:0:
306,285,11678,2,0,P|309:250|317:215,1,70,2|2,0:2|0:2,0:0:0:0:
228,94,11966,5,2,1:2:0:0:
361,37,12110,1,2,0:2:0:0:
163,173,12254,2,0,P|93:161|24:153,1,140,2|8,0:2|0:2,0:0:0:0:
120,10,12687,2,0,P|127:44|130:78,1,70,2|0,0:2|0:0,0:0:0:0:
264,184,12976,22,1,B|308:166|338:190|326:199|351:219|400:206,1,140,2|2,1:2|0:2,0:0:0:0:
512,57,13408,1,2,1:2:0:0:
384,120,13553,1,2,0:2:0:0:
512,146,13697,1,10,0:2:0:0:
426,44,13841,1,2,0:2:0:0:
394,207,13985,2,0,P|424:222|459:222,1,70,2|0,0:2|0:0,0:0:0:0:
344,45,14274,5,2,1:2:0:0:
307,234,14418,2,0,B|227:250|227:250|210:217|164:216,1,140,2|0,0:2|1:2,0:0:0:0:
30,308,14851,1,8,0:2:0:0:
141,373,14995,2,0,P|144:338|152:303,1,70,2|0,0:2|0:0,0:0:0:0:
212,132,15283,1,2,1:2:0:0:
89,236,15428,6,0,P|86:201|78:166,1,70,2|0,0:2|0:0,0:0:0:0:
125,43,15716,1,2,1:2:0:0:
201,147,15860,1,2,0:2:0:0:
245,19,16004,2,0,P|276:3|310:4,1,70,10|0,0:2|0:0,0:0:0:0:
425,111,16293,1,2,0:2:0:0:
297,99,16437,1,2,0:2:0:0:
407,21,16581,5,2,1:2:0:0:
350,168,16726,2,0,P|357:202|360:236,1,70,2|0,0:2|0:0,0:0:0:0:
442,370,17014,1,2,1:2:0:0:
455,230,17158,1,10,0:2:0:0:
356,334,17303,2,0,P|286:322|217:314,1,140,2|0,0:2|1:2,0:0:0:0:
43,309,17735,6,0,P|28:279|28:244,1,70,2|0,1:2|0:0,0:0:0:0:
168,213,18024,2,0,P|151:243|122:262,1,70,2|0,1:2|0:0,0:0:0:0:
0,152,18312,1,10,0:2:0:0:
161,121,18456,1,2,0:2:0:0:
83,18,18601,2,0,P|76:52|73:86,1,70,2|0,0:2|0:0,0:0:0:0:
168,213,18889,5,2,1:2:0:0:
249,90,19033,1,2,0:2:0:0:
84,177,19178,1,2,0:2:0:0:
253,236,19322,2,0,P|185:238|143:292,1,140,2|0,1:2|0:0,0:0:0:0:
238,384,19754,2,0,P|235:349|227:314,1,70,0|0,0:0|1:2,0:0:0:0:
327,181,20043,5,2,0:2:0:0:
403,333,20187,1,2,0:2:0:0:
421,165,20331,1,2,1:2:0:0:
312,297,20476,1,2,0:2:0:0:
501,241,20620,2,0,P|466:244|431:252,1,70,10|0,0:2|0:0,0:0:0:0:
356,98,20908,1,2,0:2:0:0:
512,153,21053,1,2,0:2:0:0:
390,13,21197,22,1,B|325:-13|282:21|299:34|263:64|191:45,1,210,0|0,1:2|1:2,0:0:0:0:
33,143,21774,1,10,0:2:0:0:
111,0,21918,1,2,0:2:0:0:
190,136,22062,2,0,P|190:170|175:201,1,70,2|2,0:2|1:2,0:0:0:0:
6,282,22351,5,2,1:2:0:0:
156,384,22495,1,2,0:2:0:0:
88,212,22639,1,2,1:2:0:0:
48,384,22783,1,2,0:2:0:0:
203,285,22928,2,0,P|238:288|273:296,1,70,10|2,0:2|0:2,0:0:0:0:
424,351,23216,1,2,0:2:0:0:
328,211,23360,1,2,0:2:0:0:
273,382,23504,6,0,P|341:370|411:362,1,140,0|0,1:2|0:0,0:0:0:0:
475,280,23937,1,0,1:2:0:0:
389,153,24081,2,0,P|320:164|250:172,1,140,8|0,0:2|0:0,0:0:0:0:
200,261,24514,1,0,1:2:0:0:
39,123,24658,6,0,P|107:125|149:179,1,140,2|0,0:2|1:2,0:0:0:0:
67,208,25091,1,0,0:0:0:0:
281,285,25235,2,0,P|213:287|171:341,1,140,8|2,0:2|0:2,0:0:0:0:
254,368,25668,1,0,0:0:0:0:
80,299,25812,5,10,0:2:0:0:
327,96,26389,1,10,0:2:0:0:
509,359,26966,1,10,0:2:0:0:
354,241,27254,5,0,1:2:0:0:
482,214,27399,1,0,1:2:0:0:
376,378,27543,2,0,P|298:364|220:354,1,157.500006008148,10|0,0:2|0:0,0:0:0:0:
39,292,28120,6,0,B|136:311|136:311|155:274|195:269,1,175,6|0,1:2|0:0,0:0:0:0:
376,378,28553,1,2,1:2:0:0:
302,199,28697,2,0,P|296:242|287:285,1,87.5,10|0,0:2|1:2,0:0:0:0:
500,210,28985,2,0,P|490:167|485:123,1,87.5,2|0,1:2|0:0,0:0:0:0:
326,87,29274,5,2,1:2:0:0:
402,226,29418,1,2,0:2:0:0:
448,40,29562,1,2,0:2:0:0:
302,199,29706,1,0,1:2:0:0:
226,9,29851,2,0,P|137:-1|96:81,1,175,10|0,0:2|1:2,0:0:0:0:
234,99,30283,1,0,0:0:0:0:
48,218,30428,22,1,B|102:240|140:210|125:199|156:174|217:190,1,175,2|0,1:2|0:0,0:0:0:0:
366,289,30860,1,0,1:2:0:0:
203,362,31004,2,0,P|184:323|187:279,1,87.5,10|0,0:2|0:0,0:0:0:0:
368,164,31293,2,0,P|343:199|304:219,1,87.5,2|0,1:2|0:0,0:0:0:0:
149,33,31581,6,0,P|157:75|164:119,1,87.5,2|0,1:2|0:0,0:0:0:0:
16,261,31870,2,0,P|22:217|31:174,1,87.5,2|0,0:2|1:2,0:0:0:0:
251,52,32158,2,0,P|337:66|424:77,1,175,10|0,0:2|1:2,0:0:0:0:
257,142,32591,1,0,0:0:0:0:
469,0,32735,6,0,B|450:97|450:97|487:116|491:156,1,175,2|0,1:2|0:0,0:0:0:0:
512,350,33168,1,2,1:2:0:0:
405,175,33312,2,0,P|396:217|389:261,1,87.5,10|0,0:2|1:2,0:0:0:0:
266,384,33601,2,0,P|259:340|250:297,1,87.5,2|0,1:2|0:0,0:0:0:0:
144,168,33889,5,2,1:2:0:0:
78,308,34033,1,2,0:2:0:0:
260,206,34178,1,2,0:2:0:0:
23,129,34322,1,0,1:2:0:0:
204,39,34466,2,1,B|258:17|296:47|281:58|312:83|373:67,1,175,10|0,0:2|1:2,0:0:0:0:
229,125,34899,1,0,0:0:0:0:
414,0,35043,6,0,P|399:86|388:173,1,175,2|0,1:2|0:0,0:0:0:0:
255,327,35476,1,0,1:2:0:0:
149,159,35620,2,0,P|187:140|231:142,1,87.5,10|0,0:2|0:0,0:0:0:0:
160,356,35908,2,0,P|124:331|104:293,1,87.5,2|0,1:2|0:0,0:0:0:0:
354,298,36197,6,0,P|345:340|338:384,1,87.5,2|0,1:2|0:0,0:0:0:0:
512,214,36485,2,0,P|505:170|496:127,1,87.5,2|0,0:2|1:2,0:0:0:0:
225,104,36774,2,0,P|273:171|355:158,1,175,10|0,0:2|1:2,0:0:0:0:
385,32,37206,1,0,0:0:0:0:
152,13,37351,6,0,B|147:53|110:72|110:72|129:169,1,175,2|0,1:2|0:0,0:0:0:0:
151,368,37783,1,2,1:2:0:0:
0,235,37928,2,0,P|43:241|86:250,1,87.5,10|0,0:2|1:2,0:0:0:0:
305,143,38216,2,0,P|262:151|218:158,1,87.5,2|0,1:2|0:0,0:0:0:0:
28,13,38504,5,2,1:2:0:0:
129,169,38649,1,2,0:2:0:0:
203,2,38793,1,2,0:2:0:0:
19,137,38937,1,0,1:2:0:0:
221,247,39081,2,0,P|307:232|394:221,1,175,10|0,0:2|1:2,0:0:0:0:
218,158,39514,1,0,0:0:0:0:
243,335,39658,22,1,B|189:357|151:327|166:316|135:291|74:307,1,175,2|0,1:2|0:0,0:0:0:0:
221,247,40091,1,0,1:2:0:0:
18,127,40235,2,0,P|0:165|1:209,1,87.5,10|0,0:2|0:0,0:0:0:0:
203,55,40524,2,0,P|178:19|140:0,1,87.5,2|0,1:2|0:0,0:0:0:0:
221,247,40812,5,2,1:2:0:0:
307,80,40956,1,2,0:0:0:0:
115,91,41101,2,0,P|106:133|99:177,1,87.5,2|0,0:2|1:2,0:0:0:0:
234,333,41389,2,0,P|301:284|294:199,1,175,10|0,0:2|1:2,0:0:0:0:
134,259,41822,1,0,0:0:0:0:
319,314,41966,6,0,P|377:300|435:291,1,119.000002269745,2|0,1:2|0:0,0:0:0:0:
294,199,42399,1,2,0:0:0:0:
248,365,42543,2,0,P|189:352|131:342,1,119.000002269745,10|2,0:2|1:2,0:0:0:0:
131,342,43120,1,2,1:2:0:0:
66,291,43264,1,2,0:0:0:0:
159,201,43408,2,0,P|152:229|146:259,1,59.5000011348725,2|0,0:0|1:2,0:0:0:0:
79,162,43697,2,0,P|116:117|174:115,1,119.000002269745,10|0,0:2|1:2,0:0:0:0:
220,316,44274,22,1,B|274:338|311:309|296:297|328:272|389:288,1,178.500003404617,2|0,1:2|1:2,0:0:0:0:
447,351,44851,2,0,P|477:301|464:244,1,119.000002269745,10|2,0:2|1:2,0:0:0:0:
464,244,45428,1,2,0:0:0:0:
367,119,45716,1,2,0:0:0:0:
251,233,46004,1,2,0:0:0:0:
