osu file format v14

[General]
AudioFilename: audio.mp3
AudioLeadIn: 0
PreviewTime: 27976
Countdown: 0
SampleSet: Soft
StackLeniency: 0.7
Mode: 0
LetterboxInBreaks: 0
WidescreenStoryboard: 0

[Editor]
DistanceSpacing: 1
BeatDivisor: 4
GridSize: 16
TimelineZoom: 1

[Metadata]
Title:Sensei ni Itchao
TitleUnicode:先生に言っちゃお
Artist:philo
ArtistUnicode:フィロ
Creator:Basensorex
Version:Easy
Source:
Tags:tell the teacher vocaloid utaite hip hop japanese j-pop j pop jp jap イチョウ 可不 kafu ginkgo cover icho ichou
BeatmapID:3685218
BeatmapSetID:1797787

[Difficulty]
HPDrainRate:2
CircleSize:3
OverallDifficulty:2.5
ApproachRate:3
SliderMultiplier:1
SliderTickRate:1

[Events]
//Background and Video events
0,0,"philo.png",0,0
Video,0,"philo video.mp4"
//Break Periods
//Storyboard Layer 0 (Background)
//Storyboard Layer 1 (Fail)
//Storyboard Layer 2 (Pass)
//Storyboard Layer 3 (Foreground)
//Storyboard Layer 4 (Overlay)
//Storyboard Sound Samples

[TimingPoints]
428,576.923076923077,4,2,22,40,1,0
9658,-100,4,2,22,60,0,0
25812,-100,4,2,22,70,0,0
28120,-100,4,2,22,80,0,1
41966,-100,4,2,22,50,0,0

[Colours]
Combo1 : 137,183,0
Combo2 : 179,0,0
Combo3 : 121,121,121

[HitObjects]
39,18,428,6,0,P|134:25|168:113,1,200,2|2,0:2|0:2,0:0:0:0:
147,211,2158,1,2,0:2:0:0:
120,307,2735,2,0,P|73:323|25:310,2,100,2|2|2,0:2|0:2|0:2,0:0:0:0:
217,285,4466,1,2,0:2:0:0:
282,360,5043,6,0,B|404:376|364:309|477:321,1,200,2|2,0:2|0:2,0:0:0:0:
511,228,6774,1,2,0:2:0:0:
438,159,7351,2,0,L|450:59,2,100,2|2|2,0:2|0:2|0:2,0:0:0:0:
354,213,9081,1,2,0:2:0:0:
275,151,9658,6,0,B|204:177|204:177|129:152,1,150,6|2,1:2|0:2,0:0:0:0:
102,114,10812,1,0,0:0:0:0:
4,136,11389,1,10,0:2:0:0:
0,235,11966,2,0,L|6:284,1,50,2|2,1:2|0:2,0:0:0:0:
128,371,13120,1,0,1:2:0:0:
190,292,13697,1,10,0:2:0:0:
280,335,14274,6,0,P|326:351|374:338,1,100,2|8,1:2|0:2,0:0:0:0:
453,277,15428,2,0,P|469:230|456:182,1,100,2|10,0:2|0:2,0:0:0:0:
360,154,16581,1,2,1:2:0:0:
293,228,17158,1,10,0:2:0:0:
200,190,17735,2,0,L|100:202,1,100,2|10,1:2|0:2,0:0:0:0:
48,116,18889,6,0,L|-12:108,2,50,2|2|8,1:2|0:2|0:2,0:0:0:0:
100,30,20043,1,2,0:2:0:0:
188,77,20620,1,10,0:2:0:0:
266,13,21197,1,0,1:2:0:0:
348,70,21774,2,0,L|447:57,2,100,10|2|10,0:2|1:2|0:2,0:0:0:0:
262,121,23504,5,0,1:2:0:0:
437,221,24658,1,2,0:2:0:0:
289,356,25812,5,10,0:2:0:0:
202,305,26389,1,10,0:2:0:0:
115,356,26966,1,10,0:2:0:0:
28,305,27543,1,10,0:2:0:0:
37,205,28120,6,0,B|14:119|14:119|54:72,1,150,6|2,1:2|1:2,0:0:0:0:
90,37,29274,1,2,1:2:0:0:
185,8,29851,1,10,0:2:0:0:
243,89,30428,2,0,B|291:105|291:105|338:90,1,100,2|10,1:2|0:2,0:0:0:0:
385,72,31293,1,2,1:2:0:0:
431,54,31581,1,2,1:2:0:0:
496,129,32158,1,10,0:2:0:0:
473,226,32735,6,0,B|414:233|414:233|394:259|394:259|336:266,1,150,2|2,1:2|1:2,0:0:0:0:
287,273,33889,1,2,1:2:0:0:
203,218,34466,1,10,0:2:0:0:
272,146,35043,2,0,B|288:98|288:98|273:51,1,100,2|10,1:2|0:2,0:0:0:0:
239,13,35908,1,2,1:2:0:0:
189,17,36197,1,2,1:2:0:0:
142,105,36774,1,10,0:2:0:0:
42,88,37351,6,0,B|2:135|2:135|24:220,1,150,2|2,1:2|1:2,0:0:0:0:
37,268,38504,1,2,1:2:0:0:
112,333,39081,1,10,0:2:0:0:
198,281,39658,2,0,B|246:265|246:265|293:280,1,100,2|10,1:2|0:2,0:0:0:0:
338,301,40524,1,2,1:2:0:0:
382,322,40812,1,2,1:2:0:0:
481,325,41389,1,10,0:2:0:0:
504,228,41966,6,0,P|489:134|398:107,1,200,2|2,1:2|1:2,0:0:0:0:
326,177,43697,1,10,0:2:0:0:
252,109,44274,2,0,P|204:96|157:112,1,100,2|10,1:2|0:2,0:0:0:0:
89,185,45428,1,2,0:0:0:0:
143,268,46004,1,2,0:0:0:0:
