osu file format v14

[General]
AudioFilename: audio.mp3
AudioLeadIn: 0
PreviewTime:50627
Countdown: 0
SampleSet: Soft
StackLeniency: 0.2
Mode: 0
LetterboxInBreaks: 0
WidescreenStoryboard: 0

[Editor]
Bookmarks:50944,64042,143999
DistanceSpacing: 0.7
BeatDivisor: 8
GridSize: 16
TimelineZoom: 2.2

[Metadata]
Title:God-ish
TitleUnicode:神っぽいな
Artist:philo
ArtistUnicode:フィロ
Creator:Basensorex
Version:gazimal's Extra
Source:
Tags:kirishima- pincus alevi vanya2 ermi nymphe modding queue kiyoshi guarden gazimal brain exe kamippoi kami ppoi na godish japanese pop j-pop jpop vocaloid ボーカ utaite cover female strong vocals vocalist pinocchiop hatsune miku
BeatmapID:3520394
BeatmapSetID:1722410

[Difficulty]
HPDrainRate:5
CircleSize:4
OverallDifficulty:9
ApproachRate:9.4
SliderMultiplier:2
SliderTickRate:1

[Events]
//Background and Video events
0,0,"hot.png",0,0
//Break Periods
//Storyboard Layer 0 (Background)
//Storyboard Layer 1 (Fail)
//Storyboard Layer 2 (Pass)
//Storyboard Layer 3 (Foreground)
//Storyboard Layer 4 (Overlay)
//Storyboard Sound Samples

[TimingPoints]
240,422.535211267606,4,2,22,40,1,0
6578,-100,4,2,22,40,0,0
7000,-100,4,2,22,40,0,0
7317,-200,4,2,22,40,0,0
7845,-100,4,2,22,40,0,0
10697,-200,4,2,22,40,0,0
11225,-100,4,2,22,40,0,0
13761,-100,4,2,22,50,0,0
14078,-200,4,2,22,50,0,0
14606,-100,4,2,22,50,0,0
19887,-125,4,2,22,50,0,0
20099,-52.6315789473684,4,2,22,50,0,0
20521,-52.6315789473684,4,2,22,65,0,0
26225,-125,4,2,22,65,0,0
27070,-100,4,2,22,65,0,0
27282,-52.6315789473684,4,2,22,65,0,0
32352,-35.7142857142857,4,2,22,65,0,0
32457,-35.7142857142857,4,2,22,65,0,0
32775,-200,4,2,22,65,0,0
33620,-166.666666666667,4,2,22,65,0,0
33936,-166.666666666667,4,2,22,65,0,0
34042,-66.6666666666667,4,2,22,55,0,0
37000,-62.5,4,2,22,55,0,0
37105,-62.5,4,2,22,55,0,0
37423,-62.5,4,2,22,65,0,0
40803,-33.3333333333333,4,2,22,55,0,0
41225,-200,4,2,22,55,0,0
41437,-33.3333333333333,4,2,22,55,0,0
41859,-200,4,2,22,55,0,0
42493,-33.3333333333333,4,2,22,55,0,0
42704,-200,4,2,22,55,0,0
42916,-33.3333333333333,4,2,22,55,0,0
43338,-200,4,2,22,55,0,0
44077,-200,4,2,22,55,0,0
44183,-200,4,2,22,65,0,0
44606,-83.3333333333333,4,2,22,65,0,0
45873,-83.3333333333333,4,2,22,70,0,0
49147,-83.3333333333333,4,2,22,5,0,0
49254,-83.3333333333333,4,2,22,70,0,0
50521,-200,4,2,22,70,0,0
50626,-200,4,2,22,5,0,0
50732,-200,4,2,22,70,0,0
50944,-58.8235294117647,4,2,22,80,0,0
52423,-100,4,2,22,80,0,0
52634,-58.8235294117647,4,2,22,80,0,0
54113,-100,4,2,22,80,0,0
54324,-58.8235294117647,4,2,22,80,0,0
54535,-33.3333333333333,4,2,22,80,0,0
54747,-58.8235294117647,4,2,22,80,0,0
54958,-33.3333333333333,4,2,22,80,0,0
55169,-58.8235294117647,4,2,22,80,0,0
55803,-76.9230769230769,4,2,22,80,0,0
56014,-58.8235294117647,4,2,22,80,0,0
57282,-166.666666666667,4,2,22,80,0,0
57704,-58.8235294117647,4,2,22,80,0,0
60873,-100,4,2,22,80,0,0
61085,-58.8235294117647,4,2,22,80,0,0
61296,-37.037037037037,4,2,22,80,0,0
61507,-58.8235294117647,4,2,22,80,0,0
61718,-37.037037037037,4,2,22,80,0,0
61930,-58.8235294117647,4,2,22,80,0,0
62563,-100,4,2,22,80,0,0
62775,-55.5555555555556,4,2,22,80,0,0
63936,-55.5555555555556,4,2,22,5,0,0
64042,-55.5555555555556,4,2,22,60,0,0
64465,-55.5555555555556,4,2,22,80,0,0
65890,-55.5555555555556,4,2,22,5,0,0
65944,-55.5555555555556,4,2,22,80,0,0
66366,-200,4,2,22,80,0,0
67000,-55.5555555555556,4,2,22,80,0,0
67158,-55.5555555555556,4,2,22,5,0,0
67211,-100,4,2,22,80,0,0
67423,-55.5555555555556,4,2,22,80,0,0
67581,-55.5555555555556,4,2,22,5,0,0
67634,-100,4,2,22,80,0,0
67845,-50,4,2,22,80,0,0
68003,-50,4,2,22,5,0,0
68056,-50,4,2,22,80,0,0
68637,-50,4,2,22,5,0,0
68690,-50,4,2,22,80,0,0
68848,-50,4,2,22,5,0,0
68901,-50,4,2,22,80,0,0
69324,-100,4,2,22,80,0,0
69535,-50,4,2,22,80,0,0
69693,-50,4,2,22,5,0,0
69747,-50,4,2,22,80,0,0
70327,-50,4,2,22,5,0,0
70380,-50,4,2,22,80,0,0
71225,-55.5555555555556,4,2,22,80,0,0
71595,-55.5555555555556,4,2,22,5,0,0
71648,-55.5555555555556,4,2,22,80,0,0
72651,-55.5555555555556,4,2,22,5,0,0
72704,-55.5555555555556,4,2,22,80,0,0
73972,-100,4,2,22,80,0,0
74183,-55.5555555555556,4,2,22,80,0,0
74341,-55.5555555555556,4,2,22,5,0,0
74394,-100,4,2,22,80,0,0
74606,-50,4,2,22,80,0,0
74764,-50,4,2,22,5,0,0
74817,-50,4,2,22,80,0,0
75398,-50,4,2,22,5,0,0
75451,-50,4,2,22,80,0,0
75609,-50,4,2,22,5,0,0
75662,-50,4,2,22,80,0,0
76085,-40,4,2,22,80,0,0
76243,-40,4,2,22,80,0,0
76296,-200,4,2,22,80,0,0
76401,-200,4,2,22,5,0,0
76507,-40,4,2,22,80,0,0
76665,-40,4,2,22,5,0,0
76718,-200,4,2,22,80,0,0
76823,-200,4,2,22,5,0,0
76930,-40,4,2,22,80,0,0
77563,-100,4,2,22,80,0,0
77986,-100,4,2,22,60,0,0
90662,-50,4,2,22,60,0,0
91085,-166.666666666667,4,2,22,60,0,0
91507,582.52427184466,4,2,22,50,1,0
93837,-100,4,2,22,50,0,0
96167,-55.5555555555556,4,2,22,50,0,0
98497,-55.5555555555556,4,2,22,50,0,0
100827,-55.5555555555556,4,2,22,65,0,0
103157,-55.5555555555556,4,2,22,65,0,0
105487,-55.5555555555556,4,2,22,65,0,0
108691,-55.5555555555556,4,2,22,5,0,0
108982,-200,4,2,22,65,0,0
109419,-200,4,2,22,5,0,0
109565,-200,4,2,22,65,0,0
110147,-100,4,2,22,75,0,0
111530,-100,4,2,22,5,0,0
111604,-100,4,2,22,75,0,0
115025,-100,4,2,22,5,0,0
115099,-100,4,2,22,75,0,0
115317,-100,4,2,22,5,0,0
115390,-100,4,2,22,75,0,0
115608,-100,4,2,22,5,0,0
115681,-100,4,2,22,75,0,0
117356,-100,4,2,22,5,0,0
117429,-100,4,2,22,75,0,0
117647,-100,4,2,22,5,0,0
117720,-100,4,2,22,75,0,0
117938,-100,4,2,22,5,0,0
118011,-100,4,2,22,75,0,0
118885,-200,4,2,22,75,0,0
119468,-50,4,2,22,75,0,0
120341,-200,4,2,22,75,0,0
120633,-66.6666666666667,4,2,22,75,0,0
120851,-66.6666666666667,4,2,22,5,0,0
120924,-100,4,2,22,75,0,0
121798,-66.6666666666667,4,2,22,75,0,0
124346,-66.6666666666667,4,2,22,5,0,0
124419,-66.6666666666667,4,2,22,75,0,0
124637,-66.6666666666667,4,2,22,5,0,0
124710,-66.6666666666667,4,2,22,75,0,0
124928,-66.6666666666667,4,2,22,5,0,0
125002,-66.6666666666667,4,2,22,75,0,0
127550,-66.6666666666667,4,2,22,5,0,0
127623,-100,4,2,22,75,0,0
128788,422.535211267606,4,2,22,55,1,0
128788,-50,4,2,22,55,0,0
128946,-50,4,2,22,5,0,0
128999,-50,4,2,22,55,0,0
129791,-50,4,2,22,5,0,0
129844,-50,4,2,22,55,0,0
130424,-50,4,2,22,5,0,0
130478,-50,4,2,22,55,0,0
131058,-50,4,2,22,5,0,0
131111,-50,4,2,22,55,0,0
131481,-50,4,2,22,5,0,0
131534,-100,4,2,22,55,0,0
131745,-25,4,2,22,55,0,0
131850,-25,4,2,22,5,0,0
132168,-25,4,2,22,65,0,0
133435,-66.6666666666667,4,2,22,65,0,0
135548,-333.333333333333,4,2,22,55,0,0
137027,-1000,4,2,22,55,0,0
138822,-1000,4,2,22,5,0,0
138928,-1000,4,2,22,65,0,0
139351,-83.3333333333333,4,2,22,65,0,0
140618,-83.3333333333333,4,2,22,70,0,0
142309,-76.9230769230769,4,2,22,70,0,0
145372,-76.9230769230769,4,2,22,5,0,0
145478,-100,4,2,22,70,0,0
145689,-28.5714285714286,4,2,22,70,0,0
145794,-28.5714285714286,4,2,22,5,0,0
146745,-28.5714285714286,4,2,22,70,0,0
146957,-28.5714285714286,4,2,22,70,0,0
147379,-58.8235294117647,4,2,22,85,0,0
150759,-40,4,2,22,85,0,0
150917,-40,4,2,22,5,0,0
150971,-66.6666666666667,4,2,22,85,0,0
151076,-66.6666666666667,4,2,22,85,0,0
151182,-40,4,2,22,85,0,0
151340,-40,4,2,22,5,0,0
151393,-66.6666666666667,4,2,22,85,0,0
151498,-66.6666666666667,4,2,22,85,0,0
151604,-58.8235294117647,4,2,22,85,0,0
153717,-125,4,2,22,85,0,0
154140,-58.8235294117647,4,2,22,85,0,0
157520,-40,4,2,22,85,0,0
157678,-40,4,2,22,5,0,0
157731,-200,4,2,22,85,0,0
157836,-200,4,2,22,85,0,0
157942,-40,4,2,22,85,0,0
158100,-40,4,2,22,5,0,0
158154,-200,4,2,22,85,0,0
158259,-200,4,2,22,85,0,0
158365,-200,4,2,22,85,0,0
158788,-66.6666666666667,4,2,22,85,0,0
159210,-55.5555555555556,4,2,22,85,0,0
160371,-55.5555555555556,4,2,22,5,0,0
160478,-55.5555555555556,4,2,22,85,0,0
160900,-55.5555555555556,4,2,22,85,0,0
162326,-55.5555555555556,4,2,22,5,0,0
162379,-55.5555555555556,4,2,22,85,0,0
164016,-55.5555555555556,4,2,22,5,0,0
164069,-100,4,2,22,85,0,0
164280,-50,4,2,22,85,0,0
164438,-50,4,2,22,5,0,0
164492,-50,4,2,22,85,0,0
165072,-50,4,2,22,5,0,0
165126,-50,4,2,22,85,0,0
165284,-50,4,2,22,5,0,0
165337,-50,4,2,22,85,0,0
165759,-100,4,2,22,85,0,0
165971,-50,4,2,22,85,0,0
166129,-50,4,2,22,5,0,0
166182,-50,4,2,22,85,0,0
166762,-50,4,2,22,5,0,0
166816,-50,4,2,22,85,0,0
167661,-55.5555555555556,4,2,22,85,0,0
168030,-55.5555555555556,4,2,22,5,0,0
168083,-55.5555555555556,4,2,22,85,0,0
169086,-55.5555555555556,4,2,22,5,0,0
169140,-55.5555555555556,4,2,22,85,0,0
170407,-100,4,2,22,85,0,0
170618,-55.5555555555556,4,2,22,85,0,0
170776,-55.5555555555556,4,2,22,5,0,0
170830,-100,4,2,22,85,0,0
171041,-55.5555555555556,4,2,22,85,0,0
171675,-45.4545454545455,4,2,22,85,0,0
171833,-45.4545454545455,4,2,22,5,0,0
171886,-45.4545454545455,4,2,22,85,0,0
172044,-45.4545454545455,4,2,22,5,0,0
172097,-45.4545454545455,4,2,22,85,0,0
172520,-40,4,2,22,85,0,0
172678,-40,4,2,22,85,0,0
172731,-200,4,2,22,85,0,0
172836,-200,4,2,22,85,0,0
172942,-40,4,2,22,85,0,0
173100,-40,4,2,22,5,0,0
173154,-200,4,2,22,85,0,0
173259,-200,4,2,22,85,0,0
173365,-37.037037037037,4,2,22,85,0,0
173999,-83.3333333333333,4,2,22,85,0,0
174210,-111.111111111111,4,2,22,85,0,0
174421,-66.6666666666667,4,2,22,75,0,0
175900,-111.111111111111,4,2,22,75,0,0
176111,-66.6666666666667,4,2,22,75,0,0
177590,-111.111111111111,4,2,22,75,0,0
177802,-66.6666666666667,4,2,22,75,0,0
179280,-111.111111111111,4,2,22,75,0,0
181182,-66.6666666666667,4,2,22,75,0,0
187309,-66.6666666666667,4,2,22,75,0,0
187520,-200,4,2,22,75,0,0
187625,-200,4,2,22,5,0,0
187942,-200,4,2,22,50,0,0
200830,-25,4,2,22,50,0,0
200988,-25,4,2,22,5,0,0
201041,-66.6666666666667,4,2,22,50,0,0
201463,-66.6666666666667,4,2,22,5,0,0

[Colours]
Combo1 : 169,177,5
Combo2 : 191,191,191
Combo3 : 75,74,74
Combo4 : 228,14,46

[HitObjects]
447,367,6578,5,0,3:2:0:0:
447,367,7000,2,0,P|460:318|503:290,1,100,2|0,1:2|0:0,0:0:0:0:
447,349,7317,2,0,P|431:330|404:319,1,50,2|0,3:2|0:0,0:0:0:0:
340,349,7634,1,2,3:2:0:0:
447,367,7845,2,0,P|460:318|503:290,1,100,2|2,0:2|0:2,0:0:0:0:
498,291,8162,1,2,3:2:0:0:
498,291,8268,1,0,3:2:0:0:
348,356,8479,5,2,3:2:0:0:
348,356,8585,1,2,0:2:0:0:
348,356,8690,2,0,P|295:335|253:346,1,100,2|0,1:2|0:0,0:0:0:0:
231,329,9007,2,0,P|178:350|136:339,1,100,2|0,3:2|0:0,0:0:0:0:
110,363,9324,1,2,3:2:0:0:
15,315,9535,1,0,0:0:0:0:
15,315,9641,1,0,3:2:0:0:
102,262,9852,1,0,3:2:0:0:
102,262,9958,1,0,3:2:0:0:
19,226,10169,2,0,P|28:202|27:172,1,50,2|0,0:2|0:0,0:0:0:0:
9,81,10380,38,0,P|55:58|100:75,1,100,2|0,1:2|0:0,0:0:0:0:
119,83,10697,2,0,P|90:67|89:33,1,50,2|0,3:2|0:0,0:0:0:0:
153,14,11014,1,2,3:2:0:0:
9,81,11225,2,0,P|55:58|100:75,1,100,2|2,0:2|0:2,0:0:0:0:
123,87,11542,1,2,3:2:0:0:
123,87,11648,1,0,3:2:0:0:
17,0,11859,1,2,3:2:0:0:
90,162,12070,5,2,1:2:0:0:
123,168,12176,1,0,3:0:0:0:
154,161,12282,1,0,3:0:0:0:
181,139,12387,1,2,3:2:0:0:
213,16,12599,1,0,3:0:0:0:
213,16,12704,1,2,3:2:0:0:
289,55,12916,1,0,3:2:0:0:
316,33,13021,1,0,3:2:0:0:
347,26,13127,1,0,3:2:0:0:
380,32,13232,1,0,3:2:0:0:
399,50,13338,1,0,3:2:0:0:
399,50,13549,1,0,3:2:0:0:
399,50,13761,38,0,P|440:90|447:143,1,100,2|2,1:2|3:2,0:0:0:0:
399,50,14078,2,0,P|415:26|445:21,1,50,2|0,3:2|0:0,0:0:0:0:
510,23,14394,1,2,3:2:0:0:
399,50,14606,2,0,P|440:90|447:143,1,100,2|2,0:2|0:2,0:0:0:0:
442,157,14923,1,2,3:2:0:0:
442,157,15028,1,8,0:2:0:0:
510,23,15240,1,2,3:2:0:0:
353,123,15451,5,2,1:2:0:0:
356,127,15662,1,2,3:2:0:0:
356,127,15768,2,0,B|339:77|297:74|297:74|316:89|324:111,1,100,2|0,3:2|0:0,0:0:0:0:
399,50,16085,1,2,3:2:0:0:
490,136,16296,1,0,3:0:0:0:
490,136,16401,1,0,3:2:0:0:
412,198,16613,1,0,3:2:0:0:
412,198,16718,1,8,0:2:0:0:
488,291,16930,1,2,0:2:0:0:
488,291,17141,37,2,1:2:0:0:
457,280,17247,1,0,3:0:0:0:
427,292,17352,1,0,3:2:0:0:
411,322,17458,1,2,3:2:0:0:
414,353,17563,1,10,0:2:0:0:
495,373,17775,1,2,3:2:0:0:
488,291,17986,5,2,0:2:0:0:
457,280,18092,1,0,3:2:0:0:
414,353,18303,1,2,3:2:0:0:
427,292,18409,1,8,0:2:0:0:
411,322,18620,1,2,3:2:0:0:
495,373,18831,1,2,1:2:0:0:
495,373,19887,38,0,P|487:351|482:327,1,40,2|0,3:2|3:2,0:0:0:0:
495,373,20099,2,0,B|454:335|391:347|391:347|375:383|330:386|330:386|296:340|228:363|228:363|200:390|145:372,1,380,10|4,0:2|1:2,0:0:0:0:
6,367,20732,5,2,0:2:0:0:
100,294,20944,1,2,1:2:0:0:
100,294,21049,1,2,0:2:0:0:
257,384,21261,1,2,0:2:0:0:
411,289,21472,1,2,0:2:0:0:
495,373,21683,1,2,0:2:0:0:
495,373,21789,1,2,1:2:0:0:
6,367,22000,2,0,L|202:355,1,190,10|0,0:2|1:2,0:0:0:0:
495,373,22423,37,2,0:2:0:0:
411,289,22634,1,2,1:2:0:0:
411,289,22740,1,2,0:2:0:0:
257,384,22951,1,2,0:2:0:0:
100,294,23162,1,2,0:2:0:0:
6,367,23373,1,2,0:2:0:0:
6,367,23479,1,2,1:2:0:0:
495,373,23690,2,0,L|299:361,1,190,10|0,0:2|1:2,0:0:0:0:
100,294,24113,5,2,0:2:0:0:
411,289,24324,1,2,1:2:0:0:
411,289,24430,1,2,0:2:0:0:
257,384,24641,1,2,0:2:0:0:
122,155,24852,1,2,0:2:0:0:
390,155,25063,1,2,0:2:0:0:
390,155,25169,1,2,1:2:0:0:
193,78,25380,2,0,B|234:55|256:11|256:11|272:56|335:87,1,190,10|0,0:2|1:2,0:0:0:0:
491,13,25803,37,2,0:2:0:0:
495,24,25909,1,0,0:0:0:0:
499,35,26014,1,0,1:2:0:0:
394,76,26225,2,0,L|400:47,3,20,2|0|0|0,0:2|0:0|0:0|0:0,0:0:0:0:
404,40,26437,5,2,1:2:0:0:
333,11,26542,1,2,0:0:0:0:
261,45,26648,1,0,0:2:0:0:
193,78,26754,1,2,0:0:0:0:
133,37,26859,38,0,L|140:68,2,20,0|0|0,1:2|0:0|0:0,0:0:0:0:
19,97,27070,6,0,L|23:72,3,25,10|8|8|8,0:2|0:2|0:2|0:2,0:0:0:0:
15,173,27282,38,0,P|40:136|102:132,1,95,0|0,1:2|0:0,0:0:0:0:
256,296,27493,1,2,0:2:0:0:
90,208,27704,1,2,1:2:0:0:
90,208,27810,1,2,0:2:0:0:
256,296,28021,1,2,0:2:0:0:
256,296,28232,1,2,0:2:0:0:
422,208,28444,1,2,0:2:0:0:
422,208,28549,1,2,1:2:0:0:
225,52,28761,2,0,B|218:44|198:38|198:38|225:6|289:6|315:39|315:39|293:47|290:53,1,190,10|0,0:2|1:2,0:0:0:0:
90,208,29183,5,2,0:2:0:0:
260,300,29394,1,2,1:2:0:0:
260,300,29500,1,2,0:2:0:0:
422,208,29711,1,2,0:2:0:0:
90,208,29923,1,2,0:2:0:0:
260,300,30134,1,2,0:2:0:0:
260,300,30240,1,2,1:2:0:0:
290,53,30451,2,0,B|293:47|315:39|315:39|289:6|225:6|198:38|198:38|218:44|225:52,1,190,10|0,0:2|1:2,0:0:0:0:
422,208,30873,37,2,0:2:0:0:
260,300,31085,1,2,1:2:0:0:
260,300,31190,1,2,0:2:0:0:
90,208,31401,1,2,0:2:0:0:
422,208,31613,1,2,0:2:0:0:
260,300,31824,1,2,0:2:0:0:
260,300,31930,1,2,1:2:0:0:
290,53,32141,2,0,B|296:43|314:38|314:38|299:21|281:14,2,47.5,10|8|8,0:2|0:2|0:2,0:0:0:0:
224,51,32352,2,0,B|198:37|198:37|213:22|260:2|305:27,1,140,2|0,1:2|0:0,0:0:0:0:
487,150,32775,6,0,L|480:117,4,25,0|0|2|0|0,3:2|3:2|3:2|3:2|3:2,0:0:0:0:
469,50,33409,37,0,1:2:0:0:
333,150,33514,1,0,1:2:0:0:
417,184,33620,6,0,L|398:92,1,89.9999999999998,8|0,0:2|0:0,0:0:0:0:
383,10,34042,38,0,P|345:17|326:47,1,75,2|0,1:2|0:0,0:0:0:0:
417,184,34254,2,0,P|453:175|473:145,1,75,2|0,3:2|3:2,0:0:0:0:
383,10,34465,2,0,P|345:17|326:47,1,75,2|0,3:2|3:2,0:0:0:0:
327,46,34676,2,0,P|348:15|384:9,1,75,2|0,1:2|0:0,0:0:0:0:
473,146,34887,2,0,P|452:176|416:184,1,75,2|0,3:2|3:2,0:0:0:0:
327,46,35099,2,0,P|348:15|384:9,1,75,2|0,3:2|3:2,0:0:0:0:
398,95,35310,1,10,0:2:0:0:
398,95,35416,1,2,0:2:0:0:
383,10,35521,2,0,P|345:17|326:47,1,75,2|0,0:2|0:0,0:0:0:0:
417,184,35732,6,0,P|453:175|473:145,1,75,2|0,1:2|0:0,0:0:0:0:
383,10,35944,2,0,P|345:17|326:47,1,75,2|0,3:2|3:2,0:0:0:0:
326,45,36155,2,0,P|348:14|384:10,1,75,2|0,3:2|3:2,0:0:0:0:
473,144,36366,2,0,P|451:177|419:185,1,75,2|0,1:2|0:0,0:0:0:0:
326,45,36578,2,0,P|348:14|384:10,1,75,2|0,3:2|3:2,0:0:0:0:
406,106,36789,1,2,3:2:0:0:
406,106,36894,1,0,3:2:0:0:
406,106,37000,2,0,L|420:197,1,80,10|0,0:2|0:0,0:0:0:0:
451,384,37423,37,2,1:2:0:0:
451,384,37634,5,0,3:0:0:0:
426,361,37740,1,0,3:2:0:0:
386,355,37845,1,10,0:2:0:0:
370,339,37951,1,0,3:0:0:0:
409,330,38056,1,0,3:2:0:0:
447,347,38162,1,0,3:0:0:0:
469,384,38268,37,2,1:2:0:0:
489,380,38373,1,0,3:0:0:0:
480,304,38479,1,2,3:2:0:0:
460,308,38585,1,0,3:2:0:0:
444,231,38690,1,10,0:2:0:0:
464,227,38796,1,0,3:0:0:0:
448,150,38901,1,2,3:2:0:0:
428,154,39007,1,0,3:0:0:0:
422,77,39113,5,2,1:2:0:0:
422,77,39324,37,0,3:0:0:0:
431,49,39430,1,0,3:2:0:0:
465,37,39535,1,8,0:2:0:0:
455,68,39641,1,0,3:0:0:0:
422,77,39747,1,0,3:2:0:0:
389,71,39852,1,0,3:0:0:0:
370,46,39958,1,0,1:2:0:0:
324,19,40063,1,0,3:0:0:0:
273,10,40169,1,8,0:2:0:0:
223,24,40275,1,0,3:0:0:0:
189,66,40380,5,8,0:2:0:0:
131,117,40486,1,8,0:2:0:0:
51,101,40592,1,8,0:2:0:0:
28,26,40697,1,8,0:2:0:0:
76,172,40803,38,0,L|119:336,1,150,2|0,1:2|0:0,0:0:0:0:
161,191,41014,2,0,L|204:355,1,150,2|0,3:2|3:2,0:0:0:0:
256,384,41225,2,0,L|263:360,1,25,2|0,3:2|3:2,0:0:0:0:
436,172,41437,2,0,L|393:336,1,150,2|0,1:2|0:0,0:0:0:0:
351,191,41648,2,0,L|308:355,1,150,2|0,3:2|3:2,0:0:0:0:
256,384,41859,2,0,L|248:360,1,25,2|0,3:2|3:2,0:0:0:0:
161,191,42070,5,10,0:2:0:0:
161,191,42176,1,2,0:2:0:0:
161,191,42282,1,2,0:2:0:0:
161,191,42493,38,0,L|204:355,1,150,2|0,1:2|0:0,0:0:0:0:
256,384,42704,2,0,L|263:360,1,25,2|0,3:2|3:2,0:0:0:0:
436,172,42916,2,0,L|393:336,1,150,2|0,3:2|3:2,0:0:0:0:
351,191,43127,2,0,L|308:355,1,150,2|0,1:2|0:0,0:0:0:0:
256,384,43338,2,0,L|248:360,1,25,2|0,3:2|3:2,0:0:0:0:
76,172,43549,5,2,3:2:0:0:
76,172,43655,1,0,3:2:0:0:
76,172,43761,2,0,L|96:248,1,75,10|0,0:2|0:0,0:0:0:0:
100,265,44183,37,2,1:2:0:0:
58,252,44289,1,0,3:0:0:0:
46,205,44394,1,0,3:0:0:0:
76,172,44500,1,0,3:0:0:0:
116,168,44606,6,0,P|140:151|150:118,1,60,10|0,0:2|0:0,0:0:0:0:
41,37,44817,2,0,P|43:66|67:91,1,60,2|0,1:2|0:0,0:0:0:0:
196,23,45028,2,0,L|118:39,1,60,2|0,1:2|0:0,0:0:0:0:
335,62,45240,2,0,L|257:45,1,60,2|0,0:2|0:0,0:0:0:0:
474,23,45451,2,0,L|396:39,1,60,10|0,0:2|0:0,0:0:0:0:
214,98,45662,1,2,1:2:0:0:
414,174,45873,38,0,L|400:108,1,60,2|0,1:2|0:0,0:0:0:0:
446,306,46085,1,8,0:2:0:0:
457,341,46190,1,8,0:2:0:0:
466,376,46296,2,0,L|480:310,1,60,0|0,1:2|0:0,0:0:0:0:
401,115,46507,2,0,L|414:174,1,60,8|0,0:2|0:0,0:0:0:0:
466,376,46718,2,0,L|480:310,1,60,2|0,1:2|0:0,0:0:0:0:
384,41,46930,1,8,0:2:0:0:
393,78,47035,1,8,0:2:0:0:
401,115,47141,2,0,L|414:174,1,60,0|0,1:2|0:0,0:0:0:0:
466,376,47352,2,0,L|480:310,1,60,8|0,0:2|0:0,0:0:0:0:
401,115,47563,6,0,B|363:61|274:43|209:109|209:109|212:115|212:115|202:229|116:279|23:259|23:259|123:253|189:137|137:80|56:61|1:114|15:156|15:156|26:129|67:122,1,900,2|0,1:2|0:0,0:0:0:0:
51,125,49254,37,2,0:2:0:0:
113,20,49465,1,2,0:2:0:0:
113,20,49570,1,2,0:2:0:0:
113,20,49676,1,0,0:0:0:0:
63,137,49887,1,2,0:2:0:0:
63,137,49993,1,0,0:0:0:0:
63,137,50099,1,2,0:2:0:0:
13,255,50310,1,2,0:2:0:0:
13,255,50416,1,0,0:0:0:0:
112,310,50521,6,0,P|104:296|105:267,1,25,8|0,0:2|0:0,0:0:0:0:
95,292,50732,2,0,P|98:304|104:314,1,25,2|0,0:2|0:0,0:0:0:0:
221,384,50944,6,0,P|256:358|314:359,1,85,6|0,1:2|0:0,0:0:0:0:
463,367,51155,1,2,0:2:0:0:
421,365,51261,1,2,0:2:0:0:
395,334,51366,1,10,0:2:0:0:
503,276,51578,2,0,P|476:245|435:244,1,85,2|0,1:2|0:0,0:0:0:0:
394,334,51789,2,0,P|421:365|463:367,1,85,2|0,0:2|0:0,0:0:0:0:
221,384,52000,1,2,1:2:0:0:
254,358,52106,1,0,1:2:0:0:
296,354,52211,1,10,0:2:0:0:
112,310,52423,2,0,P|104:296|105:267,2,25,2|0|0,3:2|3:2|3:2,0:0:0:0:
221,384,52634,6,0,P|256:358|314:359,1,85,2|0,1:2|0:0,0:0:0:0:
463,367,52845,1,2,0:2:0:0:
421,365,52951,1,2,0:2:0:0:
395,334,53056,1,10,0:2:0:0:
503,276,53268,2,0,P|476:245|435:244,1,85,2|0,1:2|0:0,0:0:0:0:
394,334,53479,2,0,P|421:365|463:367,1,85,2|0,0:2|0:0,0:0:0:0:
221,384,53690,1,2,1:2:0:0:
254,358,53796,1,0,1:2:0:0:
296,354,53901,1,10,0:2:0:0:
112,310,54113,2,0,P|104:296|105:267,2,25,2|0|0,3:2|3:2|3:2,0:0:0:0:
116,335,54324,38,0,P|86:314|89:258,1,85,2|0,1:2|0:0,0:0:0:0:
99,120,54535,2,0,B|92:107|112:83|114:87|131:43|114:22|84:14|54:34|55:51,1,150,2|0,0:2|0:0,0:0:0:0:
82,268,54747,6,0,P|83:309|116:335,1,85,10|0,0:2|0:0,0:0:0:0:
99,120,54958,2,0,B|91:108|59:116|62:119|15:116|3:91|9:60|41:43|56:51,1,150,2|0,1:2|0:0,0:0:0:0:
191,90,55169,38,0,P|217:60|275:54,1,85,2|0,0:2|0:0,0:0:0:0:
436,111,55380,1,2,1:2:0:0:
421,124,55486,1,0,1:2:0:0:
399,132,55592,2,0,P|360:124|325:77,1,85,10|0,0:2|0:0,0:0:0:0:
509,35,55803,2,0,L|499:73,2,32.5,2|0|0,3:2|3:2|3:2,0:0:0:0:
477,13,56014,6,0,P|430:16|396:57,1,85,2|0,1:2|0:0,0:0:0:0:
404,244,56225,1,2,0:2:0:0:
476,245,56331,1,2,0:2:0:0:
512,184,56437,1,10,0:2:0:0:
490,128,56542,1,0,3:0:0:0:
436,111,56648,1,2,1:2:0:0:
436,111,56859,37,2,1:2:0:0:
490,128,56965,1,0,1:2:0:0:
512,184,57070,1,0,1:2:0:0:
476,245,57176,1,0,1:2:0:0:
404,244,57282,6,0,L|408:223,1,15,8|0,0:2|3:2,0:0:0:0:
392,233,57387,38,0,L|411:226,1,15,8|0,0:2|3:2,0:0:0:0:
395,217,57493,6,0,L|410:231,1,15,8|0,0:2|3:2,0:0:0:0:
409,212,57599,38,0,L|404:232,1,15,8|0,0:2|3:2,0:0:0:0:
420,222,57704,6,0,P|397:268|410:318,1,85,2|0,1:2|0:0,0:0:0:0:
512,382,57916,1,2,0:2:0:0:
511,341,58021,1,2,0:2:0:0:
476,312,58127,1,10,0:2:0:0:
346,384,58338,2,0,L|432:370,1,85,2|0,1:2|0:0,0:0:0:0:
195,324,58549,2,0,L|278:337,1,85,2|0,0:2|0:0,0:0:0:0:
44,384,58761,1,2,1:2:0:0:
85,377,58866,1,0,1:2:0:0:
127,370,58972,1,10,0:2:0:0:
346,384,59183,2,0,L|396:375,2,42.5,2|0|0,3:2|3:2|3:2,0:0:0:0:
278,337,59394,38,0,L|195:324,1,85,2|0,1:2|0:0,0:0:0:0:
512,382,59606,1,2,0:2:0:0:
511,341,59711,1,2,0:2:0:0:
476,312,59817,1,10,0:2:0:0:
346,384,60028,2,0,L|432:370,1,85,2|0,1:2|0:0,0:0:0:0:
195,324,60240,2,0,L|278:337,1,85,2|0,0:2|0:0,0:0:0:0:
44,384,60451,1,2,1:2:0:0:
85,377,60556,1,0,1:2:0:0:
127,370,60662,1,10,0:2:0:0:
11,275,60873,2,0,L|2:238,2,25,2|0|0,3:2|3:2|3:2,0:0:0:0:
0,305,61085,6,0,L|21:222,1,85,2|0,1:2|0:0,0:0:0:0:
52,40,61296,2,0,B|66:88|66:88|96:94|96:94|111:146,1,135,2|0,0:2|0:0,0:0:0:0:
7,298,61507,38,0,L|28:215,1,85,10|0,0:2|0:0,0:0:0:0:
59,33,61718,2,0,B|73:81|73:81|103:87|103:87|118:139,1,135,2|0,1:2|0:0,0:0:0:0:
215,44,61930,2,0,B|195:24|163:29|163:29|175:43|178:56,1,85,2|0,0:2|0:0,0:0:0:0:
326,124,62141,1,2,1:2:0:0:
353,119,62247,1,0,1:2:0:0:
380,114,62352,2,0,L|480:98,1,85,10|0,0:2|0:0,0:0:0:0:
311,12,62563,2,0,L|286:7,2,25,2|0|0,3:2|3:2|3:2,0:0:0:0:
506,27,62775,6,0,P|472:58|468:117,1,89.9999999999999,10|0,0:2|0:0,0:0:0:0:
469,319,62986,1,0,0:0:0:0:
502,305,63092,1,0,1:2:0:0:
512,274,63197,2,0,P|502:229|453:196,1,89.9999999999999,8|0,0:2|0:0,0:0:0:0:
259,287,63409,1,0,0:0:0:0:
272,336,63514,1,0,1:2:0:0:
284,379,63620,2,0,B|329:378|339:313|339:313|361:255|424:256|424:256|392:281|391:333,1,270,8|0,0:2|0:0,0:0:0:0:
376,384,64042,5,2,0:2:0:0:
332,349,64148,1,2,0:2:0:0:
272,336,64254,1,2,0:2:0:0:
198,344,64359,1,2,0:2:0:0:
138,384,64465,21,6,1:2:0:0:
120,328,64570,1,2,0:2:0:0:
68,312,64676,1,2,1:2:0:0:
22,340,64782,1,2,1:2:0:0:
138,384,64887,5,10,0:2:0:0:
120,328,64993,1,2,0:2:0:0:
102,272,65099,1,2,1:2:0:0:
30,227,65204,37,2,1:2:0:0:
22,243,65310,1,2,1:2:0:0:
125,194,65416,5,2,0:2:0:0:
107,138,65521,1,2,1:2:0:0:
89,82,65627,1,2,1:2:0:0:
66,26,65732,2,0,B|28:23|2:2|2:2|15:34|5:85,1,135,10|0,0:2|0:0,0:0:0:0:
17,93,65944,37,2,1:2:0:0:
26,119,66049,1,2,1:2:0:0:
125,194,66155,6,0,L|142:86,1,89.9999999999999,2|0,1:2|0:0,0:0:0:0:
230,28,66366,2,0,L|237:61,1,25,2|0,1:2|1:2,0:0:0:0:
337,128,66578,1,10,0:2:0:0:
343,110,66683,1,2,0:2:0:0:
364,38,66789,37,0,1:2:0:0:
416,94,66894,1,2,1:2:0:0:
440,23,67000,2,0,B|375:32|375:32|373:35|373:35|292:48,1,135,2|0,1:2|0:0,0:0:0:0:
235,52,67211,2,0,L|230:28,2,25,2|0|0,1:2|3:2|1:2,0:0:0:0:
181,110,67423,2,0,B|116:101|116:101|114:98|114:98|33:85,1,135,10|0,0:2|0:0,0:0:0:0:
0,29,67634,2,0,L|5:5,2,25,2|0|0,1:2|3:2|1:2,0:0:0:0:
65,166,67845,6,0,B|79:199|59:232|59:232|14:250|11:299,1,150,2|0,1:2|0:0,0:0:0:0:
90,329,68056,1,2,1:2:0:0:
107,311,68162,1,2,1:2:0:0:
84,304,68268,1,10,0:2:0:0:
22,387,68479,2,0,P|82:347|186:353,1,150,2|0,1:2|0:0,0:0:0:0:
238,361,68690,2,0,B|282:363|312:319|300:289|300:289|271:302|269:346,1,150,2|0,1:2|0:0,0:0:0:0:
367,357,68901,1,2,1:2:0:0:
385,362,69007,1,0,1:2:0:0:
403,367,69113,1,10,0:2:0:0:
479,293,69324,2,0,L|444:300,2,25,2|0|0,1:2|3:2|1:2,0:0:0:0:
403,367,69535,38,0,B|362:383|327:355|327:355|305:312|247:314,1,150,2|0,1:2|0:0,0:0:0:0:
157,343,69747,1,2,1:2:0:0:
191,379,69852,1,2,1:2:0:0:
238,361,69958,1,10,0:2:0:0:
104,287,70169,2,0,P|37:313|22:384,1,150,2|0,1:2|0:0,0:0:0:0:
39,383,70380,5,2,1:2:0:0:
55,364,70486,1,0,1:2:0:0:
56,332,70592,1,0,1:2:0:0:
43,305,70697,1,0,1:2:0:0:
13,275,70803,37,8,0:2:0:0:
89,251,70909,1,8,0:2:0:0:
129,176,71014,1,10,0:2:0:0:
98,89,71120,1,10,0:2:0:0:
5,60,71225,6,0,P|26:99|39:163,1,89.9999999999999,6|0,1:2|0:0,0:0:0:0:
222,62,71437,2,0,B|180:55|150:28|150:28|177:54|173:92,1,135,2|0,1:2|0:0,0:0:0:0:
113,135,71648,37,10,0:2:0:0:
98,89,71754,1,2,0:2:0:0:
129,176,71859,1,2,1:2:0:0:
222,62,71965,2,0,P|262:50|309:73,1,89.9999999999999,2|0,1:2|1:2,0:0:0:0:
397,170,72176,5,2,0:2:0:0:
448,154,72282,1,2,1:2:0:0:
356,135,72387,1,2,1:2:0:0:
465,28,72493,2,0,B|508:48|501:99|501:99|480:79|447:78,1,135,10|0,0:2|0:0,0:0:0:0:
385,55,72704,37,2,1:2:0:0:
390,38,72810,1,2,1:2:0:0:
448,154,72916,5,2,1:2:0:0:
458,193,73021,1,2,0:2:0:0:
468,232,73127,1,2,1:2:0:0:
478,271,73232,1,2,1:2:0:0:
399,323,73338,37,10,0:2:0:0:
404,306,73444,1,2,0:2:0:0:
299,352,73549,5,2,1:2:0:0:
312,365,73655,1,2,1:2:0:0:
479,378,73761,37,2,1:2:0:0:
496,373,73866,1,2,0:2:0:0:
409,289,73972,6,0,L|417:258,2,25,2|0|0,1:2|3:2|1:2,0:0:0:0:
325,378,74183,2,0,P|271:335|195:343,1,135,10|0,0:2|0:0,0:0:0:0:
134,337,74394,2,0,P|119:328|109:311,2,25,2|0|0,1:2|3:2|1:2,0:0:0:0:
75,381,74606,38,0,B|93:388|125:350|125:350|164:317|208:337,1,150,2|0,1:2|0:0,0:0:0:0:
46,299,74817,1,2,1:2:0:0:
43,269,74923,1,2,1:2:0:0:
18,288,75028,1,10,0:2:0:0:
136,214,75240,2,0,B|179:163|71:129|123:78,1,150,2|0,1:2|0:0,0:0:0:0:
122,80,75451,2,0,B|127:149|25:102|22:169,1,150,2|0,1:2|0:0,0:0:0:0:
67,251,75662,1,2,1:2:0:0:
40,240,75768,1,0,1:2:0:0:
43,269,75873,1,10,0:2:0:0:
57,27,76085,6,0,P|157:10|220:89,1,187.5,2|0,1:2|3:2,0:0:0:0:
332,158,76296,2,0,P|344:164|364:157,1,25,10|0,0:2|0:0,0:0:0:0:
143,116,76507,2,0,P|243:133|306:54,1,187.5,2|0,1:2|0:0,0:0:0:0:
406,19,76718,2,0,P|418:13|438:20,1,25,10|0,0:2|0:0,0:0:0:0:
453,187,76930,2,0,B|429:95|429:95|445:117|468:132,1,125,2|2,1:2|1:2,0:0:0:0:
479,308,77141,37,10,0:2:0:0:
405,298,77247,1,10,0:2:0:0:
391,226,77352,1,10,0:2:0:0:
453,187,77458,1,10,0:2:0:0:
508,239,77563,6,0,L|476:245,1,25,10|0,3:2|3:0,0:0:0:0:
453,187,77669,38,0,L|449:218,1,25,0|0,3:0|3:0,0:0:0:0:
391,226,77775,6,0,L|420:239,1,25,0|0,3:0|3:0,0:0:0:0:
405,298,77880,38,0,L|426:274,1,25,0|0,3:0|3:0,0:0:0:0:
479,308,77986,21,0,1:2:0:0:
453,187,78197,1,2,3:2:0:0:
409,301,78409,1,2,3:2:0:0:
409,301,78514,1,2,0:2:0:0:
508,239,78725,1,2,3:2:0:0:
391,226,78937,1,2,3:2:0:0:
483,312,79148,1,2,0:2:0:0:
483,312,79254,1,10,0:2:0:0:
256,254,79465,2,0,L|262:290,4,25,10|8|8|8|0,0:2|0:2|0:2|0:2|1:2,0:0:0:0:
30,237,79887,5,2,3:2:0:0:
116,323,80099,1,2,3:2:0:0:
116,323,80204,1,2,0:2:0:0:
0,306,80416,1,2,3:2:0:0:
102,247,80627,1,2,3:2:0:0:
53,363,80838,1,2,0:2:0:0:
53,363,80944,1,10,0:2:0:0:
256,254,81155,2,0,L|250:290,4,25,10|8|8|8|0,0:2|0:2|0:2|0:2|1:2,0:0:0:0:
311,0,81578,37,2,3:2:0:0:
388,94,81789,1,2,3:2:0:0:
388,94,81894,1,2,0:2:0:0:
274,66,82106,1,2,3:2:0:0:
382,17,82317,1,2,3:2:0:0:
321,128,82528,1,2,0:2:0:0:
321,128,82634,1,10,0:2:0:0:
260,278,82845,2,0,L|254:242,2,25,10|8|8,0:2|0:2|0:2,0:0:0:0:
278,384,83056,5,0,1:2:0:0:
278,384,83901,1,2,0:2:0:0:
283,347,84007,1,2,0:2:0:0:
306,324,84113,1,2,0:2:0:0:
370,315,84218,1,2,0:2:0:0:
397,254,84324,1,8,0:2:0:0:
397,254,84535,1,2,1:2:0:0:
397,254,84747,38,0,L|409:311,1,50,0|0,1:2|0:0,0:0:0:0:
487,185,84958,1,2,3:2:0:0:
357,110,85169,1,2,3:2:0:0:
357,110,85275,1,2,0:2:0:0:
188,147,85486,1,2,3:2:0:0:
419,150,85697,1,2,3:2:0:0:
295,67,85909,1,2,0:2:0:0:
295,67,86014,1,10,0:2:0:0:
494,18,86225,2,0,L|486:52,4,25,10|8|8|8|0,0:2|0:2|0:2|0:2|1:2,0:0:0:0:
25,185,86648,5,2,3:2:0:0:
155,110,86859,1,2,3:2:0:0:
155,110,86965,1,2,0:2:0:0:
324,147,87176,1,2,3:2:0:0:
93,150,87387,1,2,3:2:0:0:
217,67,87599,1,2,0:2:0:0:
217,67,87704,1,10,0:2:0:0:
18,18,87916,2,0,L|25:52,4,25,10|8|8|8|0,0:2|0:2|0:2|0:2|1:2,0:0:0:0:
256,280,88338,37,2,3:2:0:0:
179,171,88549,1,2,3:2:0:0:
179,171,88655,1,2,0:2:0:0:
366,212,88866,1,2,3:2:0:0:
115,238,89078,1,2,3:2:0:0:
205,87,89289,1,2,0:2:0:0:
205,87,89394,1,10,0:2:0:0:
359,337,89606,2,0,L|349:377,2,25,10|8|8,0:2|0:2|0:2,0:0:0:0:
410,137,89817,1,0,1:2:0:0:
433,64,90662,6,0,P|384:61|347:93,1,100,2|0,0:2|0:0,0:0:0:0:
390,224,90873,2,0,P|438:227|476:195,1,100,2|0,0:2|0:0,0:0:0:0:
410,137,91085,38,0,L|415:161,8,14.9999995422363,8|8|8|8|8|8|8|8|4,0:2|0:2|0:2|0:2|0:2|0:2|0:2|0:2|1:2,0:0:0:0:
290,323,91943,1,2,0:2:0:0:
265,296,92089,1,2,0:2:0:0:
172,383,92235,1,2,0:2:0:0:
158,202,92380,2,0,P|118:204|91:227,1,50,2|0,0:2|0:0,0:0:0:0:
25,318,92672,5,2,0:2:0:0:
0,291,92817,1,2,0:2:0:0:
109,208,92963,2,0,P|133:199|158:202,1,50,2|0,0:2|0:0,0:0:0:0:
250,259,93254,1,2,0:2:0:0:
265,296,93400,1,2,0:2:0:0:
174,384,93545,1,2,0:2:0:0:
416,249,93691,1,0,0:0:0:0:
401,286,93837,1,2,1:2:0:0:
338,174,93982,1,2,0:2:0:0:
338,174,94273,37,2,0:2:0:0:
353,137,94419,1,2,0:2:0:0:
197,92,94565,1,0,0:0:0:0:
5,243,94710,1,2,1:2:0:0:
20,206,94856,1,2,0:2:0:0:
158,203,95002,1,10,3:2:0:0:
173,166,95147,1,2,0:2:0:0:
338,174,95293,1,10,3:2:0:0:
353,137,95439,1,10,3:2:0:0:
497,144,95584,1,0,3:2:0:0:
498,139,95657,1,0,3:2:0:0:
500,134,95730,1,0,3:2:0:0:
502,130,95803,1,0,3:2:0:0:
504,125,95875,1,0,3:2:0:0:
506,120,95948,1,0,3:2:0:0:
508,116,96021,1,0,3:2:0:0:
510,111,96094,1,0,3:2:0:0:
512,107,96167,6,0,B|463:132|472:188|472:188|509:222|482:285,1,180,4|0,1:2|0:0,0:0:0:0:
410,343,96604,1,2,0:2:0:0:
463,352,96749,1,2,0:2:0:0:
379,383,96895,1,2,0:2:0:0:
379,383,97040,2,0,P|359:370|338:366,3,45,2|0|2|0,3:2|3:2|3:2|3:2,0:0:0:0:
215,375,97332,37,2,3:2:0:0:
278,326,97477,1,2,3:2:0:0:
107,274,97623,2,0,L|117:322,3,45,2|0|2|0,3:2|3:2|3:2|3:2,0:0:0:0:
20,369,97914,1,2,3:2:0:0:
15,352,98060,5,2,0:2:0:0:
168,187,98206,1,2,3:2:0:0:
0,159,98351,1,2,3:2:0:0:
135,0,98497,1,2,1:2:0:0:
3,40,98642,37,0,1:2:0:0:
80,130,98788,1,0,1:2:0:0:
189,107,98934,1,0,1:2:0:0:
252,39,99079,1,0,1:2:0:0:
336,32,99225,1,0,1:2:0:0:
396,83,99371,1,0,1:2:0:0:
452,116,99516,1,0,1:2:0:0:
503,99,99662,1,0,1:2:0:0:
509,57,99807,1,0,1:2:0:0:
487,28,99953,1,0,1:2:0:0:
464,24,100099,1,0,1:2:0:0:
448,32,100244,5,0,1:2:0:0:
449,43,100317,1,0,0:0:0:0:
451,58,100390,1,0,1:2:0:0:
453,76,100463,1,0,0:0:0:0:
458,101,100536,1,0,1:2:0:0:
462,129,100608,1,0,3:2:0:0:
467,162,100681,1,0,3:2:0:0:
473,205,100754,1,0,3:2:0:0:
480,257,100827,38,0,B|453:201|453:201|486:141|486:141|447:84,1,180,6|0,1:2|3:2,0:0:0:0:
366,17,101264,1,2,0:2:0:0:
388,97,101409,1,2,0:2:0:0:
448,32,101555,1,2,0:2:0:0:
287,27,101701,2,0,L|234:38,3,45,2|0|2|0,3:2|3:2|3:2|3:2,0:0:0:0:
182,90,101992,2,0,L|78:67,1,89.9999999999999,10|2,0:2|3:2,0:0:0:0:
8,16,102283,2,0,L|18:64,3,45,2|0|2|0,3:2|3:2|3:2|3:2,0:0:0:0:
50,203,102574,1,2,3:2:0:0:
57,223,102720,5,2,3:2:0:0:
329,155,102866,2,0,L|340:101,3,45,2|0|2|0,3:2|0:0|3:2|0:0,0:0:0:0:
279,384,103157,38,0,B|286:328|349:321|349:321|385:354|440:345,1,180,2|0,1:2|3:2,0:0:0:0:
512,228,103594,1,2,0:2:0:0:
409,272,103740,1,2,0:2:0:0:
506,368,103885,1,2,0:2:0:0:
449,178,104031,2,0,L|436:131,2,45,2|0|2,1:2|3:2|3:2,0:0:0:0:
419,346,104322,1,10,0:2:0:0:
271,301,104468,1,2,3:2:0:0:
143,384,104613,1,2,3:2:0:0:
41,361,104759,1,2,3:2:0:0:
54,345,104905,1,2,3:2:0:0:
67,329,105050,5,2,3:2:0:0:
279,384,105196,1,2,3:2:0:0:
346,170,105341,1,2,3:2:0:0:
134,115,105487,1,2,1:2:0:0:
124,145,105633,2,0,B|151:144|170:156|170:156|164:134|166:108,1,89.9999999999999,2|0,0:2|3:2,0:0:0:0:
14,14,105924,37,2,0:2:0:0:
33,96,106070,1,2,0:2:0:0:
194,42,106215,1,2,0:2:0:0:
120,221,106361,2,0,P|94:217|71:200,3,45,2|0|2|0,3:2|3:2|3:2|3:2,0:0:0:0:
0,175,106652,2,0,L|22:280,1,89.9999999999999,10|2,0:2|3:2,0:0:0:0:
44,375,106943,2,0,L|0:365,3,45,2|0|2|0,3:2|3:2|3:2|3:2,0:0:0:0:
174,384,107235,1,2,3:2:0:0:
124,145,107380,1,2,3:2:0:0:
378,228,107526,2,0,P|396:214|431:216,3,45,2|0|2|0,3:2|3:2|3:2|3:2,0:0:0:0:
510,376,107817,6,0,B|432:386|379:326|404:257|404:257|394:247|394:247|497:202|522:83|451:32|451:32|472:70|450:119,1,540,2|0,1:2|0:0,0:0:0:0:
387,75,108982,2,0,L|311:68,1,75,2|0,0:2|0:0,0:0:0:0:
65,154,109565,1,8,0:2:0:0:
112,195,109638,1,8,0:2:0:0:
166,184,109710,1,8,0:2:0:0:
192,146,109783,1,8,0:2:0:0:
196,108,109856,1,8,0:2:0:0:
185,85,109929,1,8,0:2:0:0:
167,72,110002,1,8,0:2:0:0:
149,68,110074,1,8,0:2:0:0:
136,70,110147,6,0,L|159:182,1,100,6|2,1:2|3:2,0:0:0:0:
195,363,110730,1,2,0:2:0:0:
60,265,111021,2,0,L|24:257,3,25,2|0|0|0,3:2|3:2|3:2|3:2,0:0:0:0:
68,374,111312,2,0,P|89:345|125:342,1,75,10|0,0:2|0:0,0:0:0:0:
195,363,111604,2,0,L|230:355,3,25,2|0|0|0,3:2|3:2|3:2|3:2,0:0:0:0:
255,285,111895,1,2,3:2:0:0:
323,384,112040,1,0,3:2:0:0:
421,287,112186,2,0,L|414:254,3,25,2|0|0|0,3:2|3:2|3:2|3:2,0:0:0:0:
370,206,112477,6,0,L|392:99,1,100,2|2,1:2|3:2,0:0:0:0:
497,236,113060,1,2,0:2:0:0:
453,34,113351,2,0,L|409:43,3,25,2|0|0|0,1:2|3:2|3:2|3:2,0:0:0:0:
338,52,113642,1,10,0:2:0:0:
203,29,113788,2,0,L|270:43,1,50,0|2,3:2|3:2,0:0:0:0:
142,79,114007,2,0,L|108:86,2,25,0|0|0,3:2|3:2|3:2,0:0:0:0:
16,25,114225,1,2,3:2:0:0:
40,134,114371,1,0,3:2:0:0:
64,243,114516,2,0,L|70:210,3,25,2|0|2|0,3:2|3:2|3:2|3:2,0:0:0:0:
54,324,114807,38,0,B|29:320|15:329|15:329|15:307|3:296,1,75,2|0,1:2|0:0,0:0:0:0:
0,308,115099,2,0,B|11:318|11:340|11:340|25:331|50:335,1,75,2|0,3:2|0:0,0:0:0:0:
129,371,115390,2,0,L|209:351,1,75,2|0,0:2|0:0,0:0:0:0:
280,331,115681,2,0,L|273:301,3,25,2|0|0|0,3:2|3:2|3:2|3:2,0:0:0:0:
391,241,115973,1,10,0:2:0:0:
369,384,116118,1,0,3:2:0:0:
512,334,116264,2,0,L|482:327,3,25,2|0|0|0,3:2|3:2|3:2|3:2,0:0:0:0:
380,314,116555,1,2,3:2:0:0:
512,254,116701,1,0,3:2:0:0:
385,216,116846,2,0,L|390:240,3,25,2|0|0|0,3:2|3:2|3:2|3:2,0:0:0:0:
379,132,117138,6,0,B|354:136|340:127|340:127|340:149|328:160,1,75,2|0,1:2|0:0,0:0:0:0:
325,148,117429,2,0,B|336:138|336:116|336:116|350:125|375:121,1,75,2|0,3:2|0:0,0:0:0:0:
426,49,117720,2,0,P|447:22|496:23,1,75,2|0,0:2|0:0,0:0:0:0:
495,121,118011,2,0,L|487:83,3,25,2|0|0|0,1:2|3:2|3:2|3:2,0:0:0:0:
343,42,118303,37,10,0:2:0:0:
313,68,118375,1,0,3:2:0:0:
270,67,118448,1,0,3:2:0:0:
236,48,118521,1,0,3:2:0:0:
221,15,118594,2,0,L|213:52,1,25,0|0,3:2|3:2,0:0:0:0:
142,103,118740,2,0,L|134:65,1,25,0|0,3:2|3:2,0:0:0:0:
35,11,118885,6,0,L|22:69,1,50,0|2,3:2|1:2,0:0:0:0:
313,349,119468,38,0,B|371:367|407:319|397:318|425:253|499:283,1,200,6|2,1:2|3:2,0:0:0:0:
313,349,120050,1,2,0:2:0:0:
475,362,120341,2,0,L|468:342,3,12.5,2|0|0|0,3:2|3:2|3:2|3:2,0:0:0:0:
395,302,120633,2,0,P|343:302|312:357,1,112.5,10|0,0:2|0:0,0:0:0:0:
243,384,120924,2,0,L|210:377,3,25,2|0|0|0,3:2|3:2|3:2|3:2,0:0:0:0:
140,348,121215,1,2,3:2:0:0:
0,384,121361,1,0,3:2:0:0:
49,289,121506,2,0,L|56:324,3,25,2|0|0|0,3:2|3:2|3:2|3:2,0:0:0:0:
0,220,121798,6,0,B|-19:180|5:149|5:149|55:118|30:70,1,150,2|2,1:2|3:2,0:0:0:0:
89,215,122380,1,2,0:2:0:0:
187,27,122672,2,0,L|142:17,3,37.5,2|0|0|0,1:2|3:2|3:2|3:2,0:0:0:0:
317,107,122963,1,10,0:2:0:0:
396,82,123108,1,0,3:2:0:0:
476,58,123254,2,0,L|523:45,3,37.5,2|0|0|0,3:2|3:2|3:2|3:2,0:0:0:0:
368,3,123545,1,2,3:2:0:0:
396,82,123691,1,0,3:2:0:0:
424,161,123837,2,0,L|440:207,3,37.5,2|0|2|0,3:2|3:2|3:2|3:2,0:0:0:0:
504,295,124128,38,0,P|448:317|433:368,1,112.5,2|0,1:2|0:0,0:0:0:0:
429,372,124419,2,0,P|437:312|401:274,1,112.5,2|0,3:2|0:0,0:0:0:0:
399,268,124710,2,0,P|446:305|497:292,1,112.5,2|0,0:2|0:0,0:0:0:0:
436,196,125002,2,0,L|424:161,3,37.5,2|0|0|0,3:2|3:2|3:2|3:2,0:0:0:0:
512,218,125293,1,10,0:2:0:0:
354,338,125439,1,0,3:2:0:0:
506,329,125584,2,0,L|493:293,3,37.5,2|0|0|0,3:2|3:2|3:2|3:2,0:0:0:0:
418,384,125875,1,2,3:2:0:0:
234,303,126021,1,0,3:2:0:0:
318,350,126167,2,0,L|353:337,3,37.5,2|0|0|0,3:2|3:2|3:2|3:2,0:0:0:0:
436,196,126458,6,0,B|340:196|340:196|316:166|316:166|256:268|256:268|198:170|198:170|166:170|166:170|136:124|136:124|104:173|104:173|36:173,1,562.5,2|0,1:2|0:0,0:0:0:0:
32,154,127623,2,0,L|71:154,6,25,2|0|0|0|0|0|0,1:2|0:0|0:0|0:0|0:0|0:0|0:0,0:0:0:0:
132,317,128788,6,0,B|140:310|114:375|45:341|42:277|64:317|143:364|114:284,1,150,2|0,1:2|0:0,0:0:0:0:
64,246,128999,2,0,B|75:236|47:264|13:202|120:165|69:168,1,100,2|0,3:2|3:2,0:0:0:0:
23,57,129210,2,0,B|3:39|61:8|80:21|91:37|51:53,1,100,2|0,3:2|3:2,0:0:0:0:
85,170,129421,2,0,B|131:166|24:203|58:265|86:237|75:247,1,100,2|0,1:2|0:0,0:0:0:0:
130,328,129633,6,0,B|139:317|113:382|44:348|41:284|63:324|142:371|118:308,1,150,2|0,3:2|0:0,0:0:0:0:
196,334,129844,2,0,B|250:289|223:355|199:383|234:400|276:363,1,100,2|0,3:2|3:2,0:0:0:0:
397,308,130055,1,10,0:2:0:0:
385,339,130161,1,2,0:2:0:0:
398,360,130266,2,0,B|419:375|429:380|444:362|467:378|467:378|471:313|505:327,1,150,2|0,0:2|0:0,0:0:0:0:
503,254,130478,38,0,B|518:203|473:207|462:169,1,100,2|0,1:2|0:0,0:0:0:0:
452,33,130689,2,0,B|477:68|507:58|488:8|412:67,1,100,2|0,3:2|3:2,0:0:0:0:
300,50,130900,2,0,B|350:20|335:138|377:178|410:111,1,150,2|0,3:2|0:0,0:0:0:0:
451,175,131111,2,0,B|462:213|506:208|491:259,1,100,2|0,1:2|0:0,0:0:0:0:
505,327,131323,2,0,B|471:313|467:378|467:378|444:362|429:380|419:375|398:360,1,150,2|0,3:2|0:0,0:0:0:0:
328,337,131534,2,0,P|299:338|276:364,1,50,2|0,3:2|3:2,0:0:0:0:
210,384,131745,6,0,L|167:184,1,200,10|0,0:2|0:0,0:0:0:0:
135,18,132168,37,2,1:2:0:0:
135,18,132379,5,0,3:0:0:0:
103,54,132485,1,0,3:2:0:0:
58,63,132590,1,10,0:2:0:0:
17,38,132696,1,0,3:0:0:0:
45,87,132802,1,0,3:2:0:0:
97,98,132907,1,0,3:0:0:0:
150,76,133013,1,2,1:2:0:0:
181,31,133118,1,0,3:0:0:0:
235,5,133224,1,2,0:2:0:0:
293,8,133330,1,0,3:2:0:0:
343,40,133435,2,0,P|370:73|376:130,1,75,10|0,0:2|0:0,0:0:0:0:
383,229,133647,2,0,P|398:189|444:155,1,75,2|0,3:2|0:0,0:0:0:0:
493,364,133858,37,2,1:2:0:0:
493,364,134069,5,0,3:0:0:0:
450,334,134175,1,0,3:2:0:0:
400,349,134280,1,8,0:2:0:0:
396,333,134386,1,0,3:0:0:0:
455,316,134492,1,0,3:2:0:0:
505,353,134597,1,0,3:0:0:0:
404,365,134703,37,0,1:2:0:0:
398,298,134809,1,0,3:0:0:0:
434,236,134914,1,8,0:2:0:0:
502,215,135020,1,0,3:0:0:0:
406,165,135126,5,8,0:2:0:0:
354,62,135231,1,8,0:2:0:0:
503,41,135337,1,8,0:2:0:0:
458,104,135442,1,8,0:2:0:0:
354,62,135548,38,0,L|360:37,1,15,2|0,1:2|0:0,0:0:0:0:
285,49,135759,2,0,L|291:24,1,15,2|0,3:2|3:2,0:0:0:0:
215,38,135971,2,0,L|221:13,1,15,2|0,3:2|3:2,0:0:0:0:
354,62,136182,6,0,L|360:37,1,15,2|0,1:2|0:0,0:0:0:0:
285,49,136393,2,0,L|291:24,1,15,2|0,3:2|3:2,0:0:0:0:
215,38,136604,1,2,3:2:0:0:
146,27,136710,1,0,3:2:0:0:
77,15,136816,1,10,0:2:0:0:
6,4,136921,1,2,0:2:0:0:
25,75,137027,38,0,L|27:80,1,5,2|0,0:2|0:0,0:0:0:0:
25,161,137238,2,0,L|28:156,1,5,2|0,1:2|0:0,0:0:0:0:
100,118,137449,2,0,L|94:117,1,5,2|0,3:2|3:2,0:0:0:0:
28,242,137661,6,0,L|25:247,1,5,2|0,3:2|3:2,0:0:0:0:
94,203,137872,2,0,L|100:204,1,5,2|0,1:2|0:0,0:0:0:0:
27,166,138083,2,0,L|25:161,1,5,2|0,3:2|3:2,0:0:0:0:
100,288,138295,37,2,3:2:0:0:
100,288,138400,1,0,3:2:0:0:
100,288,138506,2,0,L|96:304,1,15,10|0,0:2|0:0,0:0:0:0:
17,341,138928,5,2,1:2:0:0:
50,371,139034,1,0,3:0:0:0:
98,377,139140,1,2,0:2:0:0:
144,368,139245,1,0,3:0:0:0:
176,336,139351,38,0,P|200:316|238:315,1,60,10|0,0:2|0:0,0:0:0:0:
360,373,139562,2,0,P|330:362|310:329,1,60,2|0,1:2|0:0,0:0:0:0:
385,233,139773,2,0,P|414:243|434:276,1,60,2|0,1:2|0:0,0:0:0:0:
512,377,139985,2,0,L|499:316,1,60,2|0,0:2|0:0,0:0:0:0:
397,174,140196,2,0,L|384:234,1,60,10|0,0:2|0:0,0:0:0:0:
492,96,140407,2,0,L|504:156,1,60,2|0,1:2|0:0,0:0:0:0:
397,8,140618,6,0,L|384:68,1,60,2|0,1:2|0:0,0:0:0:0:
197,101,140830,1,8,0:2:0:0:
215,74,140935,1,8,0:2:0:0:
245,62,141041,2,0,P|284:66|307:89,1,60,0|0,1:2|0:0,0:0:0:0:
504,154,141252,2,0,L|492:96,1,60,8|0,0:2|0:0,0:0:0:0:
397,174,141464,2,0,L|384:234,1,60,2|0,1:2|0:0,0:0:0:0:
197,101,141675,1,8,0:2:0:0:
215,74,141780,1,8,0:2:0:0:
245,62,141886,2,0,P|284:66|307:89,1,60,0|0,1:2|0:0,0:0:0:0:
504,154,142097,2,0,L|492:96,1,60,8|0,0:2|0:0,0:0:0:0:
397,174,142309,38,0,B|374:275|374:275|376:279|376:279|351:381|351:381|396:341|467:340|467:340|476:353|476:353|440:271|339:258|320:194|320:194|343:116|343:116|366:170|452:203|537:151|517:36|488:2|415:-6|374:5|350:44|350:44|305:4|226:4|183:40|183:40|229:87|191:152|191:152|115:137|115:69|115:69|44:106|72:182|126:207|126:207|129:215|129:215|177:252|170:320|102:356|43:323|48:283,1,1885,2|0,1:2|0:0,0:0:0:0:
48,294,145478,2,0,L|56:226,1,50,2|2,0:2|0:2,0:0:0:0:
58,207,145689,6,0,L|35:402,1,175,2|0,0:2|0:0,0:0:0:0:
37,380,146745,38,0,L|58:207,1,175,2|2,0:2|0:2,0:0:0:0:
74,66,146957,2,0,B|54:49|48:33|48:33|53:51|42:77,7,87.4999999999999,0|0|0|0|0|0|0|0,3:2|3:2|3:2|3:2|3:2|3:2|3:2|3:2,0:0:0:0:
116,144,147379,22,0,P|161:144|204:103,1,85,6|0,1:2|0:0,0:0:0:0:
399,60,147590,1,2,0:2:0:0:
369,38,147696,1,2,0:2:0:0:
336,24,147802,2,0,L|354:113,1,85,10|0,0:2|0:0,0:0:0:0:
477,216,148013,2,0,L|495:127,1,85,2|0,1:2|0:0,0:0:0:0:
393,300,148224,2,0,L|410:384,1,85,2|0,0:2|0:0,0:0:0:0:
477,216,148435,1,2,1:2:0:0:
485,174,148541,1,0,1:2:0:0:
493,132,148647,1,10,0:2:0:0:
344,65,148858,2,0,L|352:107,2,42.5,2|0|0,3:2|3:2|3:2,0:0:0:0:
192,121,149069,6,0,P|150:120|115:143,1,85,2|0,1:2|0:0,0:0:0:0:
40,361,149280,1,2,0:2:0:0:
73,369,149386,1,2,0:2:0:0:
106,376,149492,2,0,L|86:282,1,85,10|0,0:2|0:0,0:0:0:0:
17,163,149703,2,0,L|-3:257,1,85,2|0,1:2|0:0,0:0:0:0:
138,83,149914,2,0,L|120:0,1,85,2|0,0:2|0:0,0:0:0:0:
17,163,150126,1,2,1:2:0:0:
8,204,150231,1,0,1:2:0:0:
0,246,150337,2,0,P|31:205|81:196,1,85,10|0,0:2|0:0,0:0:0:0:
243,285,150548,2,0,L|230:354,2,42.5,2|0|0,3:2|3:2|3:2,0:0:0:0:
195,84,150759,38,0,B|201:62|234:44|274:46|307:64|307:64|307:102|328:118,1,187.5,2|0,1:2|0:0,0:0:0:0:
328,118,150971,2,0,L|378:62,1,75,2|0,0:2|0:0,0:0:0:0:
512,96,151182,2,0,B|506:118|473:136|433:134|400:116|400:116|400:78|378:62,1,187.5,10|0,0:2|0:0,0:0:0:0:
379,63,151393,2,0,L|327:118,1,75,2|0,1:2|0:0,0:0:0:0:
172,162,151604,2,0,P|126:137|119:86,1,85,2|0,0:2|0:0,0:0:0:0:
0,246,151816,1,2,1:2:0:0:
15,288,151921,1,0,1:2:0:0:
33,328,152027,2,0,P|79:303|86:252,1,85,10|0,0:2|0:0,0:0:0:0:
195,84,152238,2,0,L|204:39,2,42.5,2|0|0,3:2|3:2|3:2,0:0:0:0:
43,80,152449,6,0,P|68:41|124:38,1,85,2|0,1:2|0:0,0:0:0:0:
327,117,152661,1,2,0:2:0:0:
390,166,152766,1,2,0:2:0:0:
463,131,152872,1,10,0:2:0:0:
464,50,152978,1,0,3:0:0:0:
392,14,153083,1,2,1:2:0:0:
392,14,153295,37,2,1:2:0:0:
464,50,153400,1,0,1:2:0:0:
463,131,153506,1,0,1:2:0:0:
390,166,153611,1,0,1:2:0:0:
327,117,153717,6,0,L|352:111,1,20,8|0,3:2|3:2,0:0:0:0:
370,138,153823,38,0,L|372:112,1,20,8|0,0:2|3:2,0:0:0:0:
403,103,153928,6,0,L|378:93,1,20,8|0,0:2|3:2,0:0:0:0:
379,60,154034,38,0,L|362:79,1,20,8|0,0:2|3:2,0:0:0:0:
330,69,154140,6,0,P|333:115|344:176,1,85,2|0,1:2|0:0,0:0:0:0:
472,314,154351,1,2,0:2:0:0:
487,289,154457,1,2,0:2:0:0:
502,265,154562,2,0,L|411:246,1,85,10|0,0:2|0:0,0:0:0:0:
327,384,154773,2,0,L|418:365,1,85,2|0,1:2|0:0,0:0:0:0:
201,342,154985,2,0,L|110:323,1,85,2|0,0:2|0:0,0:0:0:0:
327,384,155196,1,2,1:2:0:0:
368,375,155302,1,0,1:2:0:0:
410,366,155407,1,10,0:2:0:0:
201,342,155618,2,0,L|160:334,2,42.5,2|0|0,3:2|3:2|3:2,0:0:0:0:
418,247,155830,38,0,L|399:159,1,85,2|0,1:2|0:0,0:0:0:0:
294,8,156041,1,2,0:2:0:0:
279,33,156147,1,2,0:2:0:0:
264,57,156252,2,0,L|355:76,1,85,10|0,0:2|0:0,0:0:0:0:
500,6,156464,2,0,L|409:25,1,85,2|0,1:2|0:0,0:0:0:0:
181,75,156675,2,0,L|97:92,1,85,2|0,0:2|0:0,0:0:0:0:
17,269,156886,1,2,1:2:0:0:
60,253,156992,1,0,1:2:0:0:
83,213,157097,2,0,P|59:169|15:168,1,85,10|0,0:2|0:0,0:0:0:0:
122,311,157309,2,0,P|136:328|171:338,2,42.5,2|0|0,3:2|3:2|3:2,0:0:0:0:
27,163,157520,6,0,B|0:122|30:84|30:84|97:55|87:9,1,187.5,2|0,1:2|0:0,0:0:0:0:
87,9,157731,2,0,L|66:31,1,25,2|0,0:2|0:0,0:0:0:0:
75,163,157942,2,0,B|101:122|71:84|71:84|4:55|14:9,1,187.5,10|0,0:2|0:0,0:0:0:0:
14,9,158154,2,0,L|35:31,1,25,2|0,1:2|0:0,0:0:0:0:
181,75,158365,37,2,0:2:0:0:
215,31,158471,1,0,0:0:0:0:
268,13,158576,1,2,1:2:0:0:
322,24,158682,1,0,1:2:0:0:
362,62,158788,2,0,P|388:99|421:108,1,75,10|0,0:2|0:0,0:0:0:0:
494,36,158999,2,0,L|501:0,2,37.5,2|0|0,3:2|3:2|3:2,0:0:0:0:
467,218,159210,6,0,B|478:152|478:152|463:170|441:173,1,89.9999999999999,10|0,0:2|0:0,0:0:0:0:
424,373,159421,1,0,0:0:0:0:
468,356,159527,1,0,1:2:0:0:
508,343,159633,2,0,B|519:277|519:277|504:295|482:298,1,89.9999999999999,8|0,0:2|0:0,0:0:0:0:
380,383,159844,1,0,0:0:0:0:
392,321,159949,1,0,1:2:0:0:
401,259,160055,2,0,B|324:235|295:300|295:300|287:295|287:295|250:371|178:344,1,270,8|0,0:2|0:0,0:0:0:0:
77,366,160478,37,10,0:2:0:0:
116,311,160583,1,10,0:2:0:0:
77,256,160689,1,10,0:2:0:0:
12,277,160795,1,10,0:2:0:0:
12,345,160900,5,6,1:2:0:0:
66,318,161006,1,2,0:2:0:0:
77,256,161111,1,2,1:2:0:0:
34,210,161217,1,2,1:2:0:0:
12,277,161323,37,10,0:2:0:0:
34,210,161428,1,2,0:2:0:0:
56,143,161534,1,2,1:2:0:0:
134,185,161640,5,2,1:2:0:0:
139,200,161745,1,2,1:2:0:0:
120,101,161851,37,2,0:2:0:0:
87,67,161957,1,2,1:2:0:0:
42,63,162062,1,2,1:2:0:0:
5,87,162168,2,0,L|139:62,1,135,10|0,0:2|0:0,0:0:0:0:
161,56,162379,5,2,1:2:0:0:
156,41,162485,1,2,1:2:0:0:
134,185,162590,38,0,L|115:273,1,89.9999999999999,2|0,1:2|0:0,0:0:0:0:
20,368,162802,1,2,1:2:0:0:
12,341,162907,1,0,1:2:0:0:
102,356,163013,5,10,0:2:0:0:
158,382,163118,1,2,0:2:0:0:
212,360,163224,1,0,1:2:0:0:
220,336,163330,1,2,1:2:0:0:
306,329,163435,37,2,1:2:0:0:
298,353,163541,1,2,0:2:0:0:
353,384,163647,1,2,1:2:0:0:
417,374,163752,1,0,1:2:0:0:
452,322,163858,2,0,B|425:292|451:255|453:262|485:227|461:185,1,135,10|0,0:2|0:0,0:0:0:0:
380,192,164069,2,0,P|389:206|410:213,2,25,2|0|0,1:2|3:2|1:2,0:0:0:0:
347,45,164280,6,0,B|447:20|447:20|417:42|418:58,1,150,2|0,1:2|0:0,0:0:0:0:
483,87,164492,1,2,1:2:0:0:
469,112,164597,1,2,1:2:0:0:
439,122,164703,1,10,0:2:0:0:
267,48,164914,2,0,B|226:40|193:69|193:69|178:115|128:118,1,150,2|0,1:2|0:0,0:0:0:0:
71,96,165126,2,0,P|51:51|126:46,1,150,2|0,1:2|0:0,0:0:0:0:
90,170,165337,1,2,1:2:0:0:
82,194,165442,1,0,1:2:0:0:
74,218,165548,1,10,0:2:0:0:
267,48,165759,2,0,L|260:15,2,25,2|0|0,1:2|3:2|1:2,0:0:0:0:
367,132,165971,38,0,B|467:157|467:157|437:135|438:119,1,150,2|0,1:2|0:0,0:0:0:0:
503,90,166182,1,2,1:2:0:0:
489,65,166288,1,2,1:2:0:0:
459,55,166393,1,10,0:2:0:0:
394,242,166604,2,0,P|406:327|476:356,1,150,2|0,1:2|0:0,0:0:0:0:
476,350,166816,5,2,1:2:0:0:
466,326,166921,1,0,1:2:0:0:
422,309,167027,1,0,1:2:0:0:
370,323,167133,1,0,1:2:0:0:
341,373,167238,37,8,0:2:0:0:
426,366,167344,1,8,0:2:0:0:
481,294,167449,1,10,0:2:0:0:
470,207,167555,1,10,0:2:0:0:
393,159,167661,6,0,B|406:174|404:200|404:200|420:182|453:174,1,89.9999999999999,6|0,1:2|0:0,0:0:0:0:
381,22,167872,2,0,B|337:42|337:102|337:102|355:82|382:83,1,135,2|0,1:2|0:0,0:0:0:0:
506,30,168083,37,10,0:2:0:0:
445,99,168189,1,2,0:2:0:0:
502,88,168295,1,2,1:2:0:0:
381,22,168400,2,0,P|339:6|290:12,1,89.9999999999999,2|0,1:2|1:2,0:0:0:0:
128,85,168611,5,2,0:2:0:0:
227,43,168717,1,2,1:2:0:0:
191,97,168823,1,2,1:2:0:0:
53,161,168928,2,0,B|23:141|28:112|51:92|51:92|50:119|77:145,1,135,10|0,0:2|0:0,0:0:0:0:
141,167,169140,37,2,1:2:0:0:
148,187,169245,1,2,1:2:0:0:
64,242,169351,1,2,1:2:0:0:
54,277,169457,1,2,0:2:0:0:
44,312,169562,1,2,1:2:0:0:
32,351,169668,1,2,1:2:0:0:
138,380,169773,5,10,0:2:0:0:
131,360,169879,1,2,0:2:0:0:
64,242,169985,37,2,1:2:0:0:
54,277,170090,1,2,1:2:0:0:
148,187,170196,5,2,1:2:0:0:
141,167,170302,1,2,0:2:0:0:
34,93,170407,38,0,L|20:135,2,25,2|0|0,1:2|3:2|1:2,0:0:0:0:
176,27,170618,2,0,B|245:41|245:41|248:45|248:45|325:61,1,135,10|0,0:2|0:0,0:0:0:0:
381,64,170830,2,0,L|369:19,2,25,2|0|0,1:2|3:2|1:2,0:0:0:0:
512,149,171041,6,0,B|442:163|442:163|439:167|439:167|362:183,1,135,2|0,1:2|0:0,0:0:0:0:
408,76,171252,1,2,1:2:0:0:
440,71,171358,1,2,1:2:0:0:
419,45,171464,1,10,0:2:0:0:
512,149,171675,2,0,B|550:212|425:230|474:295,1,165,2|0,1:2|0:0,0:0:0:0:
471,291,171886,2,0,B|488:216|367:259|381:178,1,165,2|0,1:2|0:0,0:0:0:0:
429,103,172097,1,2,1:2:0:0:
440,71,172203,1,0,1:2:0:0:
408,77,172309,1,10,0:2:0:0:
317,351,172520,38,0,B|324:374|353:401|393:391|413:355|398:317|398:317|409:343|430:356,1,187.5,2|0,1:2|3:2,0:0:0:0:
471,291,172731,2,0,L|494:283,1,25,10|0,0:2|0:0,0:0:0:0:
197,350,172942,6,0,B|189:373|160:400|120:390|100:354|115:316|115:316|104:342|83:355,1,187.5,2|0,1:2|0:0,0:0:0:0:
43,290,173154,2,0,L|19:282,1,25,10|0,0:2|0:0,0:0:0:0:
188,152,173365,2,0,L|338:119,1,135,2|2,1:2|1:2,0:0:0:0:
457,176,173576,37,10,0:2:0:0:
325,146,173682,1,10,0:2:0:0:
193,116,173788,1,10,0:2:0:0:
61,86,173893,1,10,0:2:0:0:
271,0,173999,6,0,L|255:84,1,60,10|0,0:2|0:0,0:0:0:0:
201,327,174210,2,0,L|193:366,3,22.5,10|0|0|0,0:2|0:0|0:0|0:0,0:0:0:0:
191,377,174421,6,0,L|272:359,1,75,4|0,1:2|0:0,0:0:0:0:
487,303,174633,2,0,L|405:285,1,75,2|0,3:2|0:0,0:0:0:0:
123,227,174844,1,10,0:2:0:0:
123,227,174949,2,0,L|41:209,1,75,2|0,0:0|3:2,0:0:0:0:
398,144,175161,2,0,L|471:127,1,75,2|0,0:0|1:2,0:0:0:0:
394,56,175372,2,0,L|321:73,1,75,2|0,3:2|3:2,0:0:0:0:
84,119,175583,1,2,3:2:0:0:
84,119,175689,2,0,L|2:101,1,75,10|0,0:2|0:0,0:0:0:0:
195,72,175900,2,0,L|187:33,3,22.5,2|0|0|0,3:2|3:2|3:2|3:2,0:0:0:0:
185,22,176111,6,0,L|266:40,1,75,0|0,1:2|0:0,0:0:0:0:
471,126,176323,2,0,L|389:144,1,75,2|0,3:2|0:0,0:0:0:0:
123,227,176534,1,10,0:2:0:0:
123,227,176640,2,0,L|41:245,1,75,2|0,0:0|3:2,0:0:0:0:
409,285,176851,2,0,L|482:301,1,75,2|0,0:0|1:2,0:0:0:0:
395,370,177062,2,0,L|321:353,1,75,2|0,3:2|3:2,0:0:0:0:
74,326,177273,1,2,3:2:0:0:
74,326,177379,2,0,L|-8:344,1,75,10|0,0:2|0:0,0:0:0:0:
204,375,177590,2,0,L|230:380,3,22.5,2|0|0|0,3:2|3:2|3:2|3:2,0:0:0:0:
248,384,177802,38,0,L|230:301,1,75,0|0,1:2|0:0,0:0:0:0:
138,153,178013,2,0,L|120:235,1,75,2|0,3:2|0:0,0:0:0:0:
305,77,178224,1,10,0:2:0:0:
305,77,178330,2,0,L|287:-5,1,75,2|0,0:0|3:2,0:0:0:0:
138,153,178541,2,0,L|120:235,1,75,2|0,3:2|1:2,0:0:0:0:
64,76,178752,2,0,L|46:158,1,75,2|0,3:2|3:2,0:0:0:0:
305,77,178964,1,2,3:2:0:0:
305,77,179069,2,0,L|287:-5,1,75,10|0,0:2|0:0,0:0:0:0:
433,149,179280,2,0,L|425:183,4,22.5,2|0|0|0|0,3:2|3:2|3:2|3:2|1:2,0:0:0:0:
443,360,179703,5,2,3:2:0:0:
395,324,179809,1,0,3:0:0:0:
413,269,179914,1,8,0:2:0:0:
472,269,180020,1,0,3:0:0:0:
490,324,180126,1,2,3:2:0:0:
506,332,180337,37,0,1:2:0:0:
483,260,180442,1,0,1:2:0:0:
406,259,180548,1,2,1:2:0:0:
382,332,180654,1,0,1:2:0:0:
445,378,180759,5,8,0:2:0:0:
382,332,180865,1,8,0:2:0:0:
308,358,180971,1,10,0:2:0:0:
238,382,181076,1,8,0:2:0:0:
175,336,181182,38,0,B|187:312|223:310|223:310|215:323|212:338,1,75,4|0,1:2|0:0,0:0:0:0:
26,384,181393,2,0,L|9:305,1,75,2|0,3:2|0:0,0:0:0:0:
93,188,181604,1,10,0:2:0:0:
93,188,181710,2,0,L|110:266,1,75,2|0,0:0|3:2,0:0:0:0:
113,90,181921,2,0,L|39:74,1,75,2|0,0:0|1:2,0:0:0:0:
283,37,182133,2,0,L|209:52,1,75,2|0,3:2|3:2,0:0:0:0:
453,90,182344,1,2,3:2:0:0:
453,90,182449,2,0,L|379:74,1,75,10|0,0:2|0:0,0:0:0:0:
383,245,182661,1,2,3:2:0:0:
424,307,182766,1,0,3:2:0:0:
466,368,182872,1,0,1:2:0:0:
466,368,183083,6,0,L|483:289,1,75,2|0,3:2|0:0,0:0:0:0:
399,172,183295,1,10,0:2:0:0:
399,172,183400,2,0,L|382:250,1,75,2|0,0:0|3:2,0:0:0:0:
379,74,183611,2,0,L|453:58,1,75,2|0,0:0|1:2,0:0:0:0:
209,21,183823,2,0,L|283:36,1,75,2|0,3:2|3:2,0:0:0:0:
39,74,184034,1,2,3:2:0:0:
39,74,184140,2,0,L|113:58,1,75,10|0,0:2|0:0,0:0:0:0:
109,261,184351,1,2,3:2:0:0:
68,323,184457,1,0,3:2:0:0:
26,384,184562,1,0,1:2:0:0:
26,384,184773,38,0,L|9:305,1,75,2|0,3:2|0:0,0:0:0:0:
93,188,184985,1,10,0:2:0:0:
93,188,185090,2,0,L|110:266,1,75,2|0,0:0|3:2,0:0:0:0:
220,384,185302,2,0,L|138:366,1,75,2|0,0:0|1:2,0:0:0:0:
413,367,185513,1,2,3:2:0:0:
413,367,185618,5,0,3:2:0:0:
393,333,185724,1,2,3:2:0:0:
402,270,185830,1,10,0:2:0:0:
482,243,185935,1,8,0:2:0:0:
500,154,186041,1,10,0:2:0:0:
433,99,186147,1,8,0:2:0:0:
353,132,186252,1,14,0:2:0:0:
361,140,187309,37,0,3:2:0:0:
361,140,187414,1,0,3:2:0:0:
361,140,187520,2,0,L|370:95,1,25,8|0,0:2|0:0,0:0:0:0:
498,22,187942,5,2,1:2:0:0:
410,33,188154,1,0,3:0:0:0:
410,33,188259,1,2,3:2:0:0:
322,44,188471,1,0,3:0:0:0:
322,44,188576,1,2,3:2:0:0:
234,55,188788,1,2,3:2:0:0:
234,55,188893,1,0,3:2:0:0:
146,66,189104,1,2,3:2:0:0:
146,66,189210,1,0,3:2:0:0:
63,81,189421,37,2,3:2:0:0:
63,81,189527,1,2,3:2:0:0:
63,81,189633,1,2,1:2:0:0:
90,160,189844,1,0,3:0:0:0:
90,160,189949,1,2,3:2:0:0:
119,241,190161,1,0,3:0:0:0:
119,241,190266,1,2,3:2:0:0:
35,223,190478,1,0,3:0:0:0:
35,223,190583,1,0,3:2:0:0:
17,305,190795,1,0,3:2:0:0:
17,305,190900,1,0,3:2:0:0:
0,384,191111,1,2,3:2:0:0:
0,384,191323,5,2,1:2:0:0:
90,374,191534,1,0,3:0:0:0:
90,374,191640,1,2,3:2:0:0:
180,364,191851,1,0,3:0:0:0:
180,364,191957,1,2,3:2:0:0:
270,354,192168,1,2,3:2:0:0:
270,354,192273,1,0,3:2:0:0:
360,344,192485,1,2,3:2:0:0:
360,344,192590,1,0,3:2:0:0:
449,326,192802,1,2,3:2:0:0:
449,326,193013,37,2,1:2:0:0:
421,246,193224,1,0,3:0:0:0:
421,246,193330,1,2,3:2:0:0:
393,166,193541,1,0,3:0:0:0:
393,166,193647,1,2,3:2:0:0:
492,46,193858,1,0,3:2:0:0:
487,70,193964,1,0,3:2:0:0:
481,95,194069,1,0,3:2:0:0:
476,119,194175,1,0,3:2:0:0:
471,144,194280,1,0,3:2:0:0:
498,22,194492,1,0,3:2:0:0:
498,22,194703,5,2,1:2:0:0:
393,166,194914,1,2,3:2:0:0:
393,166,195020,1,2,3:2:0:0:
421,246,195231,1,0,3:0:0:0:
421,246,195337,1,2,3:2:0:0:
453,330,195548,1,2,3:2:0:0:
453,330,195654,1,0,3:2:0:0:
360,344,195865,37,2,3:2:0:0:
360,344,195971,1,8,0:2:0:0:
270,354,196182,1,2,3:2:0:0:
270,354,196393,5,2,1:2:0:0:
180,364,196604,1,2,3:2:0:0:
180,364,196710,1,2,3:2:0:0:
90,374,196921,1,0,3:0:0:0:
90,374,197027,1,2,3:2:0:0:
0,384,197238,1,0,3:0:0:0:
0,384,197344,1,0,3:2:0:0:
17,305,197555,1,0,3:2:0:0:
17,305,197661,1,8,0:2:0:0:
35,223,197872,1,2,3:2:0:0:
35,223,198083,37,2,1:2:0:0:
119,241,198295,1,0,3:2:0:0:
119,241,198400,1,2,3:2:0:0:
90,160,198611,1,0,3:0:0:0:
90,160,198717,1,2,3:2:0:0:
63,81,198928,1,2,3:2:0:0:
63,81,199034,1,0,3:2:0:0:
146,66,199245,1,2,3:2:0:0:
146,66,199351,1,8,0:2:0:0:
234,55,199562,1,2,3:2:0:0:
498,22,199773,5,2,1:2:0:0:
393,308,200830,38,0,P|289:224|261:52,1,300,2|0,0:0|0:0,0:0:0:0:
257,66,201041,6,0,P|236:199|84:313,1,300,2|0,0:0|0:0,0:0:0:0:
