osu file format v14

[General]
AudioFilename: audio.mp3
AudioLeadIn: 0
PreviewTime:50627
Countdown: 0
SampleSet: Soft
StackLeniency: 0.7
Mode: 0
LetterboxInBreaks: 0
WidescreenStoryboard: 1

[Editor]
DistanceSpacing: 0.7
BeatDivisor: 8
GridSize: 16
TimelineZoom: 2.599999

[Metadata]
Title:God-ish
TitleUnicode:神っぽいな
Artist:philo
ArtistUnicode:フィロ
Creator:Basensorex
Version:brain exe's Extreme
Source:
Tags:kirishima- pincus alevi vanya2 ermi nymphe modding queue kiyoshi guarden gazimal brain exe kamippoi kami ppoi na godish japanese pop j-pop jpop vocaloid ボーカ utaite cover female strong vocals vocalist pinocchiop hatsune miku
BeatmapID:3633025
BeatmapSetID:1722410

[Difficulty]
HPDrainRate:5
CircleSize:4.5
OverallDifficulty:9.3
ApproachRate:9.7
SliderMultiplier:2.4
SliderTickRate:1

[Events]
//Background and Video events
0,0,"hot.png",0,0
//Break Periods
2,91707,93342
//Storyboard Layer 0 (Background)
//Storyboard Layer 1 (Fail)
//Storyboard Layer 2 (Pass)
//Storyboard Layer 3 (Foreground)
//Storyboard Layer 4 (Overlay)
//Storyboard Sound Samples

[TimingPoints]
240,422.535211267606,4,2,22,40,1,0
2775,-333.333333333333,4,2,22,40,0,0
3620,-333.333333333333,4,2,22,40,0,0
4465,-333.333333333333,4,2,22,40,0,0
4887,-333.333333333333,4,2,22,40,0,0
6155,-333.333333333333,4,2,22,40,0,0
7000,-142.857142857143,4,2,22,40,0,0
13761,-142.857142857143,4,2,22,50,0,0
18831,-55.5555555555556,4,2,22,50,0,0
18884,-55.5555555555556,4,2,22,5,0,0
19887,-166.666666666667,4,2,22,50,0,0
20416,-55.5555555555556,4,2,22,5,0,0
20521,-166.666666666667,4,2,22,65,0,0
20732,-100,4,2,22,65,0,0
25803,-66.6666666666667,4,2,22,65,0,0
27493,-100,4,2,22,65,0,0
34042,-125,4,2,22,55,0,0
37423,-100,4,2,22,65,0,0
40803,-125,4,2,22,55,0,0
44183,-100,4,2,22,65,0,0
45028,-76.9230769230769,4,2,22,65,0,0
45873,-71.4285714285714,4,2,22,70,0,0
46718,-55.5555555555556,4,2,22,70,0,0
47563,-33.3333333333333,4,2,22,70,0,0
50732,-100,4,2,22,70,0,0
50944,-41.6666666666667,4,2,22,80,0,0
51366,-55.5555555555556,4,2,22,80,0,0
51736,-55.5555555555556,4,2,22,5,0,0
51789,-55.5555555555556,4,2,22,80,0,0
52634,-41.6666666666667,4,2,22,80,0,0
53056,-55.5555555555556,4,2,22,80,0,0
54482,-55.5555555555556,4,2,22,5,0,0
54535,-55.5555555555556,4,2,22,80,0,0
54905,-55.5555555555556,4,2,22,5,0,0
54958,-55.5555555555556,4,2,22,80,0,0
57704,-41.6666666666667,4,2,22,80,0,0
58127,-55.5555555555556,4,2,22,80,0,0
59394,-41.6666666666667,4,2,22,80,0,0
59817,-55.5555555555556,4,2,22,80,0,0
60187,-55.5555555555556,4,2,22,5,0,0
60240,-55.5555555555556,4,2,22,80,0,0
63937,-55.5555555555556,4,2,22,5,0,0
64042,-55.5555555555556,4,2,22,60,0,0
64465,-55.5555555555556,4,2,22,80,0,0
67845,-41.6666666666667,4,2,22,80,0,0
68268,-55.5555555555556,4,2,22,80,0,0
69535,-41.6666666666667,4,2,22,80,0,0
69958,-55.5555555555556,4,2,22,80,0,0
74606,-41.6666666666667,4,2,22,80,0,0
75028,-55.5555555555556,4,2,22,80,0,0
75609,-55.5555555555556,4,2,22,5,0,0
75662,-55.5555555555556,4,2,22,80,0,0
77880,-55.5555555555556,4,2,22,80,0,0
77986,-100,4,2,22,60,0,0
83268,-66.6666666666667,4,2,22,60,0,0
83585,-66.6666666666667,4,2,22,5,0,0
83690,-66.6666666666667,4,2,22,60,0,0
84747,-100,4,2,22,60,0,0
91507,582.52427184466,4,2,22,50,1,0
91507,-142.857142857143,4,2,22,50,0,0
93837,-100,4,2,22,50,0,0
96167,-76.9230769230769,4,2,22,50,0,0
100827,-76.9230769230769,4,2,22,65,0,0
101409,-66.6666666666667,4,2,22,65,0,0
103157,-58.8235294117647,4,2,22,65,0,0
108982,-333.333333333333,4,2,22,65,0,0
109419,-333.333333333333,4,2,22,5,0,0
109565,-333.333333333333,4,2,22,65,0,0
110147,-100,4,2,22,75,0,0
127040,-100,4,2,22,5,0,0
127623,-100,4,2,22,75,0,0
128788,422.535211267606,4,2,22,55,1,0
128788,-125,4,2,22,55,0,0
132062,-125,4,2,22,5,0,0
132168,-100,4,2,22,65,0,0
135548,-125,4,2,22,55,0,0
138928,-100,4,2,22,65,0,0
139773,-76.9230769230769,4,2,22,65,0,0
140618,-76.9230769230769,4,2,22,70,0,0
141464,-62.5,4,2,22,70,0,0
142309,-33.3333333333333,4,2,22,70,0,0
143999,-28.5714285714286,4,2,22,70,0,0
145478,-200,4,2,22,70,0,0
146957,-71.4285714285714,4,2,22,70,0,0
147379,-41.6666666666667,4,2,22,85,0,0
147802,-55.5555555555556,4,2,22,85,0,0
149069,-41.6666666666667,4,2,22,85,0,0
149492,-55.5555555555556,4,2,22,85,0,0
150918,-55.5555555555556,4,2,22,5,0,0
150971,-55.5555555555556,4,2,22,85,0,0
151340,-55.5555555555556,4,2,22,5,0,0
151393,-55.5555555555556,4,2,22,85,0,0
154140,-41.6666666666667,4,2,22,85,0,0
154562,-55.5555555555556,4,2,22,85,0,0
155830,-41.6666666666667,4,2,22,85,0,0
156252,-55.5555555555556,4,2,22,85,0,0
157678,-55.5555555555556,4,2,22,5,0,0
157731,-55.5555555555556,4,2,22,85,0,0
158101,-55.5555555555556,4,2,22,5,0,0
158154,-55.5555555555556,4,2,22,85,0,0
160372,-55.5555555555556,4,2,22,5,0,0
160478,-55.5555555555556,4,2,22,85,0,0
164280,-41.6666666666667,4,2,22,85,0,0
164703,-55.5555555555556,4,2,22,85,0,0
165971,-41.6666666666667,4,2,22,85,0,0
166393,-55.5555555555556,4,2,22,85,0,0
171041,-41.6666666666667,4,2,22,85,0,0
171464,-55.5555555555556,4,2,22,85,0,0
174421,-66.6666666666667,4,2,22,75,0,0
174580,-66.6666666666667,4,2,22,5,0,0
174633,-66.6666666666667,4,2,22,75,0,0
176270,-66.6666666666667,4,2,22,5,0,0
176323,-66.6666666666667,4,2,22,75,0,0
177960,-66.6666666666667,4,2,22,5,0,0
178013,-66.6666666666667,4,2,22,75,0,0
179650,-66.6666666666667,4,2,22,5,0,0
179703,-55.5555555555556,4,2,22,75,0,0
181182,-66.6666666666667,4,2,22,75,0,0
181340,-66.6666666666667,4,2,22,5,0,0
181393,-66.6666666666667,4,2,22,75,0,0
183030,-66.6666666666667,4,2,22,5,0,0
183083,-66.6666666666667,4,2,22,75,0,0
184721,-66.6666666666667,4,2,22,5,0,0
184774,-66.6666666666667,4,2,22,75,0,0
186252,-333.333333333333,4,2,22,75,0,0
187942,-142.857142857143,4,2,22,50,0,0
199773,-333.333333333333,4,2,22,50,0,0

[Colours]
Combo1 : 169,177,5
Combo2 : 191,191,191
Combo3 : 75,74,74
Combo4 : 228,14,46

[HitObjects]
256,192,2775,12,0,5310,0:0:0:0:
256,192,6155,6,0,L|256:224,2,26.9999991760254,2|2|2,0:2|0:2|0:2,0:0:0:0:
39,187,7000,6,0,P|64:132|124:129,2,125.999996154785,2|2|2,1:2|3:2|3:2,0:0:0:0:
134,284,7845,2,0,P|128:242|114:202,1,83.9999974365235,2|2,0:2|0:2,0:0:0:0:
34,65,8162,1,2,3:2:0:0:
34,65,8479,2,0,P|53:71|74:73,1,41.9999987182618,2|2,3:2|0:2,0:0:0:0:
201,35,8690,37,2,1:2:0:0:
201,35,9007,1,2,3:2:0:0:
228,105,9324,2,0,P|287:102|313:47,1,125.999996154785,2|0,3:2|3:2,0:0:0:0:
312,46,9958,1,0,3:2:0:0:
312,46,10380,6,0,P|376:37|446:20,2,125.999996154785,2|2|2,1:2|3:2|3:2,0:0:0:0:
247,207,11225,2,0,P|207:193|165:187,1,83.9999974365235,2|2,0:2|0:2,0:0:0:0:
48,151,11542,2,0,P|93:191|85:251,1,125.999996154785,2|2,3:2|3:2,0:0:0:0:
0,297,12070,37,2,1:2:0:0:
13,225,12387,1,2,3:2:0:0:
80,353,12704,2,0,B|150:347|125:393|218:383,2,125.999996154785,2|0|0,3:2|3:2|3:2,0:0:0:0:
80,353,13549,1,0,3:2:0:0:
6,137,13761,6,0,P|19:176|25:218,1,83.9999974365235,2|2,1:2|3:2,0:0:0:0:
69,98,14078,2,0,P|90:157|98:219,1,125.999996154785,2|2,3:2|3:2,0:0:0:0:
298,142,14606,38,0,P|270:101|225:101,1,83.9999974365235,2|2,0:2|0:2,0:0:0:0:
182,147,14923,1,2,3:2:0:0:
182,147,15240,1,2,3:2:0:0:
388,124,15451,6,0,P|374:163|368:205,1,83.9999974365235,2|2,1:2|3:2,0:0:0:0:
312,253,15768,1,2,3:2:0:0:
312,253,16085,2,0,P|337:307|397:310,1,125.999996154785,2|0,3:2|3:2,0:0:0:0:
397,310,16718,1,8,0:2:0:0:
494,84,17141,38,0,P|480:123|474:165,1,83.9999974365235,2|0,1:2|3:2,0:0:0:0:
407,205,17458,2,0,P|400:163|387:123,1,83.9999974365235,2|0,3:2|0:0,0:0:0:0:
324,82,17775,1,2,3:2:0:0:
138,54,17986,6,0,P|166:95|211:95,1,83.9999974365235,2|2,0:2|0:2,0:0:0:0:
37,176,18303,2,0,P|65:135|110:135,1,83.9999974365235,2|0,3:2|0:0,0:0:0:0:
202,175,18620,1,2,3:2:0:0:
259,373,18831,38,0,B|250:346|250:346|243:371,1,53.9999983520508,2|0,1:2|0:0,0:0:0:0:
487,223,19887,5,2,3:2:0:0:
487,223,19993,1,0,3:2:0:0:
487,223,20099,2,0,B|488:191|464:176|464:176|477:197|470:226,1,107.999996704102,10|0,0:2|0:0,0:0:0:0:
401,210,20521,37,4,1:2:0:0:
401,210,20732,2,0,L|326:200,1,60,2|0,0:2|0:0,0:0:0:0:
211,183,20944,1,2,1:2:0:0:
211,183,21049,2,0,L|270:190,1,60,2|0,0:2|0:0,0:0:0:0:
210,327,21261,6,0,L|202:267,1,60,2|0,0:2|1:2,0:0:0:0:
136,336,21472,2,0,L|128:276,1,60,2|0,0:2|0:0,0:0:0:0:
48,200,21683,37,2,0:2:0:0:
48,200,21788,2,0,L|41:260,1,60,2|0,1:2|0:0,0:0:0:0:
0,130,22000,5,10,0:2:0:0:
17,127,22053,1,8,0:2:0:0:
34,124,22106,1,8,0:2:0:0:
51,122,22159,1,8,0:2:0:0:
68,120,22211,1,0,1:2:0:0:
383,109,22423,38,0,L|390:49,1,60,2|0,0:2|0:0,0:0:0:0:
296,15,22634,1,2,1:2:0:0:
296,15,22740,2,0,L|303:74,1,60,2|0,0:2|0:0,0:0:0:0:
180,171,22951,6,0,L|239:163,1,60,2|0,0:2|1:2,0:0:0:0:
169,96,23162,2,0,L|229:89,1,60,2|0,0:2|0:0,0:0:0:0:
152,248,23373,37,2,0:2:0:0:
152,248,23479,2,0,L|93:241,1,60,2|0,1:2|0:0,0:0:0:0:
315,152,23690,5,10,0:2:0:0:
318,169,23743,1,8,0:2:0:0:
321,186,23796,1,8,0:2:0:0:
323,203,23849,1,8,0:2:0:0:
325,220,23901,1,0,1:2:0:0:
418,360,24113,38,0,L|477:367,1,60,2|0,0:2|0:0,0:0:0:0:
512,273,24324,1,2,1:2:0:0:
512,273,24430,2,0,L|452:280,1,60,2|0,0:2|0:0,0:0:0:0:
342,351,24641,6,0,L|334:291,1,60,2|0,0:2|1:2,0:0:0:0:
266,362,24852,2,0,L|258:302,1,60,2|0,0:2|0:0,0:0:0:0:
402,170,25063,37,2,0:2:0:0:
402,170,25169,2,0,L|395:230,1,60,2|0,1:2|0:0,0:0:0:0:
181,296,25380,5,10,0:2:0:0:
178,279,25433,1,8,0:2:0:0:
175,262,25486,1,8,0:2:0:0:
173,245,25539,1,8,0:2:0:0:
171,228,25591,1,0,1:2:0:0:
342,112,25803,37,2,0:2:0:0:
342,112,25909,1,0,0:0:0:0:
386,45,26014,2,0,P|359:11|315:5,1,90.0000034332277,0|0,1:2|0:0,0:0:0:0:
205,87,26225,2,0,P|213:109|217:131,3,45.0000017166138,2|0|0|0,0:2|0:0|0:0|0:0,0:0:0:0:
141,143,26437,6,0,P|181:68|267:68,1,180.000006866455,0|2,1:2|0:2,0:0:0:0:
263,201,26754,1,0,0:0:0:0:
214,261,26859,38,0,P|193:253|171:249,3,45.0000017166138,0|0|0|0,1:2|0:0|0:0|0:0,0:0:0:0:
334,185,27070,1,10,0:2:0:0:
359,193,27123,1,8,0:2:0:0:
374,215,27176,1,8,0:2:0:0:
379,242,27229,1,8,0:2:0:0:
367,266,27282,1,0,1:2:0:0:
37,92,27493,6,0,L|30:151,1,60,2|0,0:2|0:0,0:0:0:0:
100,257,27704,1,2,1:2:0:0:
100,257,27810,2,0,L|93:197,1,60,2|0,0:2|0:0,0:0:0:0:
215,69,28021,38,0,L|156:76,1,60,2|0,0:2|1:2,0:0:0:0:
224,144,28232,2,0,L|165:151,1,60,2|0,0:2|0:0,0:0:0:0:
262,5,28443,5,2,0:2:0:0:
262,5,28549,2,0,L|322:12,1,60,2|0,1:2|0:0,0:0:0:0:
493,147,28761,37,10,0:2:0:0:
476,150,28814,1,8,0:2:0:0:
459,153,28867,1,8,0:2:0:0:
442,155,28920,1,8,0:2:0:0:
424,159,28972,1,0,1:2:0:0:
294,274,29183,6,0,L|234:266,1,60,2|0,0:2|0:0,0:0:0:0:
129,337,29394,1,2,1:2:0:0:
129,337,29500,2,0,L|188:329,1,60,2|0,0:2|0:0,0:0:0:0:
361,314,29711,38,0,L|353:373,1,60,2|0,0:2|1:2,0:0:0:0:
434,325,29923,2,0,L|426:384,1,60,2|0,0:2|0:0,0:0:0:0:
505,251,30134,5,2,0:2:0:0:
505,251,30240,2,0,L|512:310,1,60,2|0,1:2|0:0,0:0:0:0:
427,145,30451,37,10,0:2:0:0:
410,142,30504,1,8,0:2:0:0:
393,139,30557,1,8,0:2:0:0:
376,137,30610,1,8,0:2:0:0:
358,133,30662,1,0,1:2:0:0:
88,100,30873,6,0,L|148:92,1,60,2|0,0:2|0:0,0:0:0:0:
59,173,31084,1,2,1:2:0:0:
59,173,31190,2,0,L|0:165,1,60,2|0,0:2|0:0,0:0:0:0:
189,223,31401,38,0,L|197:282,1,60,2|0,0:2|1:2,0:0:0:0:
116,234,31613,2,0,L|124:293,1,60,2|0,0:2|0:0,0:0:0:0:
270,163,31824,5,2,0:2:0:0:
270,163,31930,2,0,L|263:222,1,60,2|0,1:2|0:0,0:0:0:0:
127,372,32141,37,10,0:2:0:0:
144,369,32194,1,8,0:2:0:0:
161,366,32247,1,8,0:2:0:0:
178,364,32300,1,8,0:2:0:0:
196,361,32352,1,2,1:2:0:0:
270,348,32669,1,2,0:2:0:0:
345,330,32986,1,2,3:2:0:0:
345,330,33409,6,0,L|351:286,1,30,0|0,1:2|0:0,0:0:0:0:
419,341,33514,2,0,L|425:297,1,30,0|0,1:2|0:0,0:0:0:0:
492,352,33620,1,8,0:2:0:0:
70,63,34042,38,0,P|88:107|97:154,2,96,2|2|2,1:2|3:2|3:2,0:0:0:0:
183,155,34676,2,0,P|165:199|156:247,2,96,2|2|2,1:2|3:2|3:2,0:0:0:0:
377,109,35310,5,10,0:2:0:0:
277,155,35416,1,2,0:2:0:0:
283,48,35521,1,2,0:2:0:0:
401,239,35732,38,0,P|434:205|481:205,1,96,2|2,1:2|3:2,0:0:0:0:
481,205,36155,1,2,3:2:0:0:
375,328,36366,2,0,P|342:294|295:294,1,96,2|2,1:2|3:2,0:0:0:0:
345,109,36789,6,0,L|413:119,1,48,2|0,3:2|3:2,0:0:0:0:
299,52,37000,2,0,B|241:59|241:59|222:80|222:80|165:87,1,144,10|0,0:2|0:0,0:0:0:0:
105,153,37423,37,2,1:2:0:0:
105,153,37528,1,0,3:0:0:0:
104,152,37634,2,0,P|86:127|83:98,1,60,0|0,3:0|3:2,0:0:0:0:
217,212,37845,5,10,0:2:0:0:
217,212,37950,1,0,3:0:0:0:
218,211,38056,2,0,P|235:186|238:157,1,60,0|0,3:2|3:0,0:0:0:0:
116,286,38268,38,0,P|87:279|58:275,1,60,2|0,1:2|3:0,0:0:0:0:
188,322,38479,2,0,P|217:314|246:311,1,60,2|0,0:2|3:2,0:0:0:0:
307,199,38690,6,0,P|299:228|295:258,1,60,10|0,0:2|3:0,0:0:0:0:
446,370,38901,2,0,P|438:342|434:312,1,60,2|0,3:2|3:0,0:0:0:0:
433,29,39113,37,2,1:2:0:0:
449,36,39218,1,0,3:0:0:0:
462,55,39324,1,0,3:0:0:0:
469,84,39430,1,0,3:2:0:0:
457,120,39535,1,8,0:2:0:0:
419,143,39641,1,0,3:0:0:0:
371,135,39747,1,0,3:2:0:0:
341,88,39852,1,0,3:0:0:0:
281,35,39958,5,0,1:2:0:0:
191,50,40063,1,0,3:0:0:0:
160,131,40169,1,8,0:2:0:0:
210,203,40275,1,0,3:0:0:0:
300,231,40380,37,8,0:2:0:0:
375,209,40485,1,8,0:2:0:0:
438,259,40591,5,8,0:2:0:0:
451,260,40696,1,8,0:2:0:0:
512,220,40803,37,2,1:2:0:0:
273,314,41014,6,0,P|229:296|182:287,1,96,2|2,3:2|3:2,0:0:0:0:
181,286,41437,1,2,1:2:0:0:
42,255,41648,2,0,P|89:246|133:227,1,96,2|2,3:2|3:2,0:0:0:0:
354,82,42070,37,10,0:2:0:0:
254,36,42176,1,2,0:2:0:0:
260,143,42281,1,2,0:2:0:0:
60,119,42493,6,0,P|88:81|134:75,1,96,2|2,1:2|3:2,0:0:0:0:
133,75,42916,1,2,3:2:0:0:
199,199,43127,2,0,P|170:161|124:155,1,96,2|2,1:2|3:2,0:0:0:0:
0,220,43549,38,0,B|48:198|92:228|92:228|109:278|162:288,1,192,2|2,3:2|0:2,0:0:0:0:
454,85,44183,6,0,P|380:82|351:185,1,180,2|0,1:2|0:0,0:0:0:0:
441,259,44606,1,10,0:2:0:0:
256,355,44817,38,0,L|197:364,1,60,2|0,1:2|0:0,0:0:0:0:
308,298,45028,2,0,B|371:310|371:310|389:332|389:332|451:343,1,155.999992858887,2|2,1:2|0:2,0:0:0:0:
164,57,45451,2,0,B|100:66|100:66|82:88|82:88|19:97,1,155.999992858887,10|2,0:2|1:2,0:0:0:0:
19,96,45768,1,0,0:0:0:0:
30,312,45873,6,0,B|70:291|79:247|79:247|77:292|110:322,1,167.999994873047,2|8,1:2|0:2,0:0:0:0:
61,380,46190,1,8,0:2:0:0:
87,173,46296,38,0,B|132:176|162:142|162:142|138:180|151:222,1,167.999994873047,0|8,1:2|0:2,0:0:0:0:
80,247,46613,1,0,0:0:0:0:
193,72,46718,6,0,B|241:104|296:86|296:86|245:112|233:168,1,215.999993408203,2|8,1:2|0:2,0:0:0:0:
161,142,47035,1,8,0:2:0:0:
359,42,47141,38,0,B|384:94|441:106|441:106|383:103|346:145,1,215.999993408203,0|8,1:2|0:2,0:0:0:0:
297,86,47458,1,0,0:0:0:0:
432,210,47563,6,0,P|419:182|423:213,32,90.0000034332277,2|0|0|0|0|0|0|0|0|0|0|0|0|0|0|0|0|0|0|0|0|0|0|0|0|0|0|0|0|0|0|0|2,1:2|0:0|0:0|0:0|0:0|0:0|0:0|0:0|0:0|0:0|0:0|0:0|0:0|0:0|0:0|0:0|0:0|0:0|0:0|0:0|0:0|0:0|0:0|0:0|0:0|0:0|0:0|0:0|0:0|0:0|0:0|0:0|0:2,0:0:0:0:
211,62,50521,37,8,0:2:0:0:
211,62,50732,2,0,P|219:90|223:120,1,60,2|0,0:2|0:0,0:0:0:0:
146,175,50944,22,0,B|221:198|237:275|237:275|238:196|312:160,1,287.999991210938,6|2,1:2|0:2,0:0:0:0:
491,316,51261,1,2,0:2:0:0:
365,334,51366,2,0,P|321:307|315:254,1,107.999996704102,10|0,0:2|0:0,0:0:0:0:
352,50,51578,2,0,P|381:125|396:205,1,161.999995056153,2|0,1:2|0:0,0:0:0:0:
412,212,51789,2,0,P|463:205|491:160,1,107.999996704102,2|0,0:2|0:0,0:0:0:0:
287,9,52000,5,2,1:2:0:0:
431,34,52106,1,0,1:2:0:0:
287,9,52211,2,0,P|270:61|260:114,1,107.999996704102,10|0,0:2|0:0,0:0:0:0:
61,228,52423,1,2,3:2:0:0:
44,224,52475,1,0,3:2:0:0:
31,215,52528,1,0,3:2:0:0:
21,202,52581,1,0,3:2:0:0:
18,187,52634,38,0,B|32:118|116:83|185:123|185:123|191:166|231:182,1,287.999991210938,2|2,1:2|0:2,0:0:0:0:
431,34,52951,1,2,0:2:0:0:
287,9,53056,2,0,P|270:60|260:113,1,107.999996704102,10|0,0:2|0:0,0:0:0:0:
150,287,53268,2,0,P|139:233|123:182,1,107.999996704102,2|0,1:2|0:0,0:0:0:0:
337,298,53479,2,0,P|310:342|257:348,1,107.999996704102,2|0,0:2|0:0,0:0:0:0:
123,182,53690,5,2,1:2:0:0:
259,113,53796,1,0,1:2:0:0:
231,182,53901,37,10,0:2:0:0:
158,111,54007,1,0,0:0:0:0:
60,260,54113,5,2,3:2:0:0:
45,267,54166,1,0,3:2:0:0:
30,265,54218,1,0,3:2:0:0:
16,259,54271,1,0,3:2:0:0:
6,247,54324,38,0,P|47:170|116:188,1,161.999995056153,2|0,1:2|0:0,0:0:0:0:
123,182,54535,2,0,P|140:233|148:286,1,107.999996704102,2|0,0:2|0:0,0:0:0:0:
372,142,54747,6,0,P|331:65|262:83,1,161.999995056153,10|0,0:2|0:0,0:0:0:0:
255,77,54958,2,0,P|239:128|231:181,1,107.999996704102,2|0,1:2|0:0,0:0:0:0:
351,340,55169,2,0,P|371:292|423:283,1,107.999996704102,2|0,0:2|0:0,0:0:0:0:
289,384,55380,37,2,1:2:0:0:
427,358,55486,1,0,1:2:0:0:
289,384,55592,2,0,P|237:367|184:357,1,107.999996704102,10|0,0:2|0:0,0:0:0:0:
364,90,55803,1,2,3:2:0:0:
376,99,55856,1,0,3:2:0:0:
383,113,55909,1,0,3:2:0:0:
386,128,55961,1,0,3:2:0:0:
384,144,56014,6,0,P|337:119|333:67,1,107.999996704102,2|0,1:2|0:0,0:0:0:0:
406,21,56225,2,0,P|452:45|456:97,1,107.999996704102,2|2,0:2|0:2,0:0:0:0:
188,279,56437,38,0,P|213:233|265:229,1,107.999996704102,10|0,0:2|0:0,0:0:0:0:
317,328,56648,2,0,P|293:375|241:379,1,107.999996704102,2|0,1:2|0:0,0:0:0:0:
512,186,56859,5,2,1:2:0:0:
442,212,56965,1,0,1:2:0:0:
359,163,57070,1,0,1:2:0:0:
267,230,57176,1,0,1:2:0:0:
180,101,57282,37,8,0:2:0:0:
194,93,57335,1,0,3:2:0:0:
215,92,57387,1,8,0:2:0:0:
240,100,57440,1,0,3:2:0:0:
263,122,57493,1,8,0:2:0:0:
276,157,57546,1,0,3:2:0:0:
314,176,57599,1,8,0:2:0:0:
359,163,57651,1,0,3:2:0:0:
354,149,57704,6,0,B|273:116|227:195|227:195|238:278|156:301,1,287.999991210938,2|2,1:2|0:2,0:0:0:0:
0,274,58021,1,2,0:2:0:0:
111,221,58127,2,0,P|128:272|138:325,1,107.999996704102,10|0,0:2|0:0,0:0:0:0:
27,131,58338,2,0,P|52:85|104:81,1,107.999996704102,2|0,1:2|0:0,0:0:0:0:
267,230,58549,2,0,P|215:225|190:179,1,107.999996704102,2|0,0:2|0:0,0:0:0:0:
322,26,58761,37,2,1:2:0:0:
180,101,58867,1,0,1:2:0:0:
322,26,58973,2,0,P|373:9|426:0,1,107.999996704102,10|0,0:2|0:0,0:0:0:0:
460,253,59183,1,2,3:2:0:0:
448,244,59236,1,0,3:2:0:0:
441,230,59289,1,0,3:2:0:0:
438,215,59341,1,0,3:2:0:0:
444,199,59394,6,0,B|471:216|532:217|532:217|433:229|337:257,1,287.999991210938,2|2,1:2|0:2,0:0:0:0:
208,374,59711,1,2,0:2:0:0:
333,369,59817,2,0,P|308:323|256:319,1,107.999996704102,10|0,0:2|0:0,0:0:0:0:
94,270,60028,2,0,P|169:253|189:179,1,161.999995056153,2|0,1:2|0:0,0:0:0:0:
175,171,60240,2,0,P|157:119|147:66,1,107.999996704102,2|0,0:2|0:0,0:0:0:0:
293,2,60451,37,2,1:2:0:0:
245,131,60557,1,0,1:2:0:0:
224,35,60662,5,10,0:2:0:0:
305,84,60768,1,0,0:0:0:0:
432,63,60873,37,2,3:2:0:0:
423,51,60926,1,0,3:2:0:0:
409,44,60979,1,0,3:2:0:0:
394,41,61031,1,0,3:2:0:0:
378,42,61084,6,0,P|390:95|397:149,1,107.999996704102,2|0,1:2|0:0,0:0:0:0:
481,298,61296,1,2,0:2:0:0:
481,298,61401,1,0,0:0:0:0:
512,160,61507,38,0,P|488:206|436:211,1,107.999996704102,10|0,0:2|0:0,0:0:0:0:
313,171,61719,1,2,1:2:0:0:
313,171,61824,1,0,0:0:0:0:
290,295,61930,2,0,P|313:248|365:243,1,107.999996704102,2|0,0:2|0:0,0:0:0:0:
261,384,62141,5,2,1:2:0:0:
406,316,62247,1,0,1:2:0:0:
261,384,62352,2,0,P|208:371|154:364,1,107.999996704102,10|0,0:2|0:0,0:0:0:0:
0,222,62563,2,0,P|26:215|51:206,3,53.9999983520508,2|0|0|0,3:2|3:2|3:2|3:2,0:0:0:0:
74,308,62775,38,0,P|72:221|141:273,1,215.999993408203,10|0,0:2|0:0,0:0:0:0:
137,347,63092,1,0,1:2:0:0:
162,163,63197,6,0,P|236:117|225:204,1,215.999993408203,8|0,0:2|0:0,0:0:0:0:
159,237,63514,1,0,1:2:0:0:
335,181,63620,38,0,P|423:265|302:248,1,323.999990112305,8|0,0:2|0:0,0:0:0:0:
256,23,64042,21,2,0:2:0:0:
238,73,64148,1,2,0:2:0:0:
262,135,64254,1,2,0:2:0:0:
226,203,64359,1,2,0:2:0:0:
261,318,64465,22,0,P|247:265|240:212,1,107.999996704102,6|2,1:2|0:2,0:0:0:0:
344,87,64676,1,2,1:2:0:0:
344,87,64782,1,2,1:2:0:0:
182,139,64887,5,10,0:2:0:0:
314,187,64993,1,2,0:2:0:0:
226,203,65099,37,2,1:2:0:0:
262,135,65205,1,2,1:2:0:0:
122,184,65310,6,0,P|136:237|143:290,1,107.999996704102,2|2,1:2|0:2,0:0:0:0:
40,124,65521,37,2,1:2:0:0:
52,246,65627,1,2,1:2:0:0:
40,124,65732,1,10,0:2:0:0:
406,245,65944,1,2,1:2:0:0:
418,236,65997,1,0,3:0:0:0:
425,222,66050,1,2,1:2:0:0:
428,207,66102,1,0,3:0:0:0:
426,191,66155,6,0,P|379:216|375:268,1,107.999996704102,2|0,1:2|0:0,0:0:0:0:
474,376,66366,1,2,1:2:0:0:
474,376,66472,1,0,1:2:0:0:
503,229,66578,37,10,0:2:0:0:
397,339,66683,2,0,P|344:353|291:360,2,107.999996704102,2|0|2,0:2|1:2|1:2,0:0:0:0:
468,96,67000,5,2,1:2:0:0:
473,115,67106,1,2,0:2:0:0:
386,54,67211,37,2,1:2:0:0:
363,129,67317,1,0,1:2:0:0:
266,26,67423,5,10,0:2:0:0:
288,150,67528,1,0,0:0:0:0:
130,138,67634,37,2,1:2:0:0:
118,129,67687,1,0,3:2:0:0:
111,115,67740,1,0,1:2:0:0:
108,100,67792,1,0,3:2:0:0:
113,85,67845,6,0,B|169:51|209:100|209:100|192:191|185:279,1,287.999991210938,2|2,1:2|1:2,0:0:0:0:
199,384,68162,1,2,1:2:0:0:
261,238,68268,2,0,P|313:224|366:217,1,107.999996704102,10|0,0:2|0:0,0:0:0:0:
115,311,68479,2,0,P|62:297|9:290,1,107.999996704102,2|0,1:2|1:2,0:0:0:0:
274,372,68690,38,0,P|321:347|325:295,1,107.999996704102,2|0,1:2|0:0,0:0:0:0:
288,150,68901,5,2,1:2:0:0:
161,211,69007,1,0,1:2:0:0:
288,150,69113,2,0,P|274:97|267:44,1,107.999996704102,10|0,0:2|0:0,0:0:0:0:
401,277,69324,1,2,1:2:0:0:
413,268,69377,1,0,3:2:0:0:
420,254,69430,1,0,1:2:0:0:
423,239,69482,1,0,3:2:0:0:
421,224,69535,38,0,B|350:211|277:186|277:186|206:230|250:305,1,287.999991210938,2|2,1:2|1:2,0:0:0:0:
364,134,69852,1,2,1:2:0:0:
483,175,69958,2,0,P|469:122|462:69,1,107.999996704102,10|0,0:2|0:0,0:0:0:0:
341,384,70169,2,0,P|333:330|320:278,1,107.999996704102,2|0,1:2|1:2,0:0:0:0:
58,138,70380,5,2,1:2:0:0:
128,164,70486,1,0,1:2:0:0:
211,115,70591,1,0,1:2:0:0:
303,182,70697,1,0,1:2:0:0:
425,39,70803,37,8,0:2:0:0:
411,31,70856,1,0,3:2:0:0:
390,30,70908,1,8,0:2:0:0:
365,38,70961,1,0,3:2:0:0:
343,62,71014,1,10,0:2:0:0:
340,99,71067,1,0,3:2:0:0:
364,134,71120,1,10,0:2:0:0:
411,140,71172,1,0,3:2:0:0:
423,129,71225,6,0,P|370:115|317:108,1,107.999996704102,6|0,1:2|0:0,0:0:0:0:
121,84,71437,1,2,1:2:0:0:
121,84,71542,1,0,1:2:0:0:
198,188,71648,37,10,0:2:0:0:
190,9,71754,2,0,P|203:61|210:114,1,107.999996704102,2|2,0:2|1:2,0:0:0:0:
65,288,71965,2,0,P|88:241|140:236,1,107.999996704102,2|0,1:2|1:2,0:0:0:0:
278,310,72176,1,2,0:2:0:0:
198,188,72282,5,2,1:2:0:0:
166,347,72387,1,2,1:2:0:0:
198,188,72493,1,10,0:2:0:0:
451,245,72704,1,2,1:2:0:0:
463,236,72757,1,0,3:0:0:0:
470,222,72810,1,2,1:2:0:0:
473,207,72862,1,0,3:0:0:0:
472,190,72916,37,2,1:2:0:0:
332,109,73021,1,2,0:2:0:0:
447,117,73127,5,2,1:2:0:0:
363,180,73232,1,2,1:2:0:0:
247,84,73338,38,0,P|260:136|267:189,1,107.999996704102,10|2,0:2|0:2,0:0:0:0:
354,296,73549,1,2,1:2:0:0:
223,260,73655,1,2,1:2:0:0:
235,384,73761,2,0,P|278:355|280:303,1,107.999996704102,2|2,1:2|0:2,0:0:0:0:
30,209,73972,6,0,P|37:245|42:282,3,53.9999983520508,2|0|0|0,1:2|3:2|1:2|3:2,0:0:0:0:
143,100,74183,2,0,P|151:46|160:-6,1,107.999996704102,10|0,0:2|0:0,0:0:0:0:
183,192,74394,1,2,1:2:0:0:
198,189,74446,1,0,3:2:0:0:
212,182,74499,1,0,1:2:0:0:
221,170,74552,1,0,3:2:0:0:
225,154,74606,38,0,B|141:172|125:249|125:249|124:170|54:136,1,287.999991210938,2|2,1:2|1:2,0:0:0:0:
143,100,74923,1,2,1:2:0:0:
0,80,75028,2,0,P|28:36|80:34,1,107.999996704102,10|0,0:2|0:0,0:0:0:0:
225,154,75240,2,0,P|253:197|305:199,1,107.999996704102,2|0,1:2|1:2,0:0:0:0:
439,10,75451,2,0,P|408:85|389:163,1,161.999995056153,2|0,1:2|0:0,0:0:0:0:
376,175,75662,5,2,1:2:0:0:
248,78,75768,1,0,1:2:0:0:
376,175,75873,2,0,P|389:227|396:280,1,107.999996704102,10|0,0:2|0:0,0:0:0:0:
197,356,76085,1,2,1:2:0:0:
206,344,76138,1,0,3:2:0:0:
220,337,76191,1,2,1:2:0:0:
235,334,76243,1,0,3:2:0:0:
256,335,76296,38,0,B|138:344|184:251|64:260,1,215.999993408203,10|2,0:2|1:2,0:0:0:0:
5,304,76613,1,2,1:2:0:0:
280,259,76718,6,0,B|162:249|208:342|88:333,1,215.999993408203,10|2,0:2|1:2,0:0:0:0:
5,199,77035,1,2,1:2:0:0:
132,82,77141,37,10,0:2:0:0:
265,182,77247,1,10,0:2:0:0:
275,11,77352,1,10,0:2:0:0:
77,189,77458,1,10,0:2:0:0:
144,3,77563,6,0,P|176:161|196:322,1,323.999990112305,10|0,3:2|3:0,0:0:0:0:
196,322,77986,1,0,1:2:0:0:
398,217,78197,6,0,L|338:209,1,60,2|0,3:2|3:2,0:0:0:0:
427,290,78408,1,2,3:2:0:0:
427,290,78514,2,0,L|486:282,1,60,2|0,0:2|3:2,0:0:0:0:
356,374,78725,6,0,L|348:315,1,60,2|0,3:2|3:2,0:0:0:0:
285,384,78937,2,0,L|277:325,1,60,2|0,3:2|1:2,0:0:0:0:
212,247,79148,37,2,0:2:0:0:
212,247,79254,2,0,L|205:306,1,60,10|0,0:2|0:0,0:0:0:0:
30,185,79465,5,10,0:2:0:0:
47,182,79518,1,8,0:2:0:0:
64,179,79571,1,8,0:2:0:0:
81,177,79624,1,8,0:2:0:0:
99,174,79676,1,0,1:2:0:0:
340,84,79887,38,0,L|348:24,1,60,2|0,3:2|3:2,0:0:0:0:
267,113,80098,1,2,3:2:0:0:
267,113,80204,2,0,L|275:172,1,60,2|0,0:2|3:2,0:0:0:0:
177,21,80416,6,0,L|118:29,1,60,2|0,3:2|3:2,0:0:0:0:
187,92,80628,2,0,L|128:100,1,60,2|0,3:2|1:2,0:0:0:0:
39,166,80839,37,2,0:2:0:0:
39,166,80945,2,0,L|98:173,1,60,10|0,0:2|0:0,0:0:0:0:
288,242,81155,5,10,0:2:0:0:
271,245,81208,1,8,0:2:0:0:
254,248,81261,1,8,0:2:0:0:
237,250,81314,1,8,0:2:0:0:
219,253,81366,1,0,1:2:0:0:
450,22,81578,38,0,L|442:82,1,60,2|0,3:2|3:2,0:0:0:0:
426,212,81789,1,2,3:2:0:0:
426,212,81895,2,0,L|434:153,1,60,2|0,0:2|3:2,0:0:0:0:
291,93,82106,6,0,L|350:85,1,60,2|0,3:2|3:2,0:0:0:0:
301,166,82318,2,0,L|360:158,1,60,2|0,3:2|1:2,0:0:0:0:
434,292,82528,37,2,0:2:0:0:
434,292,82634,2,0,L|375:285,1,60,10|0,0:2|0:0,0:0:0:0:
210,367,82845,5,10,0:2:0:0:
227,364,82898,1,8,0:2:0:0:
244,361,82951,1,8,0:2:0:0:
261,359,83004,1,8,0:2:0:0:
279,356,83056,1,0,1:2:0:0:
56,98,83268,38,0,B|140:72|197:133|152:125|219:194|301:165,1,270.000010299683,2|0,0:2|0:0,0:0:0:0:
220,4,83690,6,0,P|181:111|160:286,1,270.000010299683,2|2,0:2|0:2,0:0:0:0:
79,306,84113,1,2,0:2:0:0:
79,306,84324,38,0,P|68:246|147:278,1,180.000006866455,8|2,0:2|1:2,0:0:0:0:
144,343,84747,1,0,1:2:0:0:
263,86,84958,6,0,L|323:94,1,60,2|0,3:2|3:2,0:0:0:0:
435,147,85169,1,2,3:2:0:0:
435,147,85275,2,0,L|376:155,1,60,2|0,0:2|3:2,0:0:0:0:
341,283,85486,38,0,L|333:224,1,60,2|0,3:2|3:2,0:0:0:0:
268,295,85697,2,0,L|260:236,1,60,2|0,3:2|1:2,0:0:0:0:
199,138,85909,5,2,0:2:0:0:
199,138,86015,2,0,L|191:197,1,60,10|0,0:2|0:0,0:0:0:0:
61,88,86225,37,10,0:2:0:0:
79,85,86277,1,8,0:2:0:0:
96,83,86330,1,8,0:2:0:0:
113,80,86383,1,8,0:2:0:0:
130,77,86436,1,0,1:2:0:0:
33,343,86648,6,0,L|41:283,1,60,2|0,3:2|3:2,0:0:0:0:
94,171,86859,1,2,3:2:0:0:
94,171,86965,2,0,L|102:230,1,60,2|0,0:2|3:2,0:0:0:0:
179,346,87176,38,0,L|238:338,1,60,2|0,3:2|3:2,0:0:0:0:
169,273,87387,2,0,L|228:265,1,60,2|0,3:2|1:2,0:0:0:0:
367,381,87599,5,2,0:2:0:0:
367,381,87705,2,0,L|308:373,1,60,10|0,0:2|0:0,0:0:0:0:
436,222,87916,37,10,0:2:0:0:
439,240,87968,1,8,0:2:0:0:
441,257,88021,1,8,0:2:0:0:
444,274,88074,1,8,0:2:0:0:
447,291,88127,1,0,1:2:0:0:
279,84,88338,6,0,L|339:92,1,60,2|0,3:2|3:2,0:0:0:0:
451,145,88549,1,2,3:2:0:0:
451,145,88655,2,0,L|392:153,1,60,2|0,0:2|3:2,0:0:0:0:
480,1,88866,38,0,L|488:60,1,60,2|0,3:2|3:2,0:0:0:0:
407,11,89078,2,0,L|415:70,1,60,2|0,3:2|1:2,0:0:0:0:
310,224,89289,5,2,0:2:0:0:
310,224,89395,2,0,L|318:165,1,60,10|0,0:2|0:0,0:0:0:0:
120,133,89606,37,10,0:2:0:0:
137,130,89659,1,8,0:2:0:0:
154,127,89712,1,8,0:2:0:0:
171,125,89765,1,8,0:2:0:0:
189,122,89817,1,0,1:2:0:0:
263,109,90134,1,2,0:2:0:0:
338,91,90451,1,2,0:2:0:0:
411,255,90662,6,0,P|413:235|402:255,3,60,2|0|2|0,0:2|0:0|0:2|0:0,0:0:0:0:
347,306,91085,37,8,0:2:0:0:
333,298,91138,1,8,0:2:0:0:
312,297,91190,1,8,0:2:0:0:
287,305,91243,1,8,0:2:0:0:
264,327,91296,1,8,0:2:0:0:
251,362,91349,1,8,0:2:0:0:
213,381,91402,1,8,0:2:0:0:
168,368,91454,1,8,0:2:0:0:
163,355,91507,5,4,1:2:0:0:
454,101,93837,37,2,1:2:0:0:
79,57,94710,1,2,1:2:0:0:
141,98,95002,1,10,3:2:0:0:
209,63,95293,1,10,3:2:0:0:
209,63,95439,1,10,3:2:0:0:
34,174,95584,6,0,L|43:230,3,30,0|0|0|0,3:2|3:2|3:2|3:2,0:0:0:0:
102,242,95875,1,0,3:2:0:0:
4,343,96021,1,0,3:2:0:0:
259,378,96167,37,4,1:2:0:0:
259,378,96749,2,0,L|268:296,1,77.9999964294435,2|2,0:2|0:2,0:0:0:0:
202,213,97040,2,0,L|214:268,3,38.9999982147218,2|0|2|0,3:2|3:2|3:2|3:2,0:0:0:0:
142,173,97332,1,2,3:2:0:0:
142,173,97477,1,2,3:2:0:0:
268,131,97623,2,0,L|256:186,3,38.9999982147218,2|0|2|0,3:2|3:2|3:2|3:2,0:0:0:0:
229,66,97914,1,2,3:2:0:0:
229,66,98059,1,2,0:2:0:0:
355,108,98205,2,0,L|343:53,3,38.9999982147218,2|0|2|0,3:2|3:2|3:2|3:2,0:0:0:0:
267,300,98497,5,2,1:2:0:0:
279,296,98642,1,0,1:2:0:0:
373,345,98788,37,0,1:2:0:0:
385,349,98933,1,0,1:2:0:0:
457,204,99079,5,0,1:2:0:0:
441,278,99225,1,0,1:2:0:0:
337,179,99371,37,0,1:2:0:0:
352,272,99517,1,0,1:2:0:0:
112,252,99662,5,0,1:2:0:0:
268,131,99807,1,0,1:2:0:0:
84,65,99953,37,0,1:2:0:0:
199,259,100099,1,0,1:2:0:0:
303,46,100244,5,0,1:2:0:0:
317,38,100317,1,0,0:0:0:0:
338,37,100390,1,0,1:2:0:0:
363,45,100463,1,0,0:0:0:0:
386,67,100536,1,0,1:2:0:0:
399,102,100608,1,0,3:2:0:0:
437,121,100681,1,0,3:2:0:0:
482,108,100754,1,0,3:2:0:0:
489,93,100827,37,6,1:2:0:0:
230,20,100973,1,2,0:2:0:0:
230,20,101409,6,0,P|195:47|193:91,1,90.0000034332277,2|2,0:2|0:2,0:0:0:0:
112,172,101701,2,0,P|131:160|153:155,3,45.0000017166138,2|0|2|0,3:2|3:2|3:2|3:2,0:0:0:0:
113,90,101992,37,10,0:2:0:0:
157,234,102138,1,2,3:2:0:0:
251,138,102283,2,0,P|239:157|234:179,1,45.0000017166138,2|0,3:2|3:2,0:0:0:0:
41,224,102429,2,0,P|36:202|24:182,1,45.0000017166138,2|0,3:2|3:2,0:0:0:0:
154,314,102574,6,0,P|197:311|225:277,1,90.0000034332277,2|2,3:2|3:2,0:0:0:0:
365,193,102866,1,2,3:2:0:0:
333,191,102939,1,0,0:0:0:0:
307,209,103011,1,2,3:2:0:0:
294,237,103084,1,0,0:0:0:0:
302,271,103157,37,2,1:2:0:0:
360,14,103303,1,2,0:2:0:0:
360,13,103740,2,0,P|311:29|260:37,1,102.000001945496,2|2,0:2|0:2,0:0:0:0:
454,90,104031,1,2,1:2:0:0:
454,90,104104,1,0,3:2:0:0:
454,90,104176,2,0,P|479:93|503:102,1,51.0000009727478,2|0,3:2|3:2,0:0:0:0:
243,110,104322,6,0,P|198:88|187:40,1,102.000001945496,10|2,0:2|3:2,0:0:0:0:
441,164,104613,1,2,3:2:0:0:
441,164,104686,1,0,3:2:0:0:
441,164,104758,2,0,P|449:187|453:213,1,51.0000009727478,2|0,3:2|3:2,0:0:0:0:
354,366,104905,38,0,P|369:317|377:267,1,102.000001945496,2|2,3:2|3:2,0:0:0:0:
181,171,105196,1,2,3:2:0:0:
163,164,105269,1,0,3:2:0:0:
139,172,105341,1,2,3:2:0:0:
94,156,105414,1,0,3:2:0:0:
24,178,105487,5,2,1:2:0:0:
284,316,105633,1,2,0:2:0:0:
284,316,106070,37,2,0:2:0:0:
329,110,106215,1,2,0:2:0:0:
128,249,106361,1,2,3:2:0:0:
128,249,106434,1,0,3:2:0:0:
128,249,106506,2,0,P|136:272|140:298,1,51.0000009727478,2|0,3:2|3:2,0:0:0:0:
315,226,106652,5,10,0:2:0:0:
113,89,106798,1,2,3:2:0:0:
321,35,106943,37,2,3:2:0:0:
131,169,107089,1,2,3:2:0:0:
362,279,107235,2,0,P|408:263|422:216,1,102.000001945496,2|2,3:2|3:2,0:0:0:0:
329,110,107526,6,0,P|337:133|341:159,1,51.0000009727478,2|0,3:2|3:2,0:0:0:0:
484,286,107672,2,0,P|492:262|496:236,1,51.0000009727478,2|0,3:2|3:2,0:0:0:0:
473,21,107817,37,2,1:2:0:0:
473,21,107963,1,0,0:0:0:0:
281,157,108982,6,0,P|279:177|291:160,1,53.9999983520508,2|0,0:2|0:0,0:0:0:0:
339,95,109565,37,8,0:2:0:0:
269,77,109638,1,8,0:2:0:0:
213,101,109710,1,8,0:2:0:0:
193,148,109783,1,8,0:2:0:0:
196,188,109856,1,8,0:2:0:0:
211,214,109929,1,8,0:2:0:0:
229,223,110002,1,8,0:2:0:0:
244,224,110074,1,8,0:2:0:0:
253,220,110147,21,6,1:2:0:0:
318,182,110439,1,2,3:2:0:0:
380,226,110730,1,2,0:2:0:0:
465,101,111021,6,0,L|459:57,3,30,2|0|0|0,3:2|3:2|3:2|3:2,0:0:0:0:
479,175,111312,1,10,0:2:0:0:
479,175,111458,1,0,3:2:0:0:
377,41,111604,38,0,L|383:-3,3,30,2|0|0|0,3:2|3:2|3:2|3:2,0:0:0:0:
367,117,111895,1,2,3:2:0:0:
367,117,112041,1,0,3:2:0:0:
198,42,112186,5,2,3:2:0:0:
198,42,112259,1,0,3:2:0:0:
198,42,112332,1,0,3:2:0:0:
198,42,112405,1,0,3:2:0:0:
198,42,112477,37,2,1:2:0:0:
191,117,112769,1,2,3:2:0:0:
125,76,113060,1,2,0:2:0:0:
32,187,113351,6,0,L|38:231,3,30,2|0|0|0,1:2|3:2|3:2|3:2,0:0:0:0:
100,161,113642,2,0,L|112:241,1,60,10|0,0:2|3:2,0:0:0:0:
255,247,113934,38,0,L|249:291,3,30,2|0|0|0,3:2|3:2|3:2|3:2,0:0:0:0:
187,221,114225,2,0,L|175:301,1,60,2|0,3:2|3:2,0:0:0:0:
64,384,114516,6,0,L|93:379,1,30,2|0,3:2|3:2,0:0:0:0:
164,364,114662,2,0,L|193:359,1,30,2|0,3:2|3:2,0:0:0:0:
329,330,114807,37,2,1:2:0:0:
402,353,115099,1,2,3:2:0:0:
329,330,115390,1,2,0:2:0:0:
451,229,115681,6,0,L|445:185,3,30,2|0|0|0,3:2|3:2|3:2|3:2,0:0:0:0:
378,227,115972,1,10,0:2:0:0:
378,227,116118,1,0,3:2:0:0:
255,157,116264,38,0,L|261:113,3,30,2|0|0|0,3:2|3:2|3:2|3:2,0:0:0:0:
331,160,116555,1,2,3:2:0:0:
331,160,116701,1,0,3:2:0:0:
448,29,116846,5,2,3:2:0:0:
448,29,116919,1,0,3:2:0:0:
448,29,116992,1,0,3:2:0:0:
448,29,117065,1,0,3:2:0:0:
448,29,117138,38,0,P|425:82|369:93,2,120,2|2|2,1:2|3:2|0:2,0:0:0:0:
257,0,118011,1,2,1:2:0:0:
45,39,118303,6,0,L|50:66,6,15,10|0|0|0|0|0|0,0:2|3:2|3:2|3:2|3:2|3:2|3:2,0:0:0:0:
113,92,118594,38,0,L|120:52,1,30,0|0,3:2|3:2,0:0:0:0:
116,95,118740,2,0,L|123:55,1,30,0|0,3:2|3:2,0:0:0:0:
194,72,118885,5,0,3:2:0:0:
37,286,119468,37,6,1:2:0:0:
94,235,119759,1,2,3:2:0:0:
167,257,120050,1,2,0:2:0:0:
319,188,120341,6,0,L|325:144,3,30,2|0|0|0,3:2|3:2|3:2|3:2,0:0:0:0:
278,250,120632,1,10,0:2:0:0:
278,250,120778,1,0,3:2:0:0:
401,234,120924,38,0,L|395:190,3,30,2|0|0|0,3:2|3:2|3:2|3:2,0:0:0:0:
452,295,121215,1,2,3:2:0:0:
452,295,121361,1,0,3:2:0:0:
494,89,121506,5,2,3:2:0:0:
494,89,121579,1,0,3:2:0:0:
494,89,121652,1,0,3:2:0:0:
494,89,121725,1,0,3:2:0:0:
494,89,121798,37,2,1:2:0:0:
462,161,122089,1,2,3:2:0:0:
392,124,122380,1,2,0:2:0:0:
254,86,122672,6,0,L|248:42,3,30,2|0|0|0,1:2|3:2|3:2|3:2,0:0:0:0:
236,163,122963,2,0,L|295:154,1,60,10|0,0:2|3:2,0:0:0:0:
105,149,123254,38,0,L|111:105,3,30,2|0|0|0,3:2|3:2|3:2|3:2,0:0:0:0:
123,226,123545,2,0,L|63:217,1,60,2|0,3:2|3:2,0:0:0:0:
177,362,123837,6,0,L|206:357,1,30,2|0,3:2|3:2,0:0:0:0:
277,342,123983,2,0,L|306:337,1,30,2|0,3:2|3:2,0:0:0:0:
442,308,124128,37,2,1:2:0:0:
370,284,124419,1,2,3:2:0:0:
427,232,124710,1,2,0:2:0:0:
293,147,125002,6,0,L|287:103,3,30,2|0|0|0,3:2|3:2|3:2|3:2,0:0:0:0:
355,82,125293,1,10,0:2:0:0:
355,82,125439,1,0,3:2:0:0:
216,117,125584,38,0,L|222:73,3,30,2|0|0|0,3:2|3:2|3:2|3:2,0:0:0:0:
154,52,125875,1,2,3:2:0:0:
154,52,126021,1,0,3:2:0:0:
50,164,126167,5,2,3:2:0:0:
67,194,126240,1,0,3:2:0:0:
93,205,126312,1,0,3:2:0:0:
113,205,126385,1,0,3:2:0:0:
123,197,126458,38,0,B|101:177|80:139|80:139|109:224|122:301,1,240,2|0,1:2|0:0,0:0:0:0:
122,300,127623,5,2,1:2:0:0:
150,296,127696,1,0,0:0:0:0:
185,301,127769,1,0,0:0:0:0:
230,286,127841,1,0,0:0:0:0:
285,310,127914,1,0,0:0:0:0:
353,279,127987,1,0,0:0:0:0:
106,120,128788,6,0,P|150:101|197:92,2,96,2|2|2,1:2|3:2|3:2,0:0:0:0:
238,27,129421,2,0,P|282:45|329:54,2,96,2|2|2,1:2|3:2|3:2,0:0:0:0:
480,12,130055,5,10,0:2:0:0:
446,125,130161,1,2,0:2:0:0:
480,12,130266,1,2,0:2:0:0:
345,216,130478,38,0,P|307:175|251:183,1,96,2|2,1:2|3:2,0:0:0:0:
269,174,130900,1,2,3:2:0:0:
196,295,131111,2,0,P|234:254|290:262,1,96,2|2,1:2|3:2,0:0:0:0:
443,354,131534,6,0,L|511:364,1,48,2|0,3:2|3:2,0:0:0:0:
397,297,131745,2,0,B|339:304|339:304|320:325|320:325|263:332,1,144,10|0,0:2|0:0,0:0:0:0:
106,222,132168,37,2,1:2:0:0:
106,222,132273,1,0,3:0:0:0:
106,222,132379,2,0,P|118:249|122:278,1,60,0|0,3:0|3:2,0:0:0:0:
196,125,132590,2,0,P|183:152|179:181,1,60,10|0,0:2|3:0,0:0:0:0:
21,99,132802,5,0,3:2:0:0:
28,63,132907,1,0,3:0:0:0:
56,41,133013,1,2,1:2:0:0:
90,36,133118,1,0,3:0:0:0:
122,51,133224,38,0,P|151:46|178:34,1,60,2|0,0:2|3:2,0:0:0:0:
279,146,133435,2,0,P|289:118|292:88,1,60,10|0,0:2|3:0,0:0:0:0:
466,87,133647,2,0,P|447:63|423:46,1,60,2|0,3:2|3:0,0:0:0:0:
409,300,133858,5,2,1:2:0:0:
402,316,133963,1,0,3:0:0:0:
383,329,134069,1,0,3:0:0:0:
354,336,134175,1,0,3:2:0:0:
318,324,134280,1,8,0:2:0:0:
295,286,134386,1,0,3:0:0:0:
303,238,134492,1,0,3:2:0:0:
350,208,134597,1,0,3:0:0:0:
403,148,134703,37,0,1:2:0:0:
388,58,134808,1,0,3:0:0:0:
307,27,134914,1,8,0:2:0:0:
235,77,135020,1,0,3:0:0:0:
245,164,135125,5,8,0:2:0:0:
170,186,135230,1,8,0:2:0:0:
107,136,135336,37,8,0:2:0:0:
94,135,135441,1,8,0:2:0:0:
33,175,135548,6,0,L|46:233,1,48,2|0,1:2|0:0,0:0:0:0:
111,239,135759,2,0,L|98:297,1,48,2|0,3:2|3:2,0:0:0:0:
53,338,135971,1,2,3:2:0:0:
36,178,136182,38,0,L|49:236,1,48,2|0,1:2|0:0,0:0:0:0:
114,242,136393,2,0,L|101:300,1,48,2|0,3:2|3:2,0:0:0:0:
56,341,136605,1,2,3:2:0:0:
234,241,136816,5,10,0:2:0:0:
234,241,137027,1,2,0:2:0:0:
432,243,137238,38,0,L|374:256,1,48,2|0,1:2|0:0,0:0:0:0:
321,310,137449,2,0,L|367:320,1,48,2|0,3:2|3:2,0:0:0:0:
417,378,137661,1,2,3:2:0:0:
435,246,137872,6,0,L|377:259,1,48,2|0,1:2|0:0,0:0:0:0:
324,313,138083,2,0,L|370:323,1,48,2|0,3:2|3:2,0:0:0:0:
420,381,138295,1,2,3:2:0:0:
356,164,138506,2,0,P|343:101|328:38,1,96,10|2,0:2|0:2,0:0:0:0:
324,313,138928,38,0,P|291:360|233:358,2,120,2|2|10,1:2|0:2|0:2,0:0:0:0:
103,63,139562,6,0,L|162:56,1,60,2|0,1:2|0:0,0:0:0:0:
111,156,139773,2,0,B|76:142|76:142|193:130,1,155.999992858887,2|2,1:2|0:2,0:0:0:0:
442,273,140196,2,0,B|477:259|477:259|359:247,1,155.999992858887,10|2,0:2|1:2,0:0:0:0:
359,247,140513,1,0,0:0:0:0:
254,312,140618,38,0,B|260:364|307:370|307:370|273:352|268:315,1,155.999992858887,2|8,1:2|0:2,0:0:0:0:
286,246,140935,1,8,0:2:0:0:
179,263,141041,6,0,B|136:294|154:338|154:338|153:300|182:277,1,155.999992858887,0|8,1:2|0:2,0:0:0:0:
286,246,141358,1,0,0:0:0:0:
200,151,141464,38,0,B|140:125|104:171|104:171|144:146|187:163,1,192,2|8,1:2|0:2,0:0:0:0:
286,246,141781,1,8,0:2:0:0:
322,81,141886,6,0,B|314:16|256:8|256:8|298:30|304:76,1,192,0|8,1:2|0:2,0:0:0:0:
286,246,142203,1,0,0:0:0:0:
437,183,142309,38,0,B|457:171|464:149|464:149|461:171|476:190,31,90.0000034332277,2|0|0|0|0|0|0|0|0|0|0|0|0|0|0|0|0|0|0|0|0|0|0|0|0|0|0|0|0|0|0|0,1:2|0:0|0:0|0:0|0:0|0:0|0:0|0:0|0:0|0:0|0:0|0:0|0:0|0:0|0:0|0:0|0:0|0:0|0:0|0:0|0:0|0:0|0:0|0:0|0:0|0:0|0:0|0:0|0:0|0:0|0:0|0:0,0:0:0:0:
488,160,143999,6,0,B|463:173|455:199|455:199|458:172|442:151,27,105.000001001358,2|0|0|0|0|0|0|0|0|0|0|0|0|0|0|0|0|0|0|0|0|0|0|0|0|0|0|0,0:2|0:0|0:0|0:0|0:0|0:0|0:0|0:0|0:0|0:0|0:0|0:0|0:0|0:0|0:0|0:0|0:0|0:0|0:0|0:0|0:0|0:0|0:0|0:0|0:0|0:0|0:0|0:0,0:0:0:0:
466,142,145478,38,0,L|460:171,2,30,2|2|2,0:2|0:2|0:2,0:0:0:0:
148,122,146745,6,0,L|151:151,1,30,2|2,0:2|0:2,0:0:0:0:
97,197,146957,6,0,B|41:181|41:181|137:172|137:172|143:177|143:177|234:169,1,251.999992309571,0|0,3:2|3:2,0:0:0:0:
434,53,147379,6,0,B|373:13|289:38|268:101|268:101|311:123|309:174,1,287.999991210938,6|2,1:2|0:2,0:0:0:0:
195,280,147696,1,2,0:2:0:0:
232,169,147802,2,0,P|216:220|206:273,1,107.999996704102,10|0,0:2|0:0,0:0:0:0:
68,367,148013,2,0,P|57:313|42:262,1,107.999996704102,2|0,1:2|0:0,0:0:0:0:
338,280,148224,2,0,P|313:325|261:331,1,107.999996704102,2|0,0:2|0:0,0:0:0:0:
70,92,148435,37,2,1:2:0:0:
0,203,148541,1,0,1:2:0:0:
70,92,148646,2,0,P|87:144|97:197,1,107.999996704102,10|0,0:2|0:0,0:0:0:0:
338,280,148858,1,2,3:2:0:0:
354,285,148910,1,0,3:2:0:0:
370,283,148963,1,0,3:2:0:0:
385,277,149016,1,0,3:2:0:0:
394,270,149069,6,0,B|408:219|361:192|361:192|297:225|281:299|316:360,1,287.999991210938,2|2,1:2|0:2,0:0:0:0:
425,146,149386,1,2,0:2:0:0:
269,171,149492,2,0,P|215:160|164:145,1,107.999996704102,10|0,0:2|0:0,0:0:0:0:
394,270,149703,2,0,P|445:254|498:244,1,107.999996704102,2|0,1:2|0:0,0:0:0:0:
405,65,149914,2,0,P|353:70|328:116,1,107.999996704102,2|0,0:2|0:0,0:0:0:0:
316,359,150126,37,2,1:2:0:0:
273,240,150231,1,0,1:2:0:0:
180,342,150337,5,10,0:2:0:0:
197,258,150442,1,0,0:0:0:0:
54,300,150548,37,2,3:2:0:0:
57,315,150600,1,0,3:2:0:0:
64,329,150653,1,0,3:2:0:0:
76,338,150706,1,0,3:2:0:0:
90,341,150759,6,0,P|75:261|49:184,1,161.999995056153,2|0,1:2|0:0,0:0:0:0:
41,174,150971,2,0,P|66:129|117:124,1,107.999996704102,2|0,0:2|0:0,0:0:0:0:
191,244,151182,38,0,P|206:164|232:87,1,161.999995056153,10|0,0:2|0:0,0:0:0:0:
241,77,151394,2,0,P|216:32|165:27,1,107.999996704102,2|0,1:2|0:0,0:0:0:0:
347,195,151604,2,0,P|398:190|424:145,1,107.999996704102,2|0,0:2|0:0,0:0:0:0:
329,15,151816,5,2,1:2:0:0:
461,81,151922,1,0,1:2:0:0:
329,15,152027,2,0,P|346:67|356:120,1,107.999996704102,10|0,0:2|0:0,0:0:0:0:
301,315,152238,37,2,3:2:0:0:
289,306,152291,1,0,3:2:0:0:
282,292,152344,1,0,3:2:0:0:
279,277,152396,1,0,3:2:0:0:
281,261,152449,6,0,P|328:286|332:338,1,107.999996704102,2|0,1:2|0:0,0:0:0:0:
259,384,152660,2,0,P|213:360|209:308,1,107.999996704102,2|2,0:2|0:2,0:0:0:0:
7,203,152872,38,0,P|31:157|83:153,1,107.999996704102,10|0,0:2|0:0,0:0:0:0:
139,256,153083,2,0,P|114:303|62:307,1,107.999996704102,2|0,1:2|0:0,0:0:0:0:
458,180,153295,5,2,1:2:0:0:
388,206,153401,1,0,1:2:0:0:
307,157,153506,1,0,1:2:0:0:
213,224,153612,1,0,1:2:0:0:
114,79,153718,37,8,3:2:0:0:
123,65,153771,1,0,3:2:0:0:
141,55,153823,1,8,0:2:0:0:
167,52,153876,1,0,3:2:0:0:
197,64,153929,1,8,0:2:0:0:
215,96,153982,1,0,3:2:0:0:
209,138,154034,1,8,0:2:0:0:
168,164,154087,1,0,3:2:0:0:
153,154,154140,6,0,B|135:114|98:96|98:96|177:122|299:137,1,287.999991210938,2|2,1:2|0:2,0:0:0:0:
434,110,154457,1,2,0:2:0:0:
406,9,154562,2,0,P|360:34|356:86,1,107.999996704102,10|0,0:2|0:0,0:0:0:0:
458,180,154773,2,0,P|504:154|508:102,1,107.999996704102,2|0,1:2|0:0,0:0:0:0:
307,157,154985,2,0,P|324:209|334:262,1,107.999996704102,2|0,0:2|0:0,0:0:0:0:
461,384,155196,37,2,1:2:0:0:
423,248,155302,1,0,1:2:0:0:
461,384,155407,2,0,P|471:330|487:279,1,107.999996704102,10|0,0:2|0:0,0:0:0:0:
276,355,155618,1,2,3:2:0:0:
259,348,155670,1,0,3:2:0:0:
248,336,155723,1,0,3:2:0:0:
241,322,155776,1,0,3:2:0:0:
240,307,155830,6,0,B|265:241|354:221|415:272|415:272|414:316|450:339,1,287.999991210938,2|2,1:2|0:2,0:0:0:0:
458,180,156147,1,2,0:2:0:0:
307,157,156252,2,0,P|324:209|334:262,1,107.999996704102,10|0,0:2|0:0,0:0:0:0:
112,360,156464,2,0,P|129:308|139:255,1,107.999996704102,2|0,1:2|0:0,0:0:0:0:
9,142,156675,2,0,P|35:188|87:192,1,107.999996704102,2|0,0:2|0:0,0:0:0:0:
241,7,156886,37,2,1:2:0:0:
175,134,156992,1,0,1:2:0:0:
156,56,157097,5,10,0:2:0:0:
260,83,157203,1,0,0:0:0:0:
385,94,157309,37,2,3:2:0:0:
392,79,157362,1,0,3:2:0:0:
390,64,157414,1,0,3:2:0:0:
384,50,157467,1,0,3:2:0:0:
372,40,157520,6,0,P|295:81|313:150,1,161.999995056153,2|0,1:2|0:0,0:0:0:0:
307,157,157731,2,0,P|358:174|411:182,1,107.999996704102,2|0,0:2|0:0,0:0:0:0:
473,383,157943,38,0,P|396:342|414:273,1,161.999995056153,10|0,0:2|0:0,0:0:0:0:
408,266,158154,2,0,P|459:250|512:242,1,107.999996704102,2|0,1:2|0:0,0:0:0:0:
282,343,158365,5,2,0:2:0:0:
249,211,158471,1,0,0:0:0:0:
162,332,158576,37,2,1:2:0:0:
180,243,158682,1,0,1:2:0:0:
162,332,158788,2,0,P|111:316|58:308,1,107.999996704102,10|0,0:2|0:0,0:0:0:0:
44,119,158999,2,0,P|69:112|94:103,3,53.9999983520508,2|0|0|0,3:2|3:2|3:2|3:2,0:0:0:0:
117,205,159211,6,0,P|115:118|184:170,1,215.999993408203,10|0,0:2|0:0,0:0:0:0:
180,243,159528,1,0,1:2:0:0:
311,255,159633,38,0,P|237:301|248:214,1,215.999993408203,8|0,0:2|0:0,0:0:0:0:
312,182,159950,1,0,1:2:0:0:
413,293,160056,6,0,P|501:209|380:226,1,323.999990112305,8|0,0:2|0:0,0:0:0:0:
278,384,160478,37,10,0:2:0:0:
311,255,160583,1,10,0:2:0:0:
278,384,160689,1,10,0:2:0:0:
246,214,160795,1,10,0:2:0:0:
162,332,160900,6,0,P|109:345|56:352,1,107.999996704102,6|2,1:2|0:2,0:0:0:0:
29,142,161111,1,2,1:2:0:0:
29,142,161217,1,2,1:2:0:0:
183,170,161323,37,10,0:2:0:0:
40,255,161428,2,0,P|66:209|118:205,1,107.999996704102,2|2,0:2|1:2,0:0:0:0:
229,289,161640,1,2,1:2:0:0:
312,182,161745,6,0,P|304:128|291:76,1,107.999996704102,2|2,1:2|0:2,0:0:0:0:
379,227,161957,37,2,1:2:0:0:
246,214,162062,1,2,1:2:0:0:
379,227,162168,1,10,0:2:0:0:
113,47,162379,1,2,1:2:0:0:
101,56,162432,1,0,3:0:0:0:
94,70,162485,1,2,1:2:0:0:
91,85,162537,1,0,3:0:0:0:
93,101,162590,6,0,P|140:76|144:24,1,107.999996704102,2|0,1:2|0:0,0:0:0:0:
9,4,162801,1,2,1:2:0:0:
9,4,162907,1,0,1:2:0:0:
29,142,163013,37,10,0:2:0:0:
171,94,163118,2,0,P|224:108|277:115,1,107.999996704102,2|0,0:2|1:2,0:0:0:0:
144,25,163330,1,2,1:2:0:0:
80,195,163435,2,0,P|132:181|185:174,1,107.999996704102,2|2,1:2|0:2,0:0:0:0:
475,157,163647,5,2,1:2:0:0:
487,148,163700,1,0,3:2:0:0:
494,134,163753,1,0,1:2:0:0:
497,119,163805,1,0,3:2:0:0:
495,103,163858,2,0,P|448:128|444:180,1,107.999996704102,10|0,0:2|0:0,0:0:0:0:
355,301,164070,37,2,1:2:0:0:
340,298,164122,1,0,3:2:0:0:
326,291,164175,1,0,1:2:0:0:
317,279,164228,1,0,3:2:0:0:
315,264,164280,6,0,B|394:280|410:357|410:357|411:278|483:240,1,287.999991210938,2|2,1:2|1:2,0:0:0:0:
324,187,164597,1,2,1:2:0:0:
248,303,164703,2,0,P|197:296|169:251,1,107.999996704102,10|0,0:2|0:0,0:0:0:0:
255,121,164914,2,0,P|306:128|334:173,1,107.999996704102,2|0,1:2|1:2,0:0:0:0:
185,174,165126,2,0,P|177:120|164:68,1,107.999996704102,2|0,1:2|0:0,0:0:0:0:
355,0,165337,37,2,1:2:0:0:
444,85,165443,1,0,1:2:0:0:
355,0,165548,2,0,P|338:51|329:104,1,107.999996704102,10|0,0:2|0:0,0:0:0:0:
87,275,165759,1,2,1:2:0:0:
75,266,165812,1,0,3:2:0:0:
68,252,165865,1,0,1:2:0:0:
65,237,165918,1,0,3:2:0:0:
69,221,165971,6,0,B|137:208|210:183|210:183|262:214|273:259|246:303,1,287.999991210938,2|2,1:2|1:2,0:0:0:0:
334,264,166288,1,2,1:2:0:0:
225,373,166393,2,0,P|180:345|172:293,1,107.999996704102,10|0,0:2|0:0,0:0:0:0:
357,192,166604,2,0,P|401:219|409:271,1,107.999996704102,2|0,1:2|1:2,0:0:0:0:
112,148,166816,37,2,1:2:0:0:
182,174,166922,1,0,1:2:0:0:
265,125,167027,1,0,1:2:0:0:
357,192,167133,1,0,1:2:0:0:
444,63,167239,5,8,0:2:0:0:
430,55,167292,1,0,3:2:0:0:
409,54,167344,1,8,0:2:0:0:
384,62,167397,1,0,3:2:0:0:
361,84,167450,1,10,0:2:0:0:
348,119,167503,1,0,3:2:0:0:
310,138,167556,1,10,0:2:0:0:
265,125,167608,1,0,3:2:0:0:
258,112,167661,38,0,P|206:95|153:86,1,107.999996704102,6|0,1:2|0:0,0:0:0:0:
28,256,167872,2,0,P|79:239|132:230,1,107.999996704102,2|0,1:2|1:2,0:0:0:0:
334,264,168083,5,10,0:2:0:0:
225,373,168188,2,0,P|180:345|172:293,1,107.999996704102,2|2,0:2|1:2,0:0:0:0:
275,200,168400,38,0,P|258:251|249:304,1,107.999996704102,2|0,1:2|1:2,0:0:0:0:
383,384,168611,1,2,0:2:0:0:
481,284,168717,5,2,1:2:0:0:
324,338,168823,1,2,1:2:0:0:
481,284,168928,1,10,0:2:0:0:
354,61,169140,1,2,1:2:0:0:
342,70,169193,1,0,3:0:0:0:
335,83,169246,1,2,1:2:0:0:
332,99,169298,1,0,3:0:0:0:
333,116,169352,37,2,1:2:0:0:
473,197,169457,1,2,0:2:0:0:
358,189,169563,5,2,1:2:0:0:
442,126,169668,1,2,1:2:0:0:
248,95,169773,38,0,P|265:146|274:199,1,107.999996704102,10|2,0:2|0:2,0:0:0:0:
173,328,169985,1,2,1:2:0:0:
173,328,170090,1,2,1:2:0:0:
91,228,170196,5,2,1:2:0:0:
225,265,170302,1,2,0:2:0:0:
84,149,170407,38,0,P|77:122|74:95,3,53.9999983520508,2|0|0|0,1:2|3:2|1:2|3:2,0:0:0:0:
180,0,170618,2,0,P|163:51|154:104,1,107.999996704102,10|0,0:2|0:0,0:0:0:0:
379,327,170830,1,2,1:2:0:0:
381,311,170882,1,0,3:2:0:0:
376,295,170935,1,0,1:2:0:0:
367,282,170988,1,0,3:2:0:0:
359,274,171041,6,0,B|306:269|287:320|287:320|331:377|407:380|461:335,1,287.999991210938,2|2,1:2|1:2,0:0:0:0:
391,159,171358,1,2,1:2:0:0:
443,264,171464,2,0,P|451:210|469:159,1,107.999996704102,10|0,0:2|0:0,0:0:0:0:
292,98,171675,2,0,P|309:149|318:202,1,107.999996704102,2|0,1:2|1:2,0:0:0:0:
449,90,171886,2,0,P|421:45|369:36,1,107.999996704102,2|0,1:2|0:0,0:0:0:0:
236,169,172097,37,2,1:2:0:0:
391,159,172203,1,0,1:2:0:0:
236,169,172308,2,0,P|219:221|209:274,1,107.999996704102,10|0,0:2|0:0,0:0:0:0:
75,68,172520,1,2,1:2:0:0:
84,56,172573,1,0,3:2:0:0:
98,49,172626,1,2,1:2:0:0:
113,46,172678,1,0,3:2:0:0:
134,47,172731,6,0,P|155:138|60:140,1,215.999993408203,10|2,0:2|1:2,0:0:0:0:
17,22,173048,1,2,1:2:0:0:
119,238,173154,38,0,P|24:236|45:144,1,215.999993408203,10|2,0:2|1:2,0:0:0:0:
159,154,173471,1,2,1:2:0:0:
193,320,173576,5,10,0:2:0:0:
151,163,173682,1,10,0:2:0:0:
307,121,173788,1,10,0:2:0:0:
349,278,173893,1,10,0:2:0:0:
211,54,173999,38,0,L|236:158,1,107.999996704102,10|0,0:2|0:0,0:0:0:0:
452,269,174210,2,0,L|464:216,3,53.9999983520508,10|0|0|0,0:2|0:0|0:0|0:0,0:0:0:0:
443,340,174421,22,0,P|423:278|360:264,1,135.000005149841,4|0,1:2|0:0,0:0:0:0:
349,278,174633,2,0,P|304:292|258:300,1,90.0000034332277,2|0,3:2|0:0,0:0:0:0:
37,340,174844,1,10,0:2:0:0:
37,340,174949,2,0,P|81:347|123:362,1,90.0000034332277,2|0,0:0|3:2,0:0:0:0:
116,178,175161,6,0,P|79:203|71:246,1,90.0000034332277,2|0,0:0|1:2,0:0:0:0:
193,320,175372,2,0,P|156:294|148:251,1,90.0000034332277,2|0,3:2|3:2,0:0:0:0:
162,242,175530,1,0,3:2:0:0:
162,242,175583,38,0,L|225:228,1,45.0000017166138,2|0,3:2|3:2,0:0:0:0:
330,196,175689,2,0,P|285:188|243:173,1,90.0000034332277,10|0,0:2|0:0,0:0:0:0:
0,64,175900,5,2,3:2:0:0:
25,72,175953,1,0,3:2:0:0:
40,94,176006,1,0,3:2:0:0:
45,121,176059,1,0,3:2:0:0:
33,144,176111,2,0,P|54:80|65:14,1,135.000005149841,0|0,1:2|0:0,0:0:0:0:
83,6,176323,38,0,P|108:42|151:50,1,90.0000034332277,2|0,3:2|0:0,0:0:0:0:
300,117,176534,1,10,0:2:0:0:
300,117,176640,2,0,P|325:81|368:73,1,90.0000034332277,2|0,0:0|3:2,0:0:0:0:
210,0,176851,6,0,P|225:42|232:86,1,90.0000034332277,2|0,0:0|1:2,0:0:0:0:
411,198,177062,2,0,P|418:153|433:111,1,90.0000034332277,2|0,3:2|3:2,0:0:0:0:
447,105,177221,1,0,3:2:0:0:
447,105,177274,38,0,P|478:97|510:91,1,45.0000017166138,2|0,3:2|3:2,0:0:0:0:
385,2,177379,2,0,P|427:17|471:23,1,90.0000034332277,10|0,0:2|0:0,0:0:0:0:
365,265,177590,5,2,3:2:0:0:
339,262,177643,1,0,3:2:0:0:
317,247,177696,1,0,3:2:0:0:
309,222,177749,1,0,3:2:0:0:
315,194,177802,2,0,P|349:250|320:307,1,135.000005149841,0|0,1:2|0:0,0:0:0:0:
306,320,178013,38,0,P|264:305|220:298,1,90.0000034332277,2|0,3:2|0:0,0:0:0:0:
156,195,178224,1,10,0:2:0:0:
156,195,178330,2,0,P|198:179|242:172,1,90.0000034332277,2|0,0:0|3:2,0:0:0:0:
72,287,178541,6,0,P|36:262|28:219,1,90.0000034332277,2|0,3:2|1:2,0:0:0:0:
108,44,178752,2,0,P|144:69|151:112,1,90.0000034332277,2|0,3:2|3:2,0:0:0:0:
132,125,178911,1,0,3:2:0:0:
132,125,178964,38,0,P|100:117|69:111,1,45.0000017166138,2|0,3:2|3:2,0:0:0:0:
219,57,179069,2,0,P|263:50|305:35,1,90.0000034332277,10|0,0:2|0:0,0:0:0:0:
483,248,179280,5,2,3:2:0:0:
457,254,179333,1,0,3:2:0:0:
431,247,179386,1,0,3:2:0:0:
415,226,179439,1,0,3:2:0:0:
411,198,179492,2,0,P|462:238|454:302,1,135.000005149841,0|0,1:2|0:0,0:0:0:0:
432,319,179703,38,0,P|456:213|472:107,1,215.999993408203,2|8,3:2|0:2,0:0:0:0:
455,38,180020,1,0,0:0:0:0:
296,116,180126,2,0,P|349:107|400:90,1,107.999996704102,2|0,3:2|3:2,0:0:0:0:
273,384,180337,5,0,1:2:0:0:
231,321,180442,1,0,1:2:0:0:
286,245,180548,2,0,L|345:233,1,53.9999983520508,2|0,1:2|0:0,0:0:0:0:
210,158,180654,2,0,L|151:146,1,53.9999983520508,0|0,1:2|3:2,0:0:0:0:
183,0,180759,38,0,P|228:24|234:76,1,107.999996704102,8|8,0:2|0:2,0:0:0:0:
86,239,180971,5,10,0:2:0:0:
61,231,181024,1,0,3:2:0:0:
46,209,181077,1,8,0:2:0:0:
41,182,181130,1,0,3:2:0:0:
53,158,181182,2,0,P|32:222|20:289,1,135.000005149841,4|0,1:2|0:0,0:0:0:0:
5,298,181393,38,0,P|20:340|27:384,1,90.0000034332277,2|0,3:2|0:0,0:0:0:0:
177,228,181604,1,10,0:2:0:0:
177,228,181710,2,0,P|161:270|154:314,1,90.0000034332277,2|0,0:0|3:2,0:0:0:0:
358,382,181921,6,0,P|394:357|402:314,1,90.0000034332277,2|0,0:0|1:2,0:0:0:0:
286,245,182132,2,0,P|322:270|329:313,1,90.0000034332277,2|0,3:2|3:2,0:0:0:0:
310,326,182291,1,0,3:2:0:0:
310,326,182344,38,0,P|278:318|247:312,1,45.0000017166138,2|0,3:2|3:2,0:0:0:0:
388,240,182449,2,0,P|432:233|474:218,1,90.0000034332277,10|0,0:2|0:0,0:0:0:0:
318,65,182661,5,2,3:2:0:0:
293,73,182714,1,0,3:2:0:0:
278,95,182767,1,0,3:2:0:0:
273,122,182820,1,0,3:2:0:0:
285,146,182872,2,0,P|264:82|252:15,1,135.000005149841,0|0,1:2|0:0,0:0:0:0:
238,8,183083,38,0,P|212:44|169:51,1,90.0000034332277,2|0,3:2|0:0,0:0:0:0:
31,34,183295,1,10,0:2:0:0:
31,34,183400,2,0,P|74:41|99:77,1,90.0000034332277,2|0,0:0|3:2,0:0:0:0:
134,210,183611,6,0,P|141:166|156:124,1,90.0000034332277,2|0,0:0|1:2,0:0:0:0:
57,301,183823,2,0,P|50:257|35:215,1,90.0000034332277,2|0,3:2|3:2,0:0:0:0:
46,196,183981,1,0,3:2:0:0:
46,196,184034,38,0,P|24:188|2:184,1,45.0000017166138,2|0,3:2|3:2,0:0:0:0:
137,291,184139,2,0,P|179:275|223:268,1,90.0000034332277,10|0,0:2|0:0,0:0:0:0:
434,121,184351,5,2,3:2:0:0:
408,115,184404,1,0,3:2:0:0:
382,122,184457,1,0,3:2:0:0:
366,143,184510,1,0,3:2:0:0:
362,171,184563,2,0,P|413:131|405:67,1,135.000005149841,0|0,1:2|0:0,0:0:0:0:
411,48,184773,38,0,P|367:41|325:26,1,90.0000034332277,2|0,3:2|0:0,0:0:0:0:
424,230,184985,1,10,0:2:0:0:
424,230,185090,2,0,P|466:214|510:207,1,90.0000034332277,2|0,0:0|3:2,0:0:0:0:
322,384,185302,6,0,P|285:359|278:315,1,90.0000034332277,2|0,0:0|1:2,0:0:0:0:
424,230,185513,2,0,P|460:254|467:298,1,90.0000034332277,2|0,3:2|3:2,0:0:0:0:
455,313,185671,1,0,3:2:0:0:
455,313,185724,38,0,P|447:335|443:357,1,45.0000017166138,2|0,3:2|3:2,0:0:0:0:
343,238,185829,2,0,P|358:279|366:324,1,90.0000034332277,10|8,0:2|0:2,0:0:0:0:
84,174,186041,6,0,L|128:167,1,45.0000017166138,10|0,0:2|0:0,0:0:0:0:
354,131,186147,2,0,L|309:137,1,45.0000017166138,8|0,0:2|0:0,0:0:0:0:
219,153,186252,2,0,L|229:210,2,53.9999983520508,14|2|2,0:2|0:0|0:0,0:0:0:0:
157,311,187309,38,0,L|158:288,1,17.9999994506836,0|0,3:2|3:2,0:0:0:0:
227,314,187520,1,8,0:2:0:0:
467,258,187942,6,0,P|427:203|366:203,2,125.999996154785,2|2|2,1:2|3:2|3:2,0:0:0:0:
346,341,188788,2,0,P|341:299|330:258,1,83.9999974365235,2|2,0:2|0:2,0:0:0:0:
274,209,189104,1,2,3:2:0:0:
274,209,189421,2,0,P|276:188|281:167,1,41.9999987182618,2|2,3:2|0:2,0:0:0:0:
397,39,189633,37,2,1:2:0:0:
397,39,189949,1,2,3:2:0:0:
351,96,190266,6,0,P|290:89|264:35,1,125.999996154785,2|0,3:2|3:2,0:0:0:0:
264,35,190900,1,0,3:2:0:0:
264,35,191323,38,0,P|203:53|141:63,2,125.999996154785,2|2|2,1:2|3:2|3:2,0:0:0:0:
25,121,192168,2,0,P|66:121|108:129,1,83.9999974365235,2|2,0:2|0:2,0:0:0:0:
237,225,192485,2,0,P|184:195|185:135,1,125.999996154785,2|2,3:2|3:2,0:0:0:0:
311,248,193013,5,2,1:2:0:0:
298,176,193330,1,2,3:2:0:0:
231,304,193647,2,0,B|161:298|186:344|93:334,2,125.999996154785,2|0|0,3:2|3:2|3:2,0:0:0:0:
231,304,194492,1,0,3:2:0:0:
418,269,194703,38,0,P|405:308|399:350,1,83.9999974365235,2|2,1:2|3:2,0:0:0:0:
355,230,195020,2,0,P|334:289|326:351,1,125.999996154785,2|2,3:2|3:2,0:0:0:0:
168,212,195548,6,0,P|202:166|278:169,1,125.999996154785,2|2,0:2|3:2,0:0:0:0:
241,231,195971,1,8,0:2:0:0:
241,231,196182,1,2,3:2:0:0:
92,130,196393,38,0,P|96:150|100:171,2,41.9999987182618,2|0|2,1:2|0:0|3:2,0:0:0:0:
12,123,196710,2,0,P|25:162|31:204,1,83.9999974365235,2|0,3:2|0:0,0:0:0:0:
203,109,197027,2,0,P|173:56|113:56,1,125.999996154785,2|0,3:2|3:2,0:0:0:0:
113,56,197661,1,8,0:2:0:0:
355,152,198083,6,0,P|390:131|403:92,1,83.9999974365235,2|0,1:2|3:2,0:0:0:0:
358,37,198400,2,0,P|376:97|390:158,1,125.999996154785,2|2,3:2|3:2,0:0:0:0:
293,324,198928,38,0,P|297:303|301:282,2,41.9999987182618,2|0|2,0:2|3:2|0:2,0:0:0:0:
241,238,199245,2,0,B|311:232|286:278|379:268,1,125.999996154785,2|2,3:2|3:2,0:0:0:0:
146,351,199773,6,0,P|141:330|155:346,2,53.9999983520508,2|2|2,1:2|0:0|0:0,0:0:0:0:
146,351,200830,1,2,0:0:0:0:
146,351,201041,1,2,0:0:0:0:
