osu file format v14

[General]
AudioFilename: audio.mp3
AudioLeadIn: 0
PreviewTime: 50627
Countdown: 0
SampleSet: Soft
StackLeniency: 0.5
Mode: 0
LetterboxInBreaks: 0
WidescreenStoryboard: 1

[Editor]
Bookmarks: 20521,34042,50732,64465,77986,91507,109565,128788,147168,160900,174421,187942
DistanceSpacing: 0.7
BeatDivisor: 8
GridSize: 16
TimelineZoom: 2.3

[Metadata]
Title:God-ish
TitleUnicode:神っぽいな
Artist:philo
ArtistUnicode:フィロ
Creator:Basensorex
Version:alevi & Vanya's Insane
Source:
Tags:kirishima- pincus alevi vanya2 ermi nymphe modding queue kiyoshi guarden gazimal brain exe kamippoi kami ppoi na godish japanese pop j-pop jpop vocaloid ボーカ utaite cover female strong vocals vocalist pinocchiop hatsune miku
BeatmapID:3656513
BeatmapSetID:1722410

[Difficulty]
HPDrainRate:4
CircleSize:3.8
OverallDifficulty:8
ApproachRate:9
SliderMultiplier:1.7
SliderTickRate:1

[Events]
//Background and Video events
0,0,"hot.png",0,0
//Break Periods
//Storyboard Layer 0 (Background)
//Storyboard Layer 1 (Fail)
//Storyboard Layer 2 (Pass)
//Storyboard Layer 3 (Foreground)
//Storyboard Layer 4 (Overlay)
//Storyboard Sound Samples

[TimingPoints]
240,422.535211267606,4,2,22,40,1,0
13761,-100,4,2,22,50,0,0
18831,-71.4285714285714,4,2,22,50,0,0
19887,-100,4,2,22,50,0,0
20521,-71.4285714285714,4,2,22,65,0,0
25803,-66.6666666666667,4,2,22,65,0,0
27282,-71.4285714285714,4,2,22,65,0,0
34042,-90.9090909090909,4,2,22,55,0,0
37423,-76.9230769230769,4,2,22,65,0,0
40803,-76.9230769230769,4,2,22,55,0,0
44184,-76.9230769230769,4,2,22,65,0,0
45873,-76.9230769230769,4,2,22,70,0,0
47563,-250,4,2,22,70,0,0
50944,-62.5,4,2,22,80,0,0
63620,-250,4,2,22,80,0,0
64042,-250,4,2,22,60,0,0
64465,-66.6666666666667,4,2,22,80,0,0
67845,-62.5,4,2,22,80,0,0
68690,-66.6666666666667,4,2,22,80,0,0
69535,-62.5,4,2,22,80,0,0
71225,-66.6666666666667,4,2,22,80,0,0
74606,-62.5,4,2,22,80,0,0
77986,-71.4285714285714,4,2,22,60,0,0
83268,-111.111111111111,4,2,22,60,0,0
84324,-71.4285714285714,4,2,22,60,0,0
91507,582.52427184466,4,2,22,50,1,0
100827,-250,4,2,22,65,0,0
110147,-83.3333333333333,4,2,22,75,0,0
127332,-83.3333333333333,4,2,22,5,0,0
127623,-71.697417579917,4,2,22,75,0,0
128060,-66.6666666666667,4,2,22,5,0,0
128788,422.535211267606,4,2,22,55,1,0
128788,-90.9090909090909,4,2,22,55,0,0
132168,-76.9230769230769,4,2,22,65,0,0
135548,-76.9230769230769,4,2,22,55,0,0
138928,-76.9230769230769,4,2,22,65,0,0
140618,-76.9230769230769,4,2,22,70,0,0
142309,-250,4,2,22,70,0,0
146745,-76.9230769230769,4,2,22,70,0,0
147379,-62.5,4,2,22,85,0,0
160055,-62.5,4,2,22,85,0,0
160372,-62.5,4,2,22,5,0,0
160478,-62.5,4,2,22,85,0,0
160900,-66.6666666666667,4,2,22,85,0,0
164280,-62.5,4,2,22,85,0,0
167661,-66.6666666666667,4,2,22,85,0,0
172309,-62.5,4,2,22,85,0,0
172942,-66.6666666666667,4,2,22,85,0,0
174421,-71.4285714285714,4,2,22,75,0,0
179703,-66.6666666666667,4,2,22,75,0,0
181182,-71.4285714285714,4,2,22,75,0,0
187942,-100,4,2,22,50,0,0

[Colours]
Combo1 : 169,177,5
Combo2 : 191,191,191
Combo3 : 75,74,74
Combo4 : 228,14,46

[HitObjects]
381,81,7000,6,0,L|246:40,2,127.5,2|2|2,1:2|3:2|3:2,0:0:0:0:
447,211,7845,2,0,L|360:184,1,85,2|2,0:2|0:2,0:0:0:0:
296,139,8162,1,2,3:2:0:0:
296,139,8479,2,0,L|282:188,1,42.5,2|2,3:2|0:2,0:0:0:0:
200,255,8690,6,0,L|65:296,2,127.5,2|2|2,1:2|3:2|3:2,0:0:0:0:
14,169,9641,2,0,L|101:142,1,85,0|0,3:2|3:2,0:0:0:0:
177,137,9958,1,0,3:2:0:0:
177,137,10169,2,0,L|165:96,1,42.5,2|0,0:2|0:0,0:0:0:0:
248,23,10380,38,0,L|285:154,1,127.5,2|2,1:2|3:2,0:0:0:0:
447,247,11014,2,0,L|429:308,1,42.5,2|0,3:2|0:0,0:0:0:0:
363,324,11225,2,0,L|276:297,1,85,2|2,0:2|0:2,0:0:0:0:
201,294,11542,1,2,3:2:0:0:
201,294,11859,2,0,L|212:253,1,42.5,2|0,3:2|0:0,0:0:0:0:
113,177,12070,2,0,L|78:303,2,127.5,2|2|2,1:2|3:2|3:2,0:0:0:0:
249,116,13021,2,0,L|336:89,1,85,0|0,3:2|3:2,0:0:0:0:
402,65,13338,1,0,3:2:0:0:
313,185,13549,1,0,3:2:0:0:
155,0,13761,6,0,P|180:31|164:80,1,85,2|2,1:2|3:2,0:0:0:0:
102,104,14078,2,0,P|85:96|56:87,2,42.5,2|8|0,3:2|0:2|0:0,0:0:0:0:
144,168,14394,37,2,3:2:0:0:
131,178,14606,6,0,P|106:209|122:258,1,85,2|2,0:2|0:2,0:0:0:0:
178,295,14923,1,2,3:2:0:0:
192,301,15028,2,0,P|209:293|238:284,1,42.5,8|0,0:2|0:0,0:0:0:0:
297,234,15240,2,0,P|314:242|343:251,1,42.5,2|0,3:2|0:0,0:0:0:0:
431,286,15451,37,2,1:2:0:0:
343,384,15662,2,0,P|303:367|263:354,1,85,2|8,3:2|0:2,0:0:0:0:
105,223,16085,2,0,P|126:160|141:91,1,127.5,2|0,3:2|3:2,0:0:0:0:
272,18,16613,1,0,3:2:0:0:
286,27,16718,2,0,P|293:58|303:88,1,42.5,8|0,0:2|0:0,0:0:0:0:
362,114,16930,2,0,P|354:145|344:175,1,42.5,2|0,0:2|0:0,0:0:0:0:
249,214,17141,6,0,P|264:254|274:307,1,85,2|0,1:2|3:2,0:0:0:0:
328,351,17458,1,2,3:2:0:0:
339,358,17563,2,0,P|363:348|389:341,1,42.5,10|0,0:2|0:0,0:0:0:0:
436,289,17775,37,2,3:2:0:0:
476,189,17986,6,0,P|502:223|503:265,1,85,2|2,0:2|0:2,0:0:0:0:
427,274,18303,2,0,P|413:257|408:237,1,42.5,2|8,3:2|0:2,0:0:0:0:
357,140,18620,2,0,P|372:121|374:92,1,42.5,2|0,3:2|0:0,0:0:0:0:
340,31,18831,38,0,P|324:12|331:37,1,59.4999981842042,2|0,1:2|0:0,0:0:0:0:
41,234,19887,2,0,P|31:207|15:177,1,42.5,2|0,3:2|3:2,0:0:0:0:
108,278,20099,1,10,0:2:0:0:
260,375,20521,5,4,1:2:0:0:
453,277,20732,2,0,P|444:300|435:336,1,59.4999981842042,2|0,0:2|0:0,0:0:0:0:
353,217,20944,1,2,1:2:0:0:
345,205,21049,2,0,P|353:181|362:144,1,59.4999981842042,2|0,0:2|0:0,0:0:0:0:
498,174,21261,38,0,P|469:181|440:190,1,59.4999981842042,2|0,0:2|1:2,0:0:0:0:
342,65,21472,2,0,P|313:57|284:48,1,59.4999981842042,2|0,0:2|0:0,0:0:0:0:
177,102,21683,1,2,0:2:0:0:
160,101,21789,2,0,P|134:86|121:60,1,59.4999981842042,2|0,1:2|0:0,0:0:0:0:
237,149,22000,2,0,L|243:190,4,29.7499990921021,10|8|8|8|0,0:2|0:2|0:2|0:2|1:2,0:0:0:0:
23,261,22423,6,0,P|47:245|77:246,1,59.4999981842042,2|0,0:2|0:0,0:0:0:0:
132,191,22634,1,2,1:2:0:0:
143,191,22740,2,0,P|165:209|173:237,1,59.4999981842042,2|0,0:2|0:0,0:0:0:0:
258,308,22951,38,0,P|247:335|222:351,1,59.4999981842042,2|0,0:2|1:2,0:0:0:0:
211,342,23162,2,0,P|221:314|246:298,1,59.4999981842042,2|0,0:2|0:0,0:0:0:0:
333,220,23373,1,2,0:2:0:0:
344,231,23479,2,0,P|372:239|401:247,1,59.4999981842042,2|0,1:2|0:0,0:0:0:0:
482,329,23690,2,0,L|523:323,4,29.7499990921021,10|8|8|8|0,0:2|0:2|0:2|0:2|1:2,0:0:0:0:
472,188,24113,6,0,P|487:163|486:133,1,59.4999981842042,2|0,0:2|0:0,0:0:0:0:
411,103,24324,1,2,1:2:0:0:
399,106,24430,2,0,P|383:130|384:160,1,59.4999981842042,2|0,0:2|0:0,0:0:0:0:
466,56,24641,38,0,P|473:27|483:0,1,59.4999981842042,2|0,0:2|1:2,0:0:0:0:
312,96,24852,2,0,P|304:67|294:39,1,59.4999981842042,2|0,0:2|0:0,0:0:0:0:
159,69,25063,1,2,0:2:0:0:
159,56,25169,2,0,P|166:27|176:0,1,59.4999981842042,2|0,1:2|0:0,0:0:0:0:
31,112,25380,2,0,P|27:94|21:82,4,29.7499990921021,10|8|8|8|0,0:2|0:2|0:2|0:2|1:2,0:0:0:0:
154,203,25803,6,0,B|225:217|202:234|272:250,1,127.500004863739,2|0,0:2|1:2,0:0:0:0:
364,234,26120,1,0,0:0:0:0:
352,229,26225,2,0,B|331:222|331:222|285:269|330:318,1,127.500004863739,2|0,0:2|1:2,0:0:0:0:
383,377,26542,1,0,0:0:0:0:
396,379,26648,2,0,P|445:350|414:302,1,127.500004863739,2|0,0:2|1:2,0:0:0:0:
339,310,26965,1,0,0:0:0:0:
327,315,27070,1,10,0:2:0:0:
161,354,27282,37,0,1:2:0:0:
0,211,27493,2,0,P|9:234|18:270,1,59.4999981842042,2|0,0:2|0:0,0:0:0:0:
134,247,27704,1,2,1:2:0:0:
136,259,27810,2,0,P|116:274|90:301,1,59.4999981842042,2|0,0:2|0:0,0:0:0:0:
60,154,28021,6,0,P|83:163|119:172,1,59.4999981842042,2|0,0:2|1:2,0:0:0:0:
162,35,28232,2,0,P|133:27|105:17,1,59.4999981842042,2|0,0:2|0:0,0:0:0:0:
183,133,28444,1,2,0:2:0:0:
196,134,28549,2,0,P|222:122|239:96,1,59.4999981842042,2|0,1:2|0:0,0:0:0:0:
307,220,28761,2,0,L|277:215,4,29.7499990921021,10|8|8|8|0,0:2|0:2|0:2|0:2|1:2,0:0:0:0:
434,123,29183,38,0,P|435:93|418:69,1,59.4999981842042,2|0,0:2|0:0,0:0:0:0:
342,83,29394,1,2,1:2:0:0:
332,89,29500,2,0,P|330:118|347:142,1,59.4999981842042,2|0,0:2|0:0,0:0:0:0:
428,241,29711,6,0,P|444:265|443:294,1,59.4999981842042,2|0,0:2|1:2,0:0:0:0:
428,299,29923,2,0,P|411:274|412:245,1,59.4999981842042,2|0,0:2|0:0,0:0:0:0:
497,356,30134,1,2,0:2:0:0:
489,365,30240,2,0,P|458:372|428:382,1,59.4999981842042,2|0,1:2|0:0,0:0:0:0:
321,289,30451,2,0,L|327:248,4,29.7499990921021,10|8|8|8|0,0:2|0:2|0:2|0:2|1:2,0:0:0:0:
191,365,30873,38,0,P|161:365|136:350,1,59.4999981842042,2|0,0:2|0:0,0:0:0:0:
79,280,31085,1,2,1:2:0:0:
73,267,31190,2,0,P|48:251|18:251,1,59.4999981842042,2|0,0:2|0:0,0:0:0:0:
158,241,31401,6,0,P|165:212|175:184,1,59.4999981842042,2|0,0:2|1:2,0:0:0:0:
52,81,31613,2,0,P|44:52|34:24,1,59.4999981842042,2|0,0:2|0:0,0:0:0:0:
198,81,31824,1,2,0:2:0:0:
190,94,31930,2,0,P|161:101|133:111,1,59.4999981842042,2|0,1:2|0:0,0:0:0:0:
259,18,32141,2,0,L|300:24,4,29.7499990921021,10|8|8|8|2,0:2|0:2|0:2|0:2|1:2,0:0:0:0:
494,262,33409,37,0,1:2:0:0:
447,272,33514,1,0,1:2:0:0:
410,240,33620,1,8,0:2:0:0:
499,40,34042,5,2,1:2:0:0:
488,50,34254,38,0,P|465:60|443:68,1,46.7500014266968,2|0,3:2|3:2,0:0:0:0:
392,123,34465,1,2,3:2:0:0:
189,160,34676,5,2,1:2:0:0:
200,170,34888,38,0,P|223:180|245:188,1,46.7500014266968,2|0,3:2|3:2,0:0:0:0:
296,243,35099,1,2,3:2:0:0:
504,355,35310,1,10,0:2:0:0:
472,324,35416,1,2,0:2:0:0:
432,333,35521,2,0,P|424:354|418:382,1,46.7500014266968,2|0,0:2|0:0,0:0:0:0:
266,352,35732,6,0,P|260:329|252:307,1,46.7500014266968,2|0,1:2|0:0,0:0:0:0:
296,243,35944,1,2,3:2:0:0:
112,286,36155,37,2,3:2:0:0:
104,270,36366,6,0,P|109:247|117:225,1,46.7500014266968,2|0,1:2|0:0,0:0:0:0:
77,157,36578,1,2,3:2:0:0:
225,44,36789,38,0,P|246:52|275:59,1,46.7500014266968,2|0,3:2|3:2,0:0:0:0:
392,123,37000,2,0,P|369:128|347:137,1,46.7500014266968,10|0,0:2|0:0,0:0:0:0:
267,202,37211,2,0,P|277:224|287:256,1,46.7500014266968,2|0,0:2|0:0,0:0:0:0:
368,241,37423,6,0,B|272:258|329:308|231:332,1,165.749992412568,2|0,1:2|3:2,0:0:0:0:
156,377,37845,2,0,P|84:339|108:266,1,165.749992412568,10|0,0:2|0:0,0:0:0:0:
165,218,38268,2,0,P|172:189|163:159,1,55.2499974708558,2|0,1:2|0:0,0:0:0:0:
313,176,38479,2,0,P|284:184|262:207,1,55.2499974708558,2|0,0:2|3:2,0:0:0:0:
157,49,38690,2,0,P|198:88|256:102,1,110.499994941712,10|2,0:2|3:2,0:0:0:0:
490,228,39113,38,0,P|437:242|398:281,1,110.499994941712,2|0,1:2|0:0,0:0:0:0:
374,356,39430,1,0,3:2:0:0:
355,369,39535,2,0,P|325:359|292:350,1,55.2499974708558,8|0,0:2|0:0,0:0:0:0:
248,280,39747,2,0,P|218:290|185:299,1,55.2499974708558,0|0,3:2|0:0,0:0:0:0:
100,363,39958,5,0,1:2:0:0:
291,172,40169,1,8,0:2:0:0:
53,119,40380,1,8,0:2:0:0:
79,155,40486,1,8,0:2:0:0:
125,173,40592,1,8,0:2:0:0:
173,149,40697,1,8,0:2:0:0:
191,104,40803,37,2,1:2:0:0:
207,89,41014,6,0,P|236:81|266:69,1,55.2499974708558,2|0,3:2|3:2,0:0:0:0:
326,115,41225,1,2,3:2:0:0:
483,222,41437,37,2,1:2:0:0:
467,207,41648,6,0,P|438:199|408:187,1,55.2499974708558,2|0,3:2|3:2,0:0:0:0:
348,233,41859,1,2,3:2:0:0:
189,309,42070,1,10,0:2:0:0:
145,286,42176,1,2,0:2:0:0:
134,251,42282,2,0,P|139:223|148:196,1,55.2499974708558,2|0,0:2|0:0,0:0:0:0:
0,109,42493,38,0,P|8:135|13:162,1,55.2499974708558,2|0,1:2|0:0,0:0:0:0:
60,221,42704,1,2,3:2:0:0:
236,187,42916,5,2,3:2:0:0:
249,197,43127,38,0,P|240:223|235:250,1,55.2499974708558,2|0,1:2|0:0,0:0:0:0:
189,309,43338,1,2,3:2:0:0:
325,374,43549,2,0,B|389:354|349:332|418:316,1,110.499994941712,2|10,3:2|0:2,0:0:0:0:
512,361,43972,1,2,0:2:0:0:
408,188,44183,6,0,B|311:157|371:124|267:100,1,165.749992412568,2|0,1:2|0:0,0:0:0:0:
198,132,44606,2,0,P|195:158|209:184,1,55.2499974708558,10|0,0:2|0:0,0:0:0:0:
80,125,44817,2,0,P|104:114|119:89,1,55.2499974708558,2|0,1:2|0:0,0:0:0:0:
155,246,45028,2,0,P|113:215|56:213,1,110.499994941712,2|2,1:2|0:2,0:0:0:0:
169,358,45451,1,10,0:2:0:0:
324,274,45662,2,0,P|313:299|305:325,1,55.2499974708558,2|0,1:2|0:0,0:0:0:0:
239,211,45873,37,2,1:2:0:0:
248,195,46085,2,0,P|240:168|229:143,2,55.2499974708558,8|8|0,0:2|0:2|1:2,0:0:0:0:
417,312,46507,2,0,P|424:285|435:260,2,55.2499974708558,8|0|2,0:2|0:0|1:2,0:0:0:0:
169,358,46930,2,0,P|161:331|150:306,2,55.2499974708558,8|8|0,0:2|0:2|1:2,0:0:0:0:
383,97,47352,2,0,P|372:122|364:148,1,55.2499974708558,8|0,0:2|0:0,0:0:0:0:
237,240,47563,6,0,B|288:182|263:116|193:132|164:65|216:-6,1,272,2|2,1:2|0:2,0:0:0:0:
461,337,50521,1,8,0:2:0:0:
461,337,50944,6,0,P|396:321|359:266,1,136,6|2,1:2|0:2,0:0:0:0:
450,129,51261,1,2,0:2:0:0:
460,145,51366,2,0,P|448:176|442:210,1,68,10|0,0:2|0:0,0:0:0:0:
389,70,51578,2,0,P|357:81|323:87,1,68,2|0,1:2|0:0,0:0:0:0:
346,187,51789,6,0,B|268:200|314:241|234:257,1,136,2|2,0:2|1:2,0:0:0:0:
169,302,52106,1,0,1:2:0:0:
99,263,52211,2,0,P|93:229|80:197,1,68,10|0,0:2|0:0,0:0:0:0:
190,101,52423,2,0,P|183:116|180:133,3,34,2|0|0|0,3:2|3:2|3:2|3:2,0:0:0:0:
114,73,52634,38,0,P|179:57|216:2,1,136,2|2,1:2|0:2,0:0:0:0:
356,97,52951,1,2,0:2:0:0:
342,103,53056,2,0,P|310:92|276:86,1,68,10|0,0:2|0:0,0:0:0:0:
364,242,53268,2,0,P|393:225|403:194,1,68,2|0,1:2|0:0,0:0:0:0:
262,187,53479,6,0,P|286:250|298:317,1,136,2|2,0:2|1:2,0:0:0:0:
356,368,53796,1,0,1:2:0:0:
355,381,53901,1,10,0:2:0:0:
178,282,54113,2,0,P|180:265|187:249,3,34,2|0|0|0,3:2|3:2|3:2|3:2,0:0:0:0:
113,328,54324,38,0,P|79:328|54:306,1,68,2|0,1:2|0:0,0:0:0:0:
139,180,54535,2,0,P|144:146|155:114,1,68,2|0,0:2|0:0,0:0:0:0:
81,47,54747,2,0,P|69:113|44:177,1,136,10|2,0:2|1:2,0:0:0:0:
163,26,55063,5,0,0:0:0:0:
232,82,55169,2,0,P|265:87|297:98,1,68,2|0,0:2|0:0,0:0:0:0:
408,7,55380,2,0,P|374:6|349:28,1,68,2|0,1:2|1:2,0:0:0:0:
427,151,55592,2,0,P|459:139|492:134,1,68,10|0,0:2|0:0,0:0:0:0:
394,282,55803,2,0,P|392:265|385:249,3,34,2|0|0|0,3:2|3:2|3:2|3:2,0:0:0:0:
467,312,56014,38,0,P|402:328|365:383,1,136,2|2,1:2|0:2,0:0:0:0:
302,333,56331,1,2,0:2:0:0:
230,365,56437,2,0,P|197:354|164:348,1,68,10|0,0:2|0:0,0:0:0:0:
189,216,56648,2,0,P|221:226|254:232,1,68,2|0,1:2|0:0,0:0:0:0:
108,267,56859,5,2,1:2:0:0:
99,234,56964,1,0,1:2:0:0:
90,201,57070,1,0,1:2:0:0:
82,168,57175,1,0,1:2:0:0:
73,135,57282,2,0,P|56:133|40:126,3,34,8|0|8|0,0:2|3:2|0:2|3:2,0:0:0:0:
142,93,57493,2,0,P|158:94|174:101,3,34,8|0|8|0,0:2|3:2|0:2|3:2,0:0:0:0:
78,51,57704,38,0,P|144:39|208:14,1,136,2|2,1:2|0:2,0:0:0:0:
298,144,58021,1,2,0:2:0:0:
285,135,58127,2,0,P|268:105|275:73,1,68,10|0,0:2|0:0,0:0:0:0:
373,126,58338,2,0,P|380:93|364:65,1,68,2|0,1:2|0:0,0:0:0:0:
337,217,58549,6,0,B|259:230|305:271|225:287,1,136,2|2,0:2|1:2,0:0:0:0:
161,328,58866,1,0,1:2:0:0:
233,295,58972,2,0,P|266:300|298:311,1,68,10|0,0:2|0:0,0:0:0:0:
172,228,59183,2,0,P|155:226|139:219,3,34,2|0|0|0,3:2|3:2|3:2|3:2,0:0:0:0:
213,157,59394,38,0,B|185:82|243:102|217:25,1,136,2|2,1:2|0:2,0:0:0:0:
72,80,59711,1,2,0:2:0:0:
81,66,59817,2,0,P|111:48|143:56,1,68,10|0,0:2|0:0,0:0:0:0:
289,124,60028,2,0,P|321:130|350:113,1,68,2|0,1:2|0:0,0:0:0:0:
460,96,60240,6,0,P|401:122|402:186,1,136,2|2,0:2|1:2,0:0:0:0:
473,220,60556,1,0,1:2:0:0:
488,214,60662,1,10,0:2:0:0:
351,348,60873,2,0,P|344:363|342:380,3,34,2|0|0|0,3:2|3:2|3:2|3:2,0:0:0:0:
281,306,61085,38,0,P|264:277|270:244,1,68,2|0,1:2|0:0,0:0:0:0:
147,330,61296,2,0,P|180:329|206:351,1,68,2|0,0:2|0:0,0:0:0:0:
209,176,61507,2,0,P|171:231|107:246,1,136,10|2,0:2|1:2,0:0:0:0:
0,91,61824,5,0,0:0:0:0:
74,64,61930,2,0,P|107:75|140:81,1,68,2|0,0:2|0:0,0:0:0:0:
123,161,62141,2,0,P|90:150|57:144,1,68,2|0,1:2|1:2,0:0:0:0:
194,16,62352,2,0,P|227:9|259:0,1,68,10|0,0:2|0:0,0:0:0:0:
286,80,62563,2,0,P|252:86|220:96,1,68,2|0,3:2|3:2,0:0:0:0:
322,215,62775,38,0,P|416:206|432:112,1,204,10|0,0:2|1:2,0:0:0:0:
250,257,63197,2,0,P|155:248|139:154,1,204,8|0,0:2|1:2,0:0:0:0:
305,317,63620,2,0,B|312:354|299:346|305:384,1,68,8|2,0:2|0:2,0:0:0:0:
97,224,64465,5,6,1:2:0:0:
72,152,64570,1,2,0:2:0:0:
123,93,64676,2,0,P|152:106|192:113,1,63.7500024318696,2|2,1:2|1:2,0:0:0:0:
307,146,64887,1,10,0:2:0:0:
349,208,64993,1,2,0:2:0:0:
290,268,65099,2,0,P|261:281|221:288,1,63.7500024318696,2|2,1:2|1:2,0:0:0:0:
261,373,65310,2,0,P|290:360|330:353,1,63.7500024318696,2|2,1:2|0:2,0:0:0:0:
438,308,65521,2,0,P|443:273|418:241,1,63.7500024318696,2|2,1:2|1:2,0:0:0:0:
357,205,65732,1,10,0:2:0:0:
169,282,65944,1,2,1:2:0:0:
108,237,66049,1,2,1:2:0:0:
103,164,66155,38,0,P|124:101|132:37,1,127.500004863739,2|2,1:2|1:2,0:0:0:0:
245,206,66578,1,10,0:2:0:0:
297,146,66683,2,0,P|285:111|281:77,1,63.7500024318696,2|0,0:2|1:2,0:0:0:0:
313,16,66894,1,2,1:2:0:0:
387,0,67000,2,0,B|455:22|412:38|482:60,1,95.6250036478044,2|0,1:2|0:0,0:0:0:0:
463,53,67211,2,0,P|477:47|493:42,4,31.8750012159348,2|0|0|0|10,1:2|3:2|1:2|3:2|0:2,0:0:0:0:
504,219,67634,2,0,L|495:249,1,31.8750012159348,2|0,1:2|3:2,0:0:0:0:
512,231,67740,2,0,L|503:261,1,31.8750012159348,0|0,1:2|3:2,0:0:0:0:
423,310,67845,6,0,P|390:294|350:285,1,68,2|0,1:2|0:0,0:0:0:0:
254,336,68056,2,0,P|270:303|279:263,1,68,2|2,1:2|1:2,0:0:0:0:
228,167,68268,2,0,P|261:182|301:192,1,68,10|0,0:2|0:0,0:0:0:0:
397,141,68479,2,0,P|381:174|372:214,1,68,2|0,1:2|1:2,0:0:0:0:
300,67,68690,1,2,1:2:0:0:
295,56,68901,1,2,1:2:0:0:
228,21,69007,1,0,1:2:0:0:
156,53,69113,38,0,P|143:82|143:115,1,63.7500024318696,10|0,0:2|0:0,0:0:0:0:
31,188,69324,2,0,L|22:158,1,31.8750012159348,2|0,1:2|3:2,0:0:0:0:
39,176,69430,2,0,L|30:146,1,31.8750012159348,0|0,1:2|3:2,0:0:0:0:
115,205,69535,6,0,P|153:218|189:235,1,68,2|0,1:2|0:0,0:0:0:0:
311,158,69747,2,0,P|273:145|237:128,1,68,2|2,1:2|1:2,0:0:0:0:
332,246,69958,2,0,P|351:272|350:316,1,68,10|0,0:2|0:0,0:0:0:0:
255,278,70169,2,0,P|256:311|276:338,1,68,2|0,1:2|1:2,0:0:0:0:
427,377,70380,37,2,1:2:0:0:
444,364,70486,1,0,1:2:0:0:
463,332,70592,1,0,1:2:0:0:
468,279,70697,1,0,1:2:0:0:
445,210,70803,2,0,P|438:194|433:175,3,34,8|0|8|0,0:2|3:2|0:2|3:2,0:0:0:0:
433,178,71014,2,0,P|401:167|370:153,1,68,10|10,0:2|0:2,0:0:0:0:
235,79,71225,5,6,1:2:0:0:
248,88,71437,2,0,P|280:77|311:63,1,63.7500024318696,2|0,1:2|1:2,0:0:0:0:
229,180,71648,1,10,0:2:0:0:
164,135,71754,2,0,P|153:98|139:63,1,63.7500024318696,2|2,0:2|1:2,0:0:0:0:
308,209,71965,2,0,P|290:255|276:303,1,95.6250036478044,2|0,1:2|0:0,0:0:0:0:
277,299,72176,1,2,0:2:0:0:
225,348,72282,1,2,1:2:0:0:
163,310,72387,1,2,1:2:0:0:
97,344,72493,1,10,0:2:0:0:
84,335,72704,2,0,P|71:297|59:266,1,63.7500024318696,2|2,1:2|1:2,0:0:0:0:
61,144,72916,37,2,1:2:0:0:
104,84,73021,1,2,0:2:0:0:
177,97,73127,2,0,P|211:107|250:113,1,63.7500024318696,2|2,1:2|1:2,0:0:0:0:
322,101,73338,1,10,0:2:0:0:
371,163,73444,1,2,0:2:0:0:
328,232,73549,2,0,P|294:242|255:248,1,63.7500024318696,2|2,1:2|1:2,0:0:0:0:
451,359,73761,6,0,P|470:322|461:292,1,63.7500024318696,2|2,1:2|0:2,0:0:0:0:
380,326,73972,2,0,P|379:310|389:297,4,31.8750012159348,2|0|0|0|10,1:2|3:2|1:2|3:2|0:2,0:0:0:0:
217,384,74394,2,0,L|183:373,1,31.8750012159348,2|0,1:2|3:2,0:0:0:0:
213,368,74500,2,0,L|179:357,1,31.8750012159348,0|0,1:2|3:2,0:0:0:0:
137,291,74606,38,0,P|145:255|164:221,1,68,2|0,1:2|0:0,0:0:0:0:
23,150,74817,2,0,P|38:180|45:213,1,68,2|2,1:2|1:2,0:0:0:0:
241,254,75028,2,0,P|249:218|268:184,1,68,10|0,0:2|0:0,0:0:0:0:
92,79,75239,2,0,P|107:109|114:142,1,68,2|0,1:2|1:2,0:0:0:0:
207,98,75451,1,2,1:2:0:0:
214,87,75662,1,2,1:2:0:0:
282,120,75768,1,0,1:2:0:0:
349,86,75873,6,0,P|351:49|327:18,1,68,10|0,0:2|0:0,0:0:0:0:
450,62,76085,2,0,P|432:33|435:0,1,68,2|2,1:2|1:2,0:0:0:0:
419,173,76296,37,10,0:2:0:0:
411,184,76507,2,0,L|342:211,1,68,2|2,1:2|1:2,0:0:0:0:
152,303,76718,1,10,0:2:0:0:
159,314,76930,2,0,L|228:341,1,68,2|2,1:2|1:2,0:0:0:0:
191,177,77141,5,10,0:2:0:0:
121,202,77247,1,10,0:2:0:0:
63,156,77352,1,10,0:2:0:0:
73,81,77458,1,10,0:2:0:0:
142,45,77563,37,10,3:2:0:0:
145,50,77986,21,0,1:2:0:0:
304,0,78197,2,0,P|284:56|272:114,1,118.999996368408,2|2,3:2|3:2,0:0:0:0:
320,174,78514,1,2,0:2:0:0:
446,284,78725,6,0,P|422:268|392:269,1,59.4999981842042,2|0,3:2|3:2,0:0:0:0:
374,344,78937,2,0,P|398:360|428:359,1,59.4999981842042,2|0,3:2|1:2,0:0:0:0:
505,349,79148,1,2,0:2:0:0:
508,336,79254,1,10,0:2:0:0:
310,254,79465,2,0,L|316:295,4,29.7499990921021,10|8|8|8|0,0:2|0:2|0:2|0:2|1:2,0:0:0:0:
162,376,79887,38,0,P|104:365|67:320,1,118.999996368408,2|2,3:2|3:2,0:0:0:0:
94,239,80204,1,2,0:2:0:0:
16,122,80416,6,0,P|26:149|33:178,1,59.4999981842042,2|0,3:2|3:2,0:0:0:0:
92,99,80627,2,0,P|98:127|109:155,1,59.4999981842042,2|0,3:2|1:2,0:0:0:0:
36,48,80838,1,2,0:2:0:0:
31,35,80944,1,10,0:2:0:0:
194,187,81155,2,0,P|201:163|201:143,4,29.7499990921021,10|8|8|8|0,0:2|0:2|0:2|0:2|1:2,0:0:0:0:
313,33,81578,38,0,P|293:89|281:147,1,118.999996368408,2|2,3:2|3:2,0:0:0:0:
335,215,81894,1,2,0:2:0:0:
193,384,82106,6,0,P|206:357|232:344,1,59.4999981842042,2|0,3:2|3:2,0:0:0:0:
228,263,82317,2,0,P|257:261|282:276,1,59.4999981842042,2|0,3:2|1:2,0:0:0:0:
352,316,82528,1,2,0:2:0:0:
350,329,82634,1,10,0:2:0:0:
502,219,82845,2,0,P|487:216|473:211,4,29.7499990921021,10|8|8|8|0,0:2|0:2|0:2|0:2|1:2,0:0:0:0:
387,52,83268,38,0,B|345:44|309:82|342:105|312:144|263:137,2,152.999995330811,2|2|2,0:2|0:2|0:2,0:0:0:0:
348,160,84324,2,0,P|334:102|314:47,1,118.999996368408,8|2,0:2|1:2,0:0:0:0:
324,240,84747,5,0,1:2:0:0:
168,344,84958,2,0,P|177:286|221:248,1,118.999996368408,2|2,3:2|3:2,0:0:0:0:
85,215,85275,2,0,P|101:239|100:268,1,59.4999981842042,2|0,0:2|3:2,0:0:0:0:
193,172,85486,38,0,P|163:173|138:158,1,59.4999981842042,2|0,3:2|3:2,0:0:0:0:
18,253,85697,2,0,P|1:228|2:199,1,59.4999981842042,2|0,3:2|1:2,0:0:0:0:
52,140,85909,1,2,0:2:0:0:
61,133,86014,1,10,0:2:0:0:
149,28,86225,2,0,P|146:13|141:0,4,29.7499990921021,10|8|8|8|0,0:2|0:2|0:2|0:2|1:2,0:0:0:0:
208,161,86648,6,0,P|265:174|321:195,1,118.999996368408,2|2,3:2|3:2,0:0:0:0:
375,128,86965,2,0,P|346:121|318:110,1,59.4999981842042,2|0,0:2|3:2,0:0:0:0:
353,275,87176,38,0,P|373:253|396:234,1,59.4999981842042,2|0,3:2|3:2,0:0:0:0:
236,182,87387,2,0,P|244:210|249:239,1,59.4999981842042,2|0,3:2|1:2,0:0:0:0:
321,195,87599,1,2,0:2:0:0:
333,193,87704,1,10,0:2:0:0:
203,301,87916,2,0,P|189:295|174:293,4,29.7499990921021,10|8|8|8|0,0:2|0:2|0:2|0:2|1:2,0:0:0:0:
392,384,88338,6,0,P|447:341|416:268,1,118.999996368408,2|2,3:2|3:2,0:0:0:0:
396,234,88655,1,2,0:2:0:0:
446,75,88866,38,0,P|474:68|502:57,1,59.4999981842042,2|0,3:2|3:2,0:0:0:0:
375,128,89078,2,0,P|347:117|318:110,1,59.4999981842042,2|0,3:2|1:2,0:0:0:0:
223,0,89289,1,2,0:2:0:0:
236,6,89394,2,0,P|246:33|253:62,1,59.4999981842042,10|0,0:2|0:0,0:0:0:0:
230,144,89606,2,0,P|218:153|209:165,4,29.7499990921021,10|8|8|8|0,0:2|0:2|0:2|0:2|1:2,0:0:0:0:
9,341,90662,6,0,P|38:346|69:361,1,59.4999981842042,2|0,0:2|0:0,0:0:0:0:
70,225,90873,2,0,P|43:237|13:242,1,59.4999981842042,2|0,0:2|0:0,0:0:0:0:
135,313,91085,2,0,P|137:298|142:284,7,29.7499990921021,8|8|8|8|8|8|8|8,0:2|0:2|0:2|0:2|0:2|0:2|0:2|0:2,0:0:0:0:
204,209,91507,37,4,1:2:0:0:
236,142,93837,5,2,1:2:0:0:
447,338,94710,1,2,1:2:0:0:
345,270,95002,38,0,P|326:280|301:287,1,42.5,10|2,3:2|0:2,0:0:0:0:
270,356,95293,2,0,P|251:344|233:326,1,42.5,10|10,3:2|3:2,0:0:0:0:
162,326,95584,2,0,P|162:315|165:302,7,21.25,0|0|0|0|0|0|0|0,3:2|3:2|3:2|3:2|3:2|3:2|3:2|3:2,0:0:0:0:
195,234,96167,5,4,1:2:0:0:
301,174,98497,37,2,1:2:0:0:
147,81,98934,1,0,1:2:0:0:
97,136,99079,2,0,P|104:158|109:178,1,42.5,0|0,1:2|1:2,0:0:0:0:
173,223,99371,2,0,P|169:234|167:244,3,21.25,0|0|0|0,1:2|3:2|1:2|3:2,0:0:0:0:
98,277,99662,6,0,P|72:271|48:257,1,42.5,0|0,1:2|1:2,0:0:0:0:
31,340,99953,2,0,P|57:346|81:360,1,42.5,0|0,1:2|1:2,0:0:0:0:
186,384,100244,38,0,P|201:379|216:373,3,21.25,0|0|0|0,1:2|0:0|1:2|0:0,0:0:0:0:
265,332,100536,2,0,P|274:335|285:338,3,21.25,0|0|0|0,1:2|3:2|3:2|3:2,0:0:0:0:
355,384,100827,6,0,P|372:318|395:254,1,136,6|10,1:2|0:2,0:0:0:0:
111,280,103157,2,0,P|97:231|81:183,1,102,2|2,1:2|1:2,0:0:0:0:
237,248,104322,1,10,0:2:0:0:
423,239,105487,2,0,P|440:173|463:109,1,136,2|10,1:2|0:2,0:0:0:0:
122,0,107817,37,2,1:2:0:0:
447,88,109565,6,0,L|441:100,3,8.5,8|8|8|8,0:2|0:2|0:2|0:2,0:0:0:0:
432,92,109856,2,0,L|432:105,3,8.5,8|8|8|8,0:2|0:2|0:2|0:2,0:0:0:0:
376,38,110147,6,0,B|321:49|345:76|289:87,2,101.999996887207,6|2|2,1:2|3:2|0:2,0:0:0:0:
235,148,111021,2,0,L|210:140,1,25.4999992218018,2|0,3:2|3:2,0:0:0:0:
227,155,111167,2,0,L|202:147,1,25.4999992218018,0|0,3:2|3:2,0:0:0:0:
284,210,111312,6,0,P|331:208|369:169,1,101.999996887207,10|2,0:2|3:2,0:0:0:0:
231,272,111895,2,0,P|184:270|146:231,1,101.999996887207,2|2,3:2|3:2,0:0:0:0:
240,283,112477,38,0,P|223:331|209:380,2,102,2|2|2,1:2|3:2|0:2,0:0:0:0:
85,179,113351,2,0,L|77:154,1,25.4999992218018,2|0,1:2|3:2,0:0:0:0:
92,173,113497,2,0,L|84:148,1,25.4999992218018,0|0,3:2|3:2,0:0:0:0:
151,221,113642,6,0,B|206:210|182:183|237:171,1,101.999996887207,10|2,0:2|3:2,0:0:0:0:
312,35,114225,2,0,P|263:39|244:84,1,101.999996887207,2|2,3:2|3:2,0:0:0:0:
307,139,114662,1,2,3:2:0:0:
372,184,114807,38,0,P|420:179|439:134,2,101.999996887207,2|2|2,1:2|3:2|0:2,0:0:0:0:
500,280,115681,2,0,L|492:304,1,25.4999992218018,2|0,3:2|3:2,0:0:0:0:
507,286,115827,2,0,L|499:310,1,25.4999992218018,0|0,3:2|3:2,0:0:0:0:
432,354,115973,6,0,P|382:368|334:384,1,102,10|2,0:2|3:2,0:0:0:0:
280,228,116555,2,0,P|329:213|377:197,1,102,2|2,3:2|3:2,0:0:0:0:
269,235,117138,38,0,P|224:215|219:167,2,101.999996887207,2|2|2,1:2|3:2|0:2,0:0:0:0:
382,72,118011,2,0,L|357:79,1,25.4999992218018,2|0,1:2|3:2,0:0:0:0:
376,65,118157,2,0,L|351:72,1,25.4999992218018,0|0,3:2|3:2,0:0:0:0:
287,25,118303,6,0,L|279:0,7,25.4999992218018,10|0|0|0|0|0|0|0,0:2|3:2|3:2|3:2|3:2|3:2|3:2|3:2,0:0:0:0:
224,76,118885,2,0,P|174:77|139:23,1,101.999996887207,0|2,3:2|1:2,0:0:0:0:
0,185,119468,38,0,P|32:148|82:149,2,101.999996887207,6|2|2,1:2|3:2|0:2,0:0:0:0:
131,304,120341,2,0,L|155:296,1,25.4999992218018,2|0,3:2|3:2,0:0:0:0:
125,315,120487,2,0,L|100:307,1,25.4999992218018,0|0,3:2|3:2,0:0:0:0:
174,377,120633,6,0,P|222:360|271:346,1,102,10|2,0:2|3:2,0:0:0:0:
220,192,121215,2,0,P|171:208|122:222,1,102,2|2,3:2|3:2,0:0:0:0:
285,254,121798,38,0,B|295:198|322:222|334:167,2,101.999996887207,2|2|2,1:2|3:2|0:2,0:0:0:0:
191,59,122672,2,0,L|166:66,1,25.4999992218018,2|0,1:2|3:2,0:0:0:0:
197,48,122818,2,0,L|221:55,1,25.4999992218018,0|0,3:2|3:2,0:0:0:0:
275,114,122963,6,0,P|325:115|360:61,1,101.999996887207,10|2,0:2|3:2,0:0:0:0:
508,253,123545,2,0,P|475:216|425:217,1,101.999996887207,2|2,3:2|3:2,0:0:0:0:
364,265,123982,1,2,3:2:0:0:
396,334,124128,38,0,P|347:317|298:303,2,102,2|2|2,1:2|3:2|0:2,0:0:0:0:
243,213,125002,2,0,L|250:237,1,25.4999992218018,2|0,3:2|3:2,0:0:0:0:
232,207,125148,2,0,L|239:182,1,25.4999992218018,0|0,3:2|3:2,0:0:0:0:
176,267,125293,6,0,B|120:277|144:304|89:316,1,101.999996887207,10|2,0:2|3:2,0:0:0:0:
0,163,125875,2,0,B|55:173|31:200|86:212,1,101.999996887207,2|2,3:2|3:2,0:0:0:0:
348,131,126458,38,0,B|436:88|392:0|392:0|294:41|336:127,1,305.999990661621,2|0,1:2|0:0,0:0:0:0:
348,131,127623,2,0,B|344:129|342:128|342:128|337:129|337:129|334:126|334:126|331:125|332:125|332:125|328:123|328:123|324:124|324:124|321:124|322:124|322:124|318:125|318:125|314:123|314:123|313:123|312:123|312:123|308:121|308:121|304:123|304:123|301:123|302:123|302:123|299:126|299:126|294:124|294:124|291:125|292:125|292:125|288:124|288:124|285:127|285:127|282:128|283:127|283:127|280:131|280:131|275:130|275:130|274:131|274:131|269:131|269:131|266:135|266:135|265:136|265:136|263:140|263:140|258:140|258:140|257:141|257:141|252:142|252:142|250:146|250:146|250:147|249:148|249:148|248:152|248:152|243:154|243:154|242:155|242:155|238:157|238:157|237:161|237:161|236:164|236:163|236:163|236:167|236:167|232:170|232:170|231:173|231:172|231:172|228:174|228:174|228:179|228:179|225:187|227:180|227:181|227:181|228:185|228:185|225:187,1,177.830667285739,2|0,1:2|0:0,0:0:0:0:
225,186,128788,21,2,1:2:0:0:
211,198,128999,6,0,P|220:221|228:252,1,46.7500014266968,2|0,3:2|3:2,0:0:0:0:
253,315,129211,1,2,3:2:0:0:
419,253,129421,37,2,1:2:0:0:
430,269,129633,6,0,P|421:292|413:323,1,46.7500014266968,2|0,3:2|3:2,0:0:0:0:
392,384,129845,1,2,3:2:0:0:
253,315,130056,1,10,0:2:0:0:
231,337,130162,1,2,0:2:0:0:
223,359,130266,2,0,P|195:350|175:338,1,46.7500014266968,2|0,0:2|0:0,0:0:0:0:
71,234,130478,38,0,P|92:215|117:206,1,46.7500014266968,2|0,1:2|0:0,0:0:0:0:
185,189,130690,1,2,3:2:0:0:
82,50,130901,5,2,3:2:0:0:
100,37,131111,38,0,P|121:56|146:65,1,46.7500014266968,2|0,1:2|0:0,0:0:0:0:
214,73,131324,1,2,3:2:0:0:
375,169,131534,6,0,P|382:142|393:115,1,46.7500014266968,2|0,3:2|3:2,0:0:0:0:
294,247,131745,2,0,P|287:220|276:193,1,46.7500014266968,10|0,0:2|0:0,0:0:0:0:
421,304,131957,2,0,P|428:277|439:250,1,46.7500014266968,2|0,0:2|0:0,0:0:0:0:
285,262,132169,38,0,B|189:279|246:329|148:353,1,165.749992412568,2|0,1:2|3:2,0:0:0:0:
80,376,132590,2,0,P|73:350|81:323,1,55.2499974708558,10|0,0:2|0:0,0:0:0:0:
151,221,132802,2,0,P|101:205|81:146,1,110.499994941712,0|2,3:2|1:2,0:0:0:0:
262,19,133224,2,0,P|269:45|261:72,1,55.2499974708558,2|0,0:2|3:2,0:0:0:0:
126,84,133435,2,0,P|145:64|172:58,1,55.2499974708558,10|0,0:2|0:0,0:0:0:0:
250,169,133647,2,0,P|223:162|204:141,1,55.2499974708558,2|0,3:2|0:0,0:0:0:0:
43,194,133858,6,0,P|64:249|77:302,1,110.499994941712,2|0,1:2|0:0,0:0:0:0:
142,349,134176,1,0,3:2:0:0:
161,362,134281,2,0,P|191:352|224:343,1,55.2499974708558,8|0,0:2|0:0,0:0:0:0:
268,273,134493,2,0,P|298:283|331:292,1,55.2499974708558,0|0,3:2|0:0,0:0:0:0:
404,317,134704,37,0,1:2:0:0:
279,176,134915,1,8,0:2:0:0:
440,60,135126,1,8,0:2:0:0:
481,74,135232,1,8,0:2:0:0:
510,113,135338,1,8,0:2:0:0:
500,165,135443,1,8,0:2:0:0:
469,192,135549,5,2,1:2:0:0:
452,204,135760,38,0,P|423:196|393:184,1,55.2499974708558,2|0,3:2|3:2,0:0:0:0:
351,121,135971,1,2,3:2:0:0:
206,295,136182,5,2,1:2:0:0:
219,306,136393,38,0,P|248:298|278:286,1,55.2499974708558,2|0,3:2|3:2,0:0:0:0:
320,223,136604,1,2,3:2:0:0:
153,124,136816,1,10,0:2:0:0:
109,147,136922,1,2,0:2:0:0:
98,182,137028,2,0,P|103:210|112:237,1,55.2499974708558,2|0,0:2|0:0,0:0:0:0:
246,176,137238,6,0,P|254:149|259:122,1,55.2499974708558,2|0,1:2|0:0,0:0:0:0:
217,59,137450,1,2,3:2:0:0:
387,131,137661,37,2,3:2:0:0:
393,117,137872,6,0,P|384:90|379:63,1,55.2499974708558,2|0,1:2|0:0,0:0:0:0:
422,0,138084,1,2,3:2:0:0:
217,59,138295,2,0,B|153:39|193:17|124:1,1,110.499994941712,2|10,3:2|0:2,0:0:0:0:
0,113,138718,1,2,0:2:0:0:
142,284,138928,38,0,P|218:251|297:228,1,165.749992412568,2|0,1:2|0:0,0:0:0:0:
364,178,139351,2,0,P|381:156|377:118,1,55.2499974708558,10|0,0:2|0:0,0:0:0:0:
285,148,139562,2,0,P|286:120|302:99,1,55.2499974708558,2|0,1:2|0:0,0:0:0:0:
456,218,139773,2,0,P|467:268|493:326,1,110.499994941712,2|2,1:2|0:2,0:0:0:0:
283,384,140197,1,10,0:2:0:0:
365,276,140407,2,0,P|359:301|346:330,1,55.2499974708558,2|0,1:2|0:0,0:0:0:0:
201,363,140619,5,2,1:2:0:0:
190,353,140831,2,0,P|182:326|171:301,2,55.2499974708558,8|8|0,0:2|0:2|1:2,0:0:0:0:
291,219,141253,2,0,P|298:192|309:167,2,55.2499974708558,8|0|2,0:2|0:0|1:2,0:0:0:0:
133,124,141676,2,0,P|125:97|114:72,2,55.2499974708558,8|8|0,0:2|0:2|1:2,0:0:0:0:
357,55,142098,2,0,P|366:33|386:1,1,55.2499974708558,8|0,0:2|0:0,0:0:0:0:
258,99,142309,38,0,B|185:72|132:119|172:178|120:229|35:206,2,272,2|2|2,1:2|0:2|0:2,0:0:0:0:
464,317,146745,2,0,P|473:343|482:377,2,55.2499974708558,2|2|0,0:2|0:2|3:2,0:0:0:0:
224,169,147379,22,0,P|161:193|93:205,1,136,6|2,1:2|0:2,0:0:0:0:
204,291,147696,1,2,0:2:0:0:
195,300,147802,2,0,P|164:288|130:282,1,68,10|0,0:2|0:0,0:0:0:0:
187,84,148013,2,0,P|156:96|122:102,1,68,2|0,1:2|0:0,0:0:0:0:
277,244,148224,6,0,P|343:239|389:191,1,136,2|2,0:2|1:2,0:0:0:0:
363,112,148541,1,0,1:2:0:0:
425,63,148647,2,0,P|456:75|490:81,1,68,10|0,0:2|0:0,0:0:0:0:
299,155,148858,2,0,P|284:148|267:145,3,34,2|0|0|0,3:2|3:2|3:2|3:2,0:0:0:0:
378,195,149069,38,0,B|350:269|408:249|382:326,1,136,2|2,1:2|0:2,0:0:0:0:
458,228,149386,1,2,0:2:0:0:
469,238,149492,2,0,P|481:268|470:300,1,68,10|0,0:2|0:0,0:0:0:0:
293,299,149703,2,0,P|280:268|291:236,1,68,2|0,1:2|0:0,0:0:0:0:
374,330,149914,6,0,P|307:334|261:382,1,136,2|2,0:2|1:2,0:0:0:0:
188,360,150231,1,0,1:2:0:0:
183,348,150337,1,10,0:2:0:0:
46,235,150548,2,0,P|63:237|79:244,3,34,2|0|0|0,3:2|3:2|3:2|3:2,0:0:0:0:
150,213,150759,38,0,P|162:182|151:150,1,68,2|0,1:2|0:0,0:0:0:0:
41,62,150971,2,0,P|61:88|94:94,1,68,2|0,0:2|0:0,0:0:0:0:
236,18,151182,2,0,B|314:31|267:72|348:88,1,136,10|2,0:2|1:2,0:0:0:0:
460,181,151499,1,0,0:0:0:0:
512,118,151604,6,0,P|500:87|494:53,1,68,2|0,0:2|0:0,0:0:0:0:
385,233,151816,2,0,P|379:199|366:167,1,68,2|0,1:2|1:2,0:0:0:0:
261,323,152027,2,0,P|255:289|242:257,1,68,10|0,0:2|0:0,0:0:0:0:
399,374,152238,2,0,P|383:368|366:364,1,34,2|0,3:2|3:2,0:0:0:0:
408,364,152344,2,0,P|392:358|375:354,1,34,0|0,3:2|3:2,0:0:0:0:
483,381,152449,38,0,P|501:318|464:264,1,136,2|2,1:2|0:2,0:0:0:0:
385,233,152766,1,2,0:2:0:0:
305,212,152872,2,0,P|299:178|286:146,1,68,10|0,0:2|0:0,0:0:0:0:
405,33,153083,2,0,P|410:66|423:98,1,68,2|0,1:2|0:0,0:0:0:0:
230,69,153295,5,2,1:2:0:0:
197,60,153400,1,0,1:2:0:0:
164,51,153506,1,0,1:2:0:0:
131,43,153611,1,0,1:2:0:0:
98,34,153718,2,0,P|96:17|89:1,3,34,8|0|8|0,3:2|3:2|0:2|3:2,0:0:0:0:
23,53,153928,2,0,P|21:36|14:20,3,34,8|0|8|0,0:2|3:2|0:2|3:2,0:0:0:0:
78,116,154140,38,0,P|54:179|42:246,1,136,2|2,1:2|0:2,0:0:0:0:
104,347,154457,1,2,0:2:0:0:
95,361,154562,2,0,P|68:381|35:378,1,68,10|0,0:2|0:0,0:0:0:0:
139,272,154773,2,0,P|169:284|183:315,1,68,2|0,1:2|0:0,0:0:0:0:
226,174,154985,6,0,B|304:158|258:117|336:104,1,136,2|2,0:2|1:2,0:0:0:0:
412,136,155302,1,0,1:2:0:0:
476,89,155407,2,0,P|481:55|494:23,1,68,10|0,0:2|0:0,0:0:0:0:
350,184,155618,2,0,P|356:199|358:216,3,34,2|0|0|0,3:2|3:2|3:2|3:2,0:0:0:0:
432,231,155830,38,0,B|354:244|400:285|321:300,1,136,2|2,1:2|0:2,0:0:0:0:
139,172,156147,1,2,0:2:0:0:
152,164,156252,2,0,P|183:175|217:180,1,68,10|0,0:2|0:0,0:0:0:0:
183,340,156464,2,0,P|151:328|117:323,1,68,2|0,1:2|0:0,0:0:0:0:
39,285,156675,6,0,P|105:273|169:248,1,136,2|2,0:2|1:2,0:0:0:0:
240,281,156992,1,0,1:2:0:0:
248,291,157097,1,10,0:2:0:0:
78,205,157309,2,0,P|62:198|45:196,3,34,2|0|0|0,3:2|3:2|3:2|3:2,0:0:0:0:
152,164,157520,38,0,P|177:142|181:109,1,68,2|0,1:2|0:0,0:0:0:0:
106,70,157731,2,0,P|80:91|76:124,1,68,2|0,0:2|0:0,0:0:0:0:
177,30,157942,2,0,P|222:78|289:82,1,136,10|2,0:2|1:2,0:0:0:0:
354,34,158259,1,0,0:0:0:0:
431,57,158365,5,2,0:2:0:0:
426,69,158471,1,0,0:0:0:0:
367,120,158576,2,0,P|378:151|383:185,1,68,2|0,1:2|1:2,0:0:0:0:
512,240,158788,2,0,P|445:244|399:292,1,136,10|2,0:2|3:2,0:0:0:0:
167,384,159210,38,0,P|149:283|112:188,1,204,10|0,0:2|1:2,0:0:0:0:
262,356,159633,2,0,P|225:260|207:160,1,204,8|0,0:2|1:2,0:0:0:0:
140,102,160055,6,0,B|104:76|104:76|116:17|116:17|154:63|154:63|139:100,1,204,8|0,0:2|0:0,0:0:0:0:
207,160,160478,37,10,0:2:0:0:
233,122,160583,1,10,0:2:0:0:
277,110,160689,1,10,0:2:0:0:
320,125,160795,1,10,0:2:0:0:
348,169,160900,6,0,P|330:232|318:306,1,127.500004863739,6|2,1:2|1:2,0:0:0:0:
267,344,161217,1,2,1:2:0:0:
200,313,161323,1,10,0:2:0:0:
137,351,161428,1,2,0:2:0:0:
209,300,161534,2,0,P|224:267|226:229,1,63.7500024318696,2|2,1:2|1:2,0:0:0:0:
131,274,161745,2,0,P|135:242|148:213,1,63.7500024318696,2|2,1:2|0:2,0:0:0:0:
97,78,161957,2,0,P|64:85|41:121,1,63.7500024318696,2|2,1:2|1:2,0:0:0:0:
106,151,162168,1,10,0:2:0:0:
300,0,162379,2,0,L|289:32,1,31.8750012159348,2|0,1:2|0:0,0:0:0:0:
288,8,162485,2,0,L|277:40,1,31.8750012159348,2|0,1:2|0:0,0:0:0:0:
278,116,162590,38,0,P|339:130|373:188,1,127.500004863739,2|2,1:2|1:2,0:0:0:0:
257,311,163013,1,10,0:2:0:0:
186,273,163118,2,0,B|116:298|160:328|84:353,1,127.500004863739,2|2,0:2|1:2,0:0:0:0:
21,319,163435,1,2,1:2:0:0:
141,166,163647,2,0,L|130:198,1,31.8750012159348,2|0,1:2|3:2,0:0:0:0:
129,174,163753,2,0,L|118:206,1,31.8750012159348,0|0,1:2|3:2,0:0:0:0:
49,245,163858,5,10,0:2:0:0:
40,237,164069,1,2,1:2:0:0:
11,171,164175,1,0,1:2:0:0:
51,110,164280,38,0,P|83:99|131:85,1,68,2|0,1:2|0:0,0:0:0:0:
291,120,164492,2,0,P|258:129|226:140,1,68,2|2,1:2|1:2,0:0:0:0:
174,1,164703,2,0,P|185:33|199:81,1,68,10|0,0:2|0:0,0:0:0:0:
161,230,164915,2,0,P|151:197|140:165,1,68,2|0,1:2|1:2,0:0:0:0:
250,220,165126,1,2,1:2:0:0:
259,230,165337,1,2,1:2:0:0:
323,192,165442,1,0,1:2:0:0:
387,237,165548,2,0,P|373:284|361:345,1,102,10|0,0:2|0:0,0:0:0:0:
362,335,165759,2,0,P|341:328|318:322,4,34,2|0|0|0|2,1:2|3:2|1:2|3:2|1:2,0:0:0:0:
172,282,166182,6,0,P|171:243|143:219,1,68,2|2,1:2|1:2,0:0:0:0:
99,310,166393,2,0,P|77:284|79:251,1,68,10|0,0:2|0:0,0:0:0:0:
171,137,166604,2,0,P|200:150|243:158,1,68,2|0,1:2|1:2,0:0:0:0:
327,230,166816,37,2,1:2:0:0:
346,224,166922,1,0,1:2:0:0:
377,203,167028,1,0,1:2:0:0:
403,156,167133,1,0,1:2:0:0:
410,84,167239,2,0,P|406:68|398:45,3,34,8|0|8|0,0:2|3:2|0:2|3:2,0:0:0:0:
400,51,167449,2,0,P|358:35|330:23,1,68,10|10,0:2|0:2,0:0:0:0:
242,65,167661,5,6,1:2:0:0:
230,78,167872,2,0,P|240:109|252:156,1,63.7500024318696,2|0,1:2|1:2,0:0:0:0:
210,205,168084,1,10,0:2:0:0:
147,249,168189,2,0,P|110:241|68:226,1,63.7500024318696,2|2,0:2|1:2,0:0:0:0:
243,314,168400,2,0,P|289:303|342:285,1,95.6250036478044,2|0,1:2|0:0,0:0:0:0:
334,288,168611,1,2,0:2:0:0:
358,221,168718,1,2,1:2:0:0:
432,203,168823,1,2,1:2:0:0:
495,245,168929,1,10,0:2:0:0:
500,262,169140,2,0,P|488:291|478:322,1,63.7500024318696,2|2,1:2|1:2,0:0:0:0:
392,384,169352,37,2,1:2:0:0:
321,354,169457,1,2,0:2:0:0:
296,282,169562,2,0,P|305:251|308:208,1,63.7500024318696,2|2,1:2|1:2,0:0:0:0:
493,154,169774,1,10,0:2:0:0:
432,203,169880,1,2,0:2:0:0:
368,160,169985,2,0,P|359:129|356:86,1,63.7500024318696,2|2,1:2|1:2,0:0:0:0:
317,15,170196,6,0,P|296:37|251:52,1,63.7500024318696,2|2,1:2|0:2,0:0:0:0:
233,114,170407,2,0,P|218:110|200:94,4,31.8750012159348,2|0|0|0|10,1:2|3:2|1:2|3:2|0:2,0:0:0:0:
27,7,170830,2,0,L|38:40,1,31.8750012159348,2|0,1:2|3:2,0:0:0:0:
16,19,170936,2,0,L|27:52,1,31.8750012159348,0|0,1:2|3:2,0:0:0:0:
101,97,171041,38,0,P|89:131|75:179,1,63.7500024318696,2|0,1:2|0:0,0:0:0:0:
18,227,171252,2,0,P|52:239|100:253,1,63.7500024318696,2|2,1:2|1:2,0:0:0:0:
148,310,171464,2,0,P|160:276|174:228,1,63.7500024318696,10|0,0:2|0:0,0:0:0:0:
231,180,171675,2,0,P|197:168|149:154,1,63.7500024318696,2|0,1:2|1:2,0:0:0:0:
249,254,171886,1,2,1:2:0:0:
260,264,172098,1,2,1:2:0:0:
320,217,172204,1,0,1:2:0:0:
387,259,172309,6,0,P|384:292|401:321,1,68,10|0,0:2|0:0,0:0:0:0:
462,234,172521,2,0,P|480:263|477:296,1,68,2|2,1:2|1:2,0:0:0:0:
409,183,172732,37,10,0:2:0:0:
403,169,172942,2,0,P|414:128|421:100,1,63.7500024318696,2|2,1:2|1:2,0:0:0:0:
231,180,173154,1,10,0:2:0:0:
218,169,173365,2,0,P|207:128|200:100,1,63.7500024318696,2|2,1:2|1:2,0:0:0:0:
227,30,173577,5,10,0:2:0:0:
298,3,173683,1,10,0:2:0:0:
355,51,173788,1,10,0:2:0:0:
332,124,173894,1,10,0:2:0:0:
390,179,173999,2,0,P|374:230|364:280,1,95.6250036478044,10|0,0:2|0:0,0:0:0:0:
365,271,174210,2,0,P|347:279|329:284,4,31.8750012159348,10|0|0|0|4,0:2|0:0|0:0|0:0|1:2,0:0:0:0:
110,42,174633,6,0,P|119:65|128:101,1,59.4999981842042,2|0,3:2|0:0,0:0:0:0:
64,217,174844,1,10,0:2:0:0:
49,223,174949,2,0,P|20:217|0:197,1,59.4999981842042,2|0,0:0|3:2,0:0:0:0:
203,137,175161,6,0,P|194:160|185:196,1,59.4999981842042,2|0,0:0|1:2,0:0:0:0:
138,267,175372,2,0,P|147:290|156:326,1,59.4999981842042,2|0,3:2|3:2,0:0:0:0:
286,371,175583,1,2,3:2:0:0:
301,377,175688,2,0,P|329:371|350:351,1,59.4999981842042,10|0,0:2|0:0,0:0:0:0:
259,235,175900,2,0,P|255:249|253:264,4,29.7499990921021,2|0|0|0|0,3:2|3:2|3:2|3:2|1:2,0:0:0:0:
463,174,176323,38,0,P|491:179|512:199,1,59.4999981842042,2|0,3:2|0:0,0:0:0:0:
401,284,176534,1,10,0:2:0:0:
388,273,176640,2,0,P|377:245|385:217,1,59.4999981842042,2|0,0:0|3:2,0:0:0:0:
311,78,176851,6,0,P|282:70|254:60,1,59.4999981842042,2|0,0:0|1:2,0:0:0:0:
258,46,177062,2,0,P|286:53|314:63,1,59.4999981842042,2|0,3:2|3:2,0:0:0:0:
188,156,177273,1,2,3:2:0:0:
202,163,177379,2,0,P|229:152|258:145,1,59.4999981842042,10|0,0:2|0:0,0:0:0:0:
120,47,177590,2,0,P|116:61|111:75,4,29.7499990921021,2|0|0|0|0,3:2|3:2|3:2|3:2|1:2,0:0:0:0:
0,179,178013,38,0,P|20:199|49:205,1,59.4999981842042,2|0,3:2|0:0,0:0:0:0:
174,251,178224,1,10,0:2:0:0:
161,242,178330,2,0,P|132:249|113:271,1,59.4999981842042,2|0,0:0|3:2,0:0:0:0:
14,346,178541,6,0,P|25:318|32:289,1,59.4999981842042,2|0,3:2|1:2,0:0:0:0:
179,328,178752,2,0,P|167:355|160:384,1,59.4999981842042,2|0,3:2|3:2,0:0:0:0:
312,302,178964,1,2,3:2:0:0:
319,289,179069,2,0,P|307:261|300:232,1,59.4999981842042,10|0,0:2|0:0,0:0:0:0:
188,156,179280,2,0,P|182:142|178:127,4,29.7499990921021,2|0|0|0|0,3:2|3:2|3:2|3:2|1:2,0:0:0:0:
357,3,179703,38,0,B|388:19|416:27|416:27|399:63|390:102,1,127.500004863739,2|8,3:2|0:2,0:0:0:0:
322,133,180020,1,0,0:0:0:0:
331,126,180126,2,0,P|384:120|432:182,1,127.500004863739,2|0,3:2|1:2,0:0:0:0:
511,211,180442,1,0,1:2:0:0:
502,202,180548,2,0,B|443:217|443:217|438:215|438:215|379:231,1,127.500004863739,2|8,1:2|0:2,0:0:0:0:
326,288,180865,1,8,0:2:0:0:
312,284,180971,1,10,0:2:0:0:
117,228,181182,5,4,1:2:0:0:
238,34,181393,2,0,P|256:55|284:63,1,59.4999981842042,2|0,3:2|0:0,0:0:0:0:
331,126,181604,1,10,0:2:0:0:
344,130,181710,2,0,P|372:125|393:105,1,59.4999981842042,2|0,0:0|3:2,0:0:0:0:
254,158,181921,38,0,P|242:185|235:214,1,59.4999981842042,2|0,0:0|1:2,0:0:0:0:
117,65,182133,2,0,P|123:93|135:121,1,59.4999981842042,2|0,3:2|3:2,0:0:0:0:
36,226,182344,1,2,3:2:0:0:
22,220,182449,2,0,P|15:191|3:163,1,59.4999981842042,10|0,0:2|0:0,0:0:0:0:
127,235,182661,2,0,P|132:248|136:263,4,29.7499990921021,2|0|0|0|0,3:2|3:2|3:2|3:2|1:2,0:0:0:0:
278,366,183083,6,0,P|306:372|334:384,1,59.4999981842042,2|0,3:2|0:0,0:0:0:0:
383,258,183295,1,10,0:2:0:0:
376,246,183400,2,0,P|347:239|319:227,1,59.4999981842042,2|0,0:0|3:2,0:0:0:0:
466,208,183611,38,0,P|480:182|478:153,1,59.4999981842042,2|0,0:0|1:2,0:0:0:0:
461,150,183823,2,0,P|446:175|448:204,1,59.4999981842042,2|0,3:2|3:2,0:0:0:0:
413,67,184034,1,2,3:2:0:0:
408,83,184140,2,0,P|383:99|354:99,1,59.4999981842042,10|0,0:2|0:0,0:0:0:0:
194,18,184351,2,0,P|179:22|165:27,4,29.7499990921021,2|0|0|0|0,3:2|3:2|3:2|3:2|1:2,0:0:0:0:
249,161,184773,6,0,P|237:188|230:217,1,59.4999981842042,2|0,3:2|0:0,0:0:0:0:
130,102,184985,1,10,0:2:0:0:
112,94,185090,2,0,P|83:101|64:123,1,59.4999981842042,2|0,0:0|3:2,0:0:0:0:
138,312,185302,38,0,P|149:284|156:255,1,59.4999981842042,2|0,0:0|1:2,0:0:0:0:
322,214,185513,2,0,P|350:221|369:243,1,59.4999981842042,2|0,3:2|3:2,0:0:0:0:
262,380,185724,1,2,3:2:0:0:
247,375,185830,2,0,P|240:346|228:318,1,59.4999981842042,10|8,0:2|0:2,0:0:0:0:
373,355,186041,2,0,L|368:384,4,29.7499990921021,10|0|8|0|14,0:2|0:0|0:2|0:0|0:2,0:0:0:0:
481,83,187309,5,0,3:2:0:0:
457,78,187414,1,0,3:2:0:0:
439,94,187520,1,8,0:2:0:0:
439,94,187942,38,0,L|479:231,2,127.5,2|2|2,1:2|3:2|3:2,0:0:0:0:
320,26,188787,2,0,L|233:53,1,85,2|2,0:2|0:2,0:0:0:0:
164,76,189104,1,2,3:2:0:0:
164,76,189421,2,0,L|178:125,1,42.5,2|2,3:2|0:2,0:0:0:0:
269,193,189633,6,0,L|229:330,2,127.5,2|2|2,1:2|3:2|3:2,0:0:0:0:
142,232,190583,2,0,L|60:257,1,85,0|0,3:2|3:2,0:0:0:0:
0,209,190900,1,0,3:2:0:0:
0,209,191111,2,0,L|12:168,1,42.5,2|0,0:2|0:0,0:0:0:0:
114,99,191323,38,0,L|238:137,1,127.5,2|2,1:2|3:2,0:0:0:0:
353,279,191956,2,0,L|335:218,1,42.5,2|0,3:2|0:0,0:0:0:0:
401,183,192167,2,0,L|482:157,1,85,2|2,0:2|0:2,0:0:0:0:
508,83,192484,1,2,3:2:0:0:
508,83,192801,2,0,L|497:42,1,42.5,2|0,3:2|0:0,0:0:0:0:
382,0,193012,6,0,L|257:38,2,127.5,2|2|2,1:2|3:2|3:2,0:0:0:0:
384,90,193963,2,0,L|302:115,1,85,0|0,3:2|3:2,0:0:0:0:
257,177,194280,1,0,3:2:0:0:
393,273,194491,1,0,3:2:0:0:
155,384,194703,38,0,P|168:335|176:289,1,85,2|2,1:2|3:2,0:0:0:0:
116,243,195020,2,0,P|99:235|70:226,2,42.5,2|8|0,3:2|0:2|0:0,0:0:0:0:
173,191,195336,5,2,3:2:0:0:
182,178,195548,38,0,P|169:129|161:83,1,85,2|2,0:2|0:2,0:0:0:0:
207,31,195865,1,2,3:2:0:0:
221,25,195970,2,0,P|238:33|267:42,1,42.5,8|0,0:2|0:0,0:0:0:0:
326,92,196182,2,0,P|343:84|372:75,1,42.5,2|0,3:2|0:0,0:0:0:0:
449,103,196393,6,0,P|471:138|464:187,1,85,2|2,1:2|3:2,0:0:0:0:
419,240,196710,1,2,3:2:0:0:
248,338,197027,2,0,P|216:287|226:216,1,127.5,2|0,3:2|3:2,0:0:0:0:
95,89,197555,1,0,3:2:0:0:
81,98,197660,2,0,P|74:129|64:159,1,42.5,8|0,0:2|0:0,0:0:0:0:
5,185,197872,2,0,P|13:216|23:246,1,42.5,2|0,0:2|0:0,0:0:0:0:
79,275,198083,38,0,P|122:261|165:249,1,85,2|0,1:2|3:2,0:0:0:0:
214,193,198400,2,0,P|257:207|300:219,1,85,2|0,3:2|0:0,0:0:0:0:
349,277,198717,5,2,3:2:0:0:
346,294,198928,38,0,P|348:335|373:369,1,85,2|2,0:2|0:2,0:0:0:0:
446,323,199245,2,0,P|441:302|427:286,1,42.5,2|8,3:2|0:2,0:0:0:0:
277,139,199562,2,0,P|262:120|260:91,1,42.5,2|0,3:2|0:0,0:0:0:0:
319,46,199773,6,0,P|374:66|450:86,2,127.5,2|2|2,1:2|0:0|0:0,0:0:0:0:
129,232,200830,1,2,0:0:0:0:
121,240,201041,1,2,0:0:0:0:
