osu file format v14

[General]
AudioFilename: audio.mp3
AudioLeadIn: 0
PreviewTime:50627
Countdown: 0
SampleSet: Soft
StackLeniency: 0.4
Mode: 0
LetterboxInBreaks: 0
WidescreenStoryboard: 1

[Editor]
DistanceSpacing: 1
BeatDivisor: 8
GridSize: 32
TimelineZoom: 2.799999

[Metadata]
Title:God-ish
TitleUnicode:神っぽいな
Artist:philo
ArtistUnicode:フィロ
Creator:Basensorex
Version:Nymphe & Ermi's Expert
Source:
Tags:kirishima- pincus alevi vanya2 ermi nymphe modding queue kiyoshi guarden gazimal brain exe kamippoi kami ppoi na godish japanese pop j-pop jpop vocaloid ボーカ utaite cover female strong vocals vocalist pinocchiop hatsune miku
BeatmapID:3547138
BeatmapSetID:1722410

[Difficulty]
HPDrainRate:6
CircleSize:4.2
OverallDifficulty:8.5
ApproachRate:9.4
SliderMultiplier:2.4
SliderTickRate:1

[Events]
//Background and Video events
0,0,"hot.png",0,0
//Break Periods
//Storyboard Layer 0 (Background)
//Storyboard Layer 1 (Fail)
//Storyboard Layer 2 (Pass)
//Storyboard Layer 3 (Foreground)
//Storyboard Layer 4 (Overlay)
//Storyboard Sound Samples

[TimingPoints]
240,422.535211267606,4,2,22,40,1,0
9007,-153.846153846153,4,2,22,40,0,0
9324,-100,4,2,22,40,0,0
13761,-90.9090909090909,4,2,22,50,0,0
19887,-125,4,2,22,50,0,0
20099,-55.5555555555556,4,2,22,50,0,0
20521,-76.9230769230769,4,2,22,65,0,0
20732,-66.6666666666667,4,2,22,65,0,0
26014,-100,4,2,22,65,0,0
26225,-55.5555555555556,4,2,22,65,0,0
27493,-66.6666666666667,4,2,22,65,0,0
32775,-133.333333333333,4,2,22,65,0,0
33409,-66.6666666666667,4,2,22,65,0,0
34042,-90.9090909090909,4,2,22,55,0,0
35732,-83.3333333333333,4,2,22,55,0,0
36789,-76.9230769230769,4,2,22,55,0,0
37423,-71.4285714285714,4,2,22,65,0,0
39535,-250,4,2,22,65,0,0
39958,-83.3333333333333,4,2,22,65,0,0
40169,-71.4285714285714,4,2,22,65,0,0
40803,-71.4285714285714,4,2,22,55,0,0
41014,-90.9090909090909,4,2,22,55,0,0
42493,-83.3333333333333,4,2,22,55,0,0
43549,-166.666666666667,4,2,22,55,0,0
44183,-76.9230769230769,4,2,22,65,0,0
45873,-71.4285714285714,4,2,22,70,0,0
47563,-125,4,2,22,70,0,0
50573,-125,4,2,22,5,0,0
50944,-58.8235294117647,4,2,22,80,0,1
51524,-58.8235294117647,4,2,22,5,0,1
51578,-58.8235294117647,4,2,22,80,0,1
52369,-58.8235294117647,4,2,22,5,0,1
52423,-58.8235294117647,4,2,22,80,0,1
53214,-58.8235294117647,4,2,22,5,0,1
53268,-58.8235294117647,4,2,22,80,0,1
54059,-58.8235294117647,4,2,22,5,0,1
54113,-58.8235294117647,4,2,22,80,0,1
54324,-52.6315789473684,4,2,22,80,0,1
54482,-52.6315789473684,4,2,22,5,0,1
54535,-100,4,2,22,80,0,1
54747,-52.6315789473684,4,2,22,80,0,1
54905,-52.6315789473684,4,2,22,5,0,1
54958,-100,4,2,22,80,0,1
55169,-52.6315789473684,4,2,22,80,0,1
55327,-52.6315789473684,4,2,22,5,0,1
55380,-52.6315789473684,4,2,22,80,0,1
55592,-58.8235294117647,4,2,22,80,0,1
55750,-58.8235294117647,4,2,22,5,0,1
55803,-58.8235294117647,4,2,22,80,0,1
57282,-55.5555555555556,4,2,22,80,0,1
57704,-58.8235294117647,4,2,22,80,0,1
58285,-58.8235294117647,4,2,22,5,0,1
58338,-58.8235294117647,4,2,22,80,0,1
59130,-58.8235294117647,4,2,22,5,0,1
59183,-58.8235294117647,4,2,22,80,0,1
59975,-58.8235294117647,4,2,22,5,0,1
60028,-58.8235294117647,4,2,22,80,0,1
60820,-58.8235294117647,4,2,22,5,0,1
60873,-58.8235294117647,4,2,22,80,0,1
61085,-52.6315789473684,4,2,22,80,0,1
61243,-52.6315789473684,4,2,22,5,0,1
61296,-100,4,2,22,80,0,1
61507,-52.6315789473684,4,2,22,80,0,1
61665,-52.6315789473684,4,2,22,5,0,1
61718,-100,4,2,22,80,0,1
61930,-52.6315789473684,4,2,22,80,0,1
62088,-52.6315789473684,4,2,22,5,0,1
62141,-52.6315789473684,4,2,22,80,0,1
62352,-58.8235294117647,4,2,22,80,0,1
62510,-58.8235294117647,4,2,22,5,0,1
62563,-58.8235294117647,4,2,22,80,0,1
62775,-238.095238095238,4,2,22,80,0,0
63620,-100,4,2,22,80,0,0
64042,-100,4,2,22,60,0,0
64465,-100,4,2,22,80,0,1
65732,-62.5,4,2,22,80,0,1
66313,-62.5,4,2,22,5,0,1
66366,-58.8235294117647,4,2,22,80,0,1
67845,-62.5,4,2,22,80,0,1
68426,-62.5,4,2,22,5,0,1
68479,-58.8235294117647,4,2,22,80,0,1
70803,-55.5555555555556,4,2,22,80,0,1
71225,-62.5,4,2,22,80,0,1
71383,-62.5,4,2,22,5,0,1
71437,-58.8235294117647,4,2,22,80,0,1
76296,-52.6315789473684,4,2,22,80,0,1
76454,-52.6315789473684,4,2,22,5,0,1
76507,-71.4285714285714,4,2,22,80,0,1
76718,-52.6315789473684,4,2,22,80,0,1
76876,-52.6315789473684,4,2,22,5,0,1
76930,-71.4285714285714,4,2,22,80,0,1
77563,-52.6315789473684,4,2,22,80,0,1
77986,-52.6315789473684,4,2,22,60,0,0
78197,-83.3333333333333,4,2,22,60,0,0
90662,-142.857142857143,4,2,22,60,0,0
91085,-71.4285714285714,4,2,22,60,0,0
91507,582.52427184466,4,2,22,50,1,0
91507,-90.9090909090909,4,2,22,50,0,0
95584,-111.111111111111,4,2,22,50,0,0
96167,-83.3333333333333,4,2,22,50,0,0
99371,-76.9230769230769,4,2,22,50,0,0
100827,-71.4285714285714,4,2,22,65,0,0
103157,-66.6666666666667,4,2,22,65,0,0
105487,-76.9230769230769,4,2,22,65,0,0
107235,-111.111111111111,4,2,22,65,0,0
108982,-66.6666666666667,4,2,22,65,0,0
109418,-66.6666666666667,4,2,22,5,0,0
109565,-66.6666666666667,4,2,22,65,0,0
110147,-111.111111111111,4,2,22,75,0,0
110948,-111.111111111111,4,2,22,5,0,0
111021,-111.111111111111,4,2,22,75,0,0
112113,-111.111111111111,4,2,22,5,0,0
112186,-111.111111111111,4,2,22,75,0,0
113278,-111.111111111111,4,2,22,5,0,0
113351,-111.111111111111,4,2,22,75,0,0
115608,-111.111111111111,4,2,22,5,0,0
115681,-111.111111111111,4,2,22,75,0,0
116773,-111.111111111111,4,2,22,5,0,0
116846,-111.111111111111,4,2,22,75,0,0
119176,-66.6666666666666,4,2,22,75,0,0
119394,-66.6666666666666,4,2,22,5,0,0
119468,-111.111111111111,4,2,22,75,0,0
120268,-111.111111111111,4,2,22,5,0,0
120341,-111.111111111111,4,2,22,75,0,0
122598,-111.111111111111,4,2,22,5,0,0
122672,-111.111111111111,4,2,22,75,0,0
124928,-111.111111111111,4,2,22,5,0,0
125002,-111.111111111111,4,2,22,75,0,0
126458,-99.9999999999999,4,2,22,75,0,0
127331,-99.9999999999999,4,2,22,5,0,0
127623,-39.8964715906333,4,2,22,75,0,0
128205,-39.8964715906333,4,2,22,5,0,0
128788,422.535211267606,4,2,22,55,1,0
128788,-76.9230769230769,4,2,22,55,0,0
132168,-71.4285714285714,4,2,22,65,0,0
134280,-250,4,2,22,65,0,0
134703,-83.3333333333333,4,2,22,65,0,0
134914,-71.4285714285714,4,2,22,65,0,0
135548,-90.9090909090909,4,2,22,55,0,0
137238,-83.3333333333333,4,2,22,55,0,0
138295,-166.666666666667,4,2,22,55,0,0
138928,-76.9230769230769,4,2,22,65,0,0
140618,-76.9230769230769,4,2,22,70,0,0
142309,-500,4,2,22,70,0,0
146745,-83.3333333333334,4,2,22,70,0,0
146957,-58.8235294117647,4,2,22,70,0,0
147379,-45.4545454545455,4,2,22,85,0,1
147432,-45.4545454545455,4,2,22,70,0,1
147590,-45.4545454545455,4,2,22,85,0,1
147802,-58.8235294117647,4,2,22,85,0,1
147960,-58.8235294117647,4,2,22,5,0,1
148013,-58.8235294117647,4,2,22,85,0,1
148805,-58.8235294117647,4,2,22,5,0,1
148858,-58.8235294117647,4,2,22,85,0,1
149650,-58.8235294117647,4,2,22,5,0,1
149703,-58.8235294117647,4,2,22,85,0,1
150495,-58.8235294117647,4,2,22,5,0,1
150548,-58.8235294117647,4,2,22,85,0,1
150759,-52.6315789473684,4,2,22,85,0,1
150917,-52.6315789473684,4,2,22,5,0,1
150971,-100,4,2,22,85,0,1
151182,-52.6315789473684,4,2,22,85,0,1
151340,-52.6315789473684,4,2,22,5,0,1
151393,-100,4,2,22,85,0,1
151604,-52.6315789473684,4,2,22,85,0,1
151762,-52.6315789473684,4,2,22,5,0,1
151816,-52.6315789473684,4,2,22,85,0,1
152027,-58.8235294117647,4,2,22,85,0,1
152185,-58.8235294117647,4,2,22,5,0,1
152238,-58.8235294117647,4,2,22,85,0,1
152607,-58.8235294117647,4,2,22,5,0,1
152661,-58.8235294117647,4,2,22,85,0,1
153717,-55.5555555555556,4,2,22,85,0,1
154140,-58.8235294117647,4,2,22,85,0,1
154720,-58.8235294117647,4,2,22,5,0,1
154773,-58.8235294117647,4,2,22,85,0,1
155565,-58.8235294117647,4,2,22,5,0,1
155618,-58.8235294117647,4,2,22,85,0,1
156410,-58.8235294117647,4,2,22,5,0,1
156464,-58.8235294117647,4,2,22,85,0,1
157255,-58.8235294117647,4,2,22,5,0,1
157309,-58.8235294117647,4,2,22,85,0,1
157520,-52.6315789473684,4,2,22,85,0,1
157678,-52.6315789473684,4,2,22,5,0,1
157731,-100,4,2,22,85,0,1
157942,-52.6315789473684,4,2,22,85,0,1
158100,-52.6315789473684,4,2,22,5,0,1
158154,-100,4,2,22,85,0,1
158788,-58.8235294117647,4,2,22,85,0,1
158946,-58.8235294117647,4,2,22,5,0,1
158999,-58.8235294117647,4,2,22,85,0,1
159210,-200,4,2,22,85,0,0
160055,-100,4,2,22,85,0,0
160371,-100,4,2,22,5,0,0
160478,-100,4,2,22,85,0,0
160900,-62.5,4,2,22,85,0,1
161903,-62.5,4,2,22,5,0,1
161957,-62.5,4,2,22,85,0,1
162168,-58.8235294117647,4,2,22,85,0,1
174421,-58.8235294117647,4,2,22,75,0,0
174474,-58.8235294117647,4,2,22,85,0,0
174633,-83.3333333333333,4,2,22,75,0,0
179861,-83.3333333333333,4,2,22,5,0,0
179914,-83.3333333333333,4,2,22,75,0,0
187942,-100,4,2,22,50,0,0
189949,-153.846153846153,4,2,22,50,0,0
190266,-100,4,2,22,50,0,0
194703,-90.9090909090909,4,2,22,50,0,0
201252,-90.9090909090909,4,2,22,5,0,0

[Colours]
Combo1 : 169,177,5
Combo2 : 191,191,191
Combo3 : 75,74,74
Combo4 : 228,14,46

[HitObjects]
0,373,6894,5,0,2:0:0:0:
0,373,7000,2,0,P|57:354|116:347,1,120,2|0,1:2|2:0,2:0:0:0:
185,383,7317,2,0,P|148:337|158:280,1,120,2|0,3:2|2:0,2:0:0:0:
168,273,7634,1,2,3:2:0:0:
265,337,7845,6,0,P|264:307|247:283,1,60,2|0,2:0|3:2,2:0:0:0:
218,213,8056,1,2,2:0:0:0:
218,213,8162,2,0,P|224:153|243:96,1,120,2|0,3:2|2:0,2:0:0:0:
289,34,8479,37,2,3:2:0:0:
312,58,8585,1,2,2:0:0:0:
346,55,8690,2,0,P|402:65|427:118,1,120,2|0,1:2|2:0,2:0:0:0:
493,179,9007,2,0,P|475:201|499:186,1,78.0000000000004,2|0,3:2|2:0,2:0:0:0:
485,299,9324,6,0,P|462:216|378:201,2,180,2|0|0,3:2|3:2|3:2,2:0:0:0:
409,275,10169,1,2,2:0:0:0:
384,350,10380,38,0,P|324:355|266:372,1,120,2|0,1:2|2:0,2:0:0:0:
195,337,10697,2,0,P|162:288|177:231,1,120,2|0,3:2|2:0,2:0:0:0:
187,224,11014,1,2,3:2:0:0:
120,297,11225,6,0,P|98:317|69:323,1,60,2|0,2:0|3:2,2:0:0:0:
9,280,11437,1,2,2:0:0:0:
9,280,11542,2,0,P|22:221|31:162,1,120,2|0,3:2|2:0,2:0:0:0:
32,147,11859,1,2,3:2:0:0:
72,75,12070,38,0,P|117:38|176:44,1,120,2|0,1:2|2:0,2:0:0:0:
221,110,12387,2,0,P|275:104|276:49,1,120,2|0,3:2|2:0,2:0:0:0:
312,179,12704,6,0,P|247:123|272:42,1,180,2|0,3:2|3:2,2:0:0:0:
339,3,13127,2,0,P|367:11|387:33,1,60,0|0,3:2|3:2,2:0:0:0:
378,118,13338,37,0,3:2:0:0:
378,118,13549,1,0,3:2:0:0:
512,188,13761,6,0,P|496:252|490:317,1,132,2|2,1:2|3:2,2:0:0:0:
410,305,14078,1,2,3:2:0:0:
410,305,14183,2,0,P|416:239|432:175,1,132,8|2,2:0|3:2,2:0:0:0:
485,53,14606,38,0,P|509:31|512:0,2,66,2|0|2,2:0|3:2|2:0,2:0:0:0:
410,38,14923,1,2,3:2:0:0:
410,38,15028,2,0,P|346:44|306:94,1,132,8|2,2:0|3:2,2:0:0:0:
221,282,15451,6,0,P|214:249|204:218,1,66,2|0,1:2|2:0,2:0:0:0:
301,290,15662,1,2,3:2:0:0:
301,290,15768,2,0,P|288:225|268:162,1,132,2|0,3:2|2:0,2:0:0:0:
148,63,16085,38,0,P|217:127|305:94,2,198,2|0|8,3:2|3:2|2:0,2:0:0:0:
235,38,16930,1,2,2:0:0:0:
209,221,17141,6,0,P|144:206|78:203,1,132,2|0,1:2|3:2,2:0:0:0:
0,218,17458,1,2,3:2:0:0:
0,218,17563,2,0,P|53:184|45:122,1,132,10|2,2:0|3:2,2:0:0:0:
138,254,17986,38,0,P|121:267|108:309,1,66,2|0,2:0|3:2,2:0:0:0:
137,384,18197,1,2,2:0:0:0:
137,384,18303,2,0,P|98:333|35:338,1,132,2|0,3:2|2:0,2:0:0:0:
27,346,18620,2,0,P|0:328|-7:296,1,66,2|0,3:2|2:0,2:0:0:0:
195,312,18831,5,2,1:2:0:0:
205,149,19887,38,0,L|199:196,1,48,2|0,3:2|3:2,2:0:0:0:
287,278,20099,6,0,B|335:286|363:232|341:176|280:156|176:186|194:311,1,324,10|0,2:0|2:0,2:0:0:0:
139,372,20521,38,0,P|101:375|70:352,1,78,4|0,1:2|2:0,2:0:0:0:
2,251,20732,6,0,P|15:208|22:163,1,90,2|0,2:0|2:0,2:0:0:0:
244,60,20944,37,2,1:2:0:0:
244,60,21049,2,0,P|242:17|202:2,1,90,2|0,2:0|2:0,2:0:0:0:
73,100,21261,6,0,P|117:88|159:72,1,90,2|0,2:0|1:2,2:0:0:0:
306,115,21472,38,0,P|336:147|371:176,1,90,2|0,2:0|2:0,2:0:0:0:
501,280,21683,5,2,2:0:0:0:
463,342,21789,2,0,P|503:330|508:288,1,90,2|0,1:2|2:0,2:0:0:0:
451,200,22000,38,0,P|465:181|470:160,1,45,10|8,2:0|2:0,2:0:0:0:
459,207,22106,2,0,P|480:197|495:181,1,45,8|8,2:0|2:0,2:0:0:0:
462,217,22211,1,0,1:2:0:0:
259,381,22423,6,0,P|266:336|279:293,1,90,2|0,2:0|2:0,2:0:0:0:
72,132,22634,37,2,1:2:0:0:
72,132,22740,2,0,P|96:96|139:95,1,90,2|0,2:0|2:0,2:0:0:0:
223,234,22951,6,0,P|215:189|202:146,1,90,2|0,2:0|1:2,2:0:0:0:
279,0,23162,38,0,P|266:42|259:87,1,90,2|0,2:0|2:0,2:0:0:0:
423,83,23373,5,2,2:0:0:0:
495,113,23479,2,0,P|470:77|427:76,1,90,2|0,1:2|2:0,2:0:0:0:
318,145,23690,38,0,P|332:126|337:105,1,45,10|8,2:0|2:0,2:0:0:0:
326,152,23796,2,0,P|347:142|362:126,1,45,8|8,2:0|2:0,2:0:0:0:
329,162,23901,1,0,1:2:0:0:
503,379,24113,6,0,P|461:366|416:359,1,90,2|0,2:0|2:0,2:0:0:0:
186,307,24324,37,2,1:2:0:0:
186,307,24430,2,0,P|147:286|137:243,1,90,2|0,2:0|2:0,2:0:0:0:
349,310,24641,6,0,P|306:319|263:336,1,90,2|0,2:0|1:2,2:0:0:0:
61,214,24852,38,0,P|28:244|0:280,1,90,2|0,2:0|2:0,2:0:0:0:
156,93,25063,5,2,2:0:0:0:
87,55,25169,2,0,P|131:54|161:86,1,90,2|0,1:2|2:0,2:0:0:0:
197,188,25380,38,0,P|211:169|216:148,1,45,10|8,2:0|2:0,2:0:0:0:
205,195,25486,2,0,P|226:185|241:169,1,45,8|8,2:0|2:0,2:0:0:0:
208,205,25592,1,0,1:2:0:0:
395,158,25803,5,2,2:0:0:0:
408,80,25909,1,0,2:0:0:0:
334,108,26014,2,0,L|275:96,1,60,0|0,1:2|2:0,2:0:0:0:
458,18,26225,38,0,L|510:7,2,54,2|0|0,2:0|2:0|2:0,2:0:0:0:
395,158,26437,5,0,1:2:0:0:
398,171,26542,1,0,2:0:0:0:
401,184,26648,1,2,2:0:0:0:
404,197,26754,1,0,2:0:0:0:
441,226,26859,38,0,L|493:215,2,54,0|0|0,1:2|2:0|2:0,2:0:0:0:
345,344,27070,5,10,2:0:0:0:
340,348,27123,37,8,2:0:0:0:
335,352,27176,6,0,L|282:341,2,54,8|8|0,2:0|2:0|1:2,2:0:0:0:
25,227,27493,38,0,P|44:187|86:178,1,90,2|0,2:0|2:0,2:0:0:0:
279,87,27704,5,2,1:2:0:0:
279,87,27810,2,0,P|271:42|259:0,1,90,2|0,2:0|2:0,2:0:0:0:
145,120,28021,38,0,P|188:117|217:149,1,90,2|0,2:0|1:2,2:0:0:0:
310,247,28232,6,0,P|323:205|298:169,1,90,2|0,2:0|2:0,2:0:0:0:
43,101,28444,37,2,2:0:0:0:
0,34,28549,2,0,P|31:66|60:101,1,90,2|0,1:2|2:0,2:0:0:0:
180,222,28761,6,0,L|197:263,1,45,10|8,2:0|2:0,2:0:0:0:
167,225,28866,2,0,L|161:269,1,45,8|8,2:0|2:0,2:0:0:0:
154,221,28972,1,0,1:2:0:0:
341,28,29183,38,0,P|381:48|389:90,1,90,2|0,2:0|2:0,2:0:0:0:
486,226,29394,5,2,1:2:0:0:
486,226,29500,2,0,P|492:181|506:138,1,90,2|0,2:0|2:0,2:0:0:0:
353,164,29711,38,0,P|361:206|400:225,1,90,2|0,2:0|1:2,2:0:0:0:
485,361,29923,6,0,P|477:319|438:300,1,90,2|0,2:0|2:0,2:0:0:0:
293,274,30134,37,2,2:0:0:0:
214,287,30240,2,0,P|255:269|300:262,1,90,2|0,1:2|2:0,2:0:0:0:
366,335,30451,6,0,L|383:376,1,45,10|8,2:0|2:0,2:0:0:0:
353,338,30556,2,0,L|347:382,1,45,8|8,2:0|2:0,2:0:0:0:
340,334,30662,1,0,1:2:0:0:
139,24,30873,38,0,P|157:62|200:70,1,90,2|0,2:0|2:0,2:0:0:0:
362,52,31085,5,2,1:2:0:0:
362,52,31190,2,0,P|326:79|286:98,1,90,2|0,2:0|2:0,2:0:0:0:
151,190,31401,38,0,P|194:192|222:159,1,90,2|0,2:0|1:2,2:0:0:0:
300,262,31613,6,0,P|324:225|309:185,1,90,2|0,2:0|2:0,2:0:0:0:
28,232,31824,37,2,2:0:0:0:
103,257,31930,2,0,P|58:251|16:236,1,90,2|0,1:2|2:0,2:0:0:0:
66,88,32141,6,0,L|72:132,1,45,10|8,2:0|2:0,2:0:0:0:
82,91,32247,2,0,L|88:135,1,45,8|8,2:0|2:0,2:0:0:0:
78,147,32352,1,2,1:2:0:0:
0,47,32775,38,0,L|6:3,4,45.0000000000001,0|0|2|0|0,3:2|3:2|3:2|3:2|3:2,2:0:0:0:
222,158,33409,6,0,B|227:201|227:201|224:202|224:202|229:244,2,90,0|0|8,1:2|1:2|2:0,2:0:0:0:
415,9,34042,38,0,P|396:35|399:67,1,66,2|0,1:2|2:0,2:0:0:0:
475,87,34254,2,0,P|493:61|491:29,1,66,2|0,3:2|3:2,2:0:0:0:
408,0,34465,1,2,3:2:0:0:
430,183,34676,6,0,P|461:174|494:170,1,66,2|0,1:2|2:0,2:0:0:0:
512,245,34887,2,0,P|479:249|447:257,1,66,2|0,3:2|3:2,2:0:0:0:
422,177,35099,1,2,3:2:0:0:
409,323,35310,37,10,2:0:0:0:
374,347,35416,1,2,2:0:0:0:
332,340,35521,1,2,2:0:0:0:
325,332,35732,6,0,P|290:322|254:318,1,72,2|0,1:2|2:0,2:0:0:0:
196,371,35944,2,0,P|160:375|125:384,1,72,2|0,3:2|3:2,2:0:0:0:
247,309,36155,1,2,3:2:0:0:
70,329,36366,38,0,P|35:319|-1:315,1,72,2|0,1:2|2:0,2:0:0:0:
188,250,36578,2,0,P|152:254|117:263,1,72,2|0,3:2|3:2,2:0:0:0:
3,171,36789,6,0,B|-17:152|-17:152|32:163,1,78,2|0,3:2|3:2,2:0:0:0:
41,239,37000,1,10,2:0:0:0:
350,195,37423,38,0,P|346:115|273:81,1,168,2|0,1:2|2:0,2:0:0:0:
152,81,37740,1,0,3:2:0:0:
152,81,37845,2,0,B|225:111|281:40|234:37|295:-28|365:-1,1,252,10|0,2:0|2:0,2:0:0:0:
502,72,38268,6,0,P|493:113|489:154,1,84,2|0,1:2|2:0,2:0:0:0:
424,57,38479,2,0,P|415:98|411:139,1,84,2|0,2:0|3:2,2:0:0:0:
288,302,38690,38,0,P|296:343|300:384,1,84,10|0,2:0|2:0,2:0:0:0:
366,287,38901,2,0,P|374:328|378:369,1,84,2|0,3:2|2:0,2:0:0:0:
196,262,39113,6,0,P|322:258|438:211,1,252,2|0,1:2|3:2,2:0:0:0:
450,299,39535,2,0,P|483:311|512:332,1,72,8|0,2:0|2:0,2:0:0:0:
510,342,39958,38,0,P|481:320|447:308,1,72,0|0,1:2|2:0,2:0:0:0:
270,224,40169,2,0,P|230:238|196:262,1,84,8|0,2:0|2:0,2:0:0:0:
159,331,40380,1,8,2:0:0:0:
113,352,40486,1,8,2:0:0:0:
64,338,40592,1,8,2:0:0:0:
35,295,40697,1,8,2:0:0:0:
40,243,40803,5,2,1:2:0:0:
10,60,41014,38,0,P|21:90|28:123,1,66,2|0,3:2|3:2,2:0:0:0:
102,100,41225,2,0,P|95:67|83:36,1,66,2|0,3:2|3:2,2:0:0:0:
0,56,41437,1,2,1:2:0:0:
185,99,41648,6,0,P|196:69|203:36,1,66,2|0,3:2|3:2,2:0:0:0:
277,59,41859,2,0,P|270:92|258:123,1,66,2|0,3:2|3:2,2:0:0:0:
211,174,42070,37,10,2:0:0:0:
254,144,42176,1,2,2:0:0:0:
305,156,42282,1,2,2:0:0:0:
313,167,42493,6,0,P|341:187|377:184,1,72,2|0,1:2|2:0,2:0:0:0:
442,232,42704,2,0,P|470:211|506:214,1,72,2|0,3:2|3:2,2:0:0:0:
387,179,42916,1,2,3:2:0:0:
468,59,43127,38,0,P|457:93|452:128,1,72,2|0,1:2|2:0,2:0:0:0:
369,270,43338,2,0,P|379:304|384:339,1,72,2|0,3:2|3:2,2:0:0:0:
375,345,43549,6,0,P|370:309|359:275,1,71.9999999999999,2|10,3:2|2:0,2:0:0:0:
455,384,43972,1,2,2:0:0:0:
243,275,44183,38,0,P|344:264|312:167,1,234,2|0,1:2|2:0,2:0:0:0:
237,42,44606,6,0,P|233:80|255:112,1,78,10|0,2:0|2:0,2:0:0:0:
316,23,44817,2,0,P|337:54|334:93,1,78,2|0,1:2|2:0,2:0:0:0:
155,222,45028,38,0,P|176:190|172:152,1,78,2|0,1:2|2:0,2:0:0:0:
75,202,45240,2,0,P|71:163|92:132,1,78,2|0,2:0|2:0,2:0:0:0:
6,26,45451,6,0,P|44:28|72:54,1,78,10|0,2:0|2:0,2:0:0:0:
92,132,45662,1,2,1:2:0:0:
24,268,45873,38,0,P|101:246|158:303,1,168,2|8,1:2|2:0,2:0:0:0:
84,327,46190,1,8,2:0:0:0:
84,327,46296,1,0,1:2:0:0:
248,354,46507,6,0,L|331:343,1,84,8|0,2:0|2:0,2:0:0:0:
239,367,46718,1,2,1:2:0:0:
512,384,46930,37,8,2:0:0:0:
484,340,47035,1,8,2:0:0:0:
430,344,47141,1,0,1:2:0:0:
235,270,47352,6,0,L|319:260,1,84,8|0,2:0|2:0,2:0:0:0:
486,200,47563,38,0,B|529:211|565:166|551:96|477:79|385:114|395:218|395:218|317:169|319:32|413:-28|516:-2|516:-2|469:24|472:82,1,768,2|2,1:2|2:0,2:0:0:0:
472,83,50521,6,0,L|448:85,1,24,8|0,2:0|2:0,2:0:0:0:
5,12,50944,6,0,P|106:22|203:53,1,204,6|2,1:2|2:0,2:0:0:0:
280,170,51261,1,2,2:0:0:0:
290,87,51366,2,0,P|219:79|197:147,1,153,10|0,2:0|2:0,2:0:0:0:
201,159,51578,2,0,P|173:200|124:208,1,102,2|0,1:2|2:0,2:0:0:0:
0,264,51789,6,0,P|49:271|77:312,1,102,2|0,2:0|2:0,2:0:0:0:
139,376,52000,1,2,1:2:0:0:
139,376,52106,1,0,1:2:0:0:
209,322,52211,2,0,P|283:303|359:294,1,153,10|0,2:0|2:0,2:0:0:0:
365,302,52423,2,0,P|339:302|314:307,2,51,2|0|0,3:2|3:2|3:2,2:0:0:0:
451,384,52634,38,0,B|472:327|416:278|409:316|356:278|374:215,1,204,2|2,1:2|2:0,2:0:0:0:
512,123,52951,1,2,2:0:0:0:
456,189,53056,2,0,P|380:180|306:161,1,153,10|0,2:0|2:0,2:0:0:0:
296,154,53268,2,0,P|290:103|277:54,1,102,2|0,1:2|2:0,2:0:0:0:
116,39,53479,5,2,2:0:0:0:
135,47,53585,1,0,2:0:0:0:
205,13,53690,37,2,1:2:0:0:
46,73,53796,1,0,1:2:0:0:
212,0,53901,6,0,P|286:19|361:27,1,153,10|0,2:0|2:0,2:0:0:0:
371,22,54113,2,0,P|395:15|420:12,2,51,2|0|0,3:2|3:2|3:2,2:0:0:0:
503,18,54324,38,0,P|424:33|412:113,1,171,2|0,1:2|2:0,2:0:0:0:
421,121,54535,2,0,P|446:136|458:163,1,60,2|0,2:0|2:0,2:0:0:0:
246,247,54747,6,0,P|271:170|351:168,1,171,10|0,2:0|2:0,2:0:0:0:
355,179,54958,2,0,P|367:205|392:221,1,60,2|0,1:2|2:0,2:0:0:0:
511,220,55169,38,0,P|438:209|441:284,1,171,2|0,2:0|2:0,2:0:0:0:
451,292,55380,1,2,1:2:0:0:
512,350,55486,1,0,1:2:0:0:
376,336,55592,6,0,P|299:338|224:354,1,153,10|0,2:0|2:0,2:0:0:0:
215,360,55803,2,0,P|191:353|171:337,2,51,2|0|0,3:2|3:2|3:2,2:0:0:0:
291,315,56014,38,0,B|255:222|139:241|139:241|148:256,1,204,2|2,1:2|2:0,2:0:0:0:
95,166,56331,1,2,2:0:0:0:
23,337,56437,2,0,P|42:290|53:241,1,102,10|0,2:0|2:0,2:0:0:0:
139,23,56648,2,0,P|149:72|169:119,1,102,2|0,1:2|2:0,2:0:0:0:
304,181,56859,5,2,1:2:0:0:
320,136,56965,1,0,1:2:0:0:
364,14,57070,37,0,1:2:0:0:
398,110,57176,1,0,1:2:0:0:
356,7,57282,6,0,P|330:-2|304:0,2,54,8|0|8,2:0|3:2|2:0,2:0:0:0:
436,185,57493,37,8,2:0:0:0:
442,189,57546,5,0,3:2:0:0:
448,193,57599,38,0,L|501:199,1,54,8|0,2:0|3:2,2:0:0:0:
512,202,57704,6,0,B|414:212|414:212|415:216|415:216|312:229,1,204,2|2,1:2|2:0,2:0:0:0:
223,351,58021,1,2,2:0:0:0:
228,269,58127,2,0,P|295:257|304:325,1,153,10|0,2:0|2:0,2:0:0:0:
299,334,58338,2,0,P|349:341|398:353,1,102,2|0,1:2|2:0,2:0:0:0:
158,223,58549,38,0,P|107:230|58:242,1,102,2|0,2:0|2:0,2:0:0:0:
0,305,58761,1,2,1:2:0:0:
0,305,58866,1,0,1:2:0:0:
0,181,58972,2,0,P|39:117|112:107,1,153,10|0,2:0|2:0,2:0:0:0:
120,99,59183,2,0,P|96:94|70:97,2,51,2|0|0,3:2|3:2|3:2,2:0:0:0:
14,28,59394,6,0,P|110:59|211:73,1,204,2|2,1:2|2:0,2:0:0:0:
402,113,59711,1,2,2:0:0:0:
321,124,59817,2,0,P|259:87|274:17,1,153,10|0,2:0|2:0,2:0:0:0:
282,12,60028,2,0,P|332:18|381:34,1,102,2|0,1:2|2:0,2:0:0:0:
486,126,60240,37,2,2:0:0:0:
478,145,60345,1,0,2:0:0:0:
512,215,60451,5,2,1:2:0:0:
452,56,60556,1,0,1:2:0:0:
508,227,60662,38,0,P|452:276|380:262,1,153,10|0,2:0|2:0,2:0:0:0:
373,253,60873,2,0,P|353:239|328:235,2,51,2|0|0,3:2|3:2|3:2,2:0:0:0:
283,307,61085,6,0,P|199:316|118:345,1,171,2|0,1:2|2:0,2:0:0:0:
111,352,61296,2,0,P|140:354|168:365,1,60,2|0,2:0|2:0,2:0:0:0:
254,194,61507,38,0,P|176:226|91:240,1,171,10|0,2:0|2:0,2:0:0:0:
81,237,61718,2,0,P|105:221|124:197,1,60,2|0,1:2|2:0,2:0:0:0:
37,370,61930,6,0,P|71:298|7:253,1,171,2|0,2:0|2:0,2:0:0:0:
0,259,62141,1,2,1:2:0:0:
34,168,62247,1,0,1:2:0:0:
163,276,62352,38,0,P|238:288|309:316,1,153,10|0,2:0|2:0,2:0:0:0:
315,327,62563,2,0,P|334:342|351:362,2,51,2|0|0,3:2|3:2|3:2,2:0:0:0:
419,326,62775,6,0,P|414:301|406:278,1,50.4,10|0,2:0|2:0,2:0:0:0:
405,277,63092,1,0,1:2:0:0:
509,281,63197,38,0,P|505:305|496:329,1,50.4,8|0,2:0|2:0,2:0:0:0:
495,329,63514,1,0,1:2:0:0:
295,205,63620,6,0,P|395:251|460:162,1,240,8|2,2:0|2:0,2:0:0:0:
439,113,64148,5,2,2:0:0:0:
387,106,64254,6,0,P|378:135|373:165,1,60,2|2,2:0|2:0,2:0:0:0:
512,0,64465,5,6,1:2:0:0:
461,4,64570,1,2,2:0:0:0:
410,12,64676,1,2,1:2:0:0:
359,24,64782,1,2,1:2:0:0:
306,89,64887,5,10,2:0:0:0:
290,86,64993,1,2,2:0:0:0:
218,26,65099,37,2,1:2:0:0:
234,23,65204,1,2,1:2:0:0:
209,109,65310,5,2,1:2:0:0:
114,126,65416,1,2,2:0:0:0:
196,99,65521,1,2,1:2:0:0:
127,136,65627,1,2,1:2:0:0:
132,44,65732,38,0,P|167:133|187:226,1,192,10|2,2:0|1:2,2:0:0:0:
132,383,66049,5,2,1:2:0:0:
193,320,66155,2,0,P|166:256|98:253,1,144,2|0,1:2|2:0,2:0:0:0:
92,261,66366,2,0,P|42:268|-5:285,1,102,2|0,1:2|2:0,2:0:0:0:
295,334,66578,37,10,2:0:0:0:
193,320,66683,2,0,P|243:326|291:343,1,102,2|0,2:0|2:0,2:0:0:0:
373,301,66894,5,2,1:2:0:0:
393,356,67000,1,2,1:2:0:0:
383,305,67106,1,2,2:0:0:0:
422,270,67211,2,0,P|446:274|471:281,2,51,2|0|0,1:2|3:2|2:0,2:0:0:0:
305,247,67423,38,0,P|312:174|379:148,1,153,10|0,2:0|2:0,2:0:0:0:
387,158,67634,2,0,P|410:149|436:145,2,51,2|0|0,1:2|3:2|2:0,2:0:0:0:
498,200,67845,6,0,P|509:110|432:63,1,192,2|2,1:2|1:2,2:0:0:0:
344,39,68162,1,2,1:2:0:0:
494,3,68268,2,0,P|425:23|353:29,1,144,10|0,2:0|2:0,2:0:0:0:
340,27,68479,2,0,P|291:12|241:8,1,102,2|0,1:2|2:0,2:0:0:0:
53,164,68690,38,0,P|100:149|151:143,1,102,2|0,1:2|2:0,2:0:0:0:
197,78,68901,1,2,1:2:0:0:
197,78,69007,1,0,1:2:0:0:
217,192,69113,2,0,P|195:265|190:340,1,153,10|0,2:0|2:0,2:0:0:0:
202,337,69324,2,0,P|200:310|206:286,2,51,2|0|0,1:2|3:2|2:0,2:0:0:0:
314,348,69535,6,0,P|212:354|114:383,1,204,2|0,1:2|2:0,2:0:0:0:
15,347,69852,1,2,1:2:0:0:
115,384,69958,2,0,P|56:349|66:274,1,153,10|0,2:0|2:0,2:0:0:0:
77,276,70169,2,0,P|116:246|117:196,1,102,2|0,1:2|2:0,2:0:0:0:
0,60,70380,37,2,1:2:0:0:
21,68,70486,1,0,1:2:0:0:
79,127,70592,5,0,1:2:0:0:
153,98,70697,1,0,1:2:0:0:
189,24,70803,38,0,P|210:6|236:2,2,54,8|0|8,2:0|3:2|2:0,2:0:0:0:
19,178,71014,5,10,2:0:0:0:
14,182,71067,37,0,3:2:0:0:
9,186,71120,6,0,L|3:239,1,54,10|0,2:0|3:2,2:0:0:0:
0,253,71225,38,0,P|70:240|142:235,1,144,6|0,1:2|2:0,2:0:0:0:
149,241,71437,2,0,P|196:243|244:252,1,102,2|0,1:2|2:0,2:0:0:0:
426,357,71648,5,10,2:0:0:0:
347,384,71754,2,0,P|316:348|316:300,1,102,2|0,2:0|2:0,2:0:0:0:
501,327,71965,2,0,P|498:279|466:246,1,102,2|0,1:2|2:0,2:0:0:0:
340,161,72176,37,2,2:0:0:0:
416,180,72282,1,2,1:2:0:0:
335,145,72387,1,2,1:2:0:0:
466,246,72493,6,0,P|455:151|433:58,1,204,10|0,2:0|2:0,2:0:0:0:
362,3,72810,1,2,1:2:0:0:
297,64,72916,37,2,1:2:0:0:
280,68,73021,1,2,2:0:0:0:
190,25,73127,5,2,1:2:0:0:
156,17,73232,1,2,1:2:0:0:
123,36,73338,37,10,2:0:0:0:
223,6,73444,1,2,2:0:0:0:
154,117,73549,5,2,1:2:0:0:
54,87,73655,1,2,1:2:0:0:
0,175,73761,37,2,1:2:0:0:
34,167,73866,1,2,2:0:0:0:
63,185,73972,2,0,P|69:207|73:231,2,51,2|0|0,1:2|3:2|2:0,2:0:0:0:
163,239,74183,6,0,P|95:250|76:316,1,153,10|0,2:0|2:0,2:0:0:0:
81,331,74394,2,0,P|104:325|128:323,2,51,2|0|0,1:2|3:2|2:0,2:0:0:0:
14,377,74606,38,0,P|106:353|202:344,1,204,2|0,1:2|2:0,2:0:0:0:
337,298,74923,1,2,1:2:0:0:
288,367,75028,2,0,P|231:330|247:264,1,153,10|0,2:0|2:0,2:0:0:0:
263,256,75240,2,0,P|289:218|278:172,1,102,2|0,1:2|2:0,2:0:0:0:
461,15,75451,6,0,P|413:20|368:34,1,102,2|0,1:2|2:0,2:0:0:0:
317,103,75662,1,2,1:2:0:0:
317,103,75768,1,0,1:2:0:0:
369,168,75873,2,0,P|440:175|509:196,1,153,10|0,2:0|2:0,2:0:0:0:
511,208,76085,2,0,P|488:199|465:195,2,51,2|0|0,1:2|3:2|2:0,2:0:0:0:
455,334,76296,38,0,P|370:342|288:367,1,171,10|0,2:0|2:0,2:0:0:0:
279,374,76507,2,0,P|250:344|246:303,1,84,2|2,1:2|1:2,2:0:0:0:
196,208,76718,6,0,P|212:285|140:320,1,171,10|0,2:0|2:0,2:0:0:0:
128,316,76930,2,0,P|87:303|46:299,1,84,2|2,1:2|1:2,2:0:0:0:
21,384,77141,37,10,2:0:0:0:
40,291,77247,1,10,2:0:0:0:
59,198,77352,1,10,2:0:0:0:
78,105,77458,1,10,2:0:0:0:
55,204,77563,6,0,L|0:216,6,57,10|0|0|0|0|0|0,3:2|3:0|3:0|3:0|3:0|3:0|3:0,2:0:0:0:
139,166,77986,5,0,1:2:0:0:
512,33,78197,6,0,P|476:36|440:43,1,72,2|0,3:2|3:2,2:0:0:0:
401,116,78409,37,2,3:2:0:0:
401,116,78514,2,0,P|371:137|343:161,1,72,2|0,2:0|3:2,2:0:0:0:
369,0,78725,6,0,P|339:21|312:44,1,72,2|0,3:2|3:2,2:0:0:0:
228,43,78937,38,0,P|212:76|200:110,1,72,2|0,3:2|1:2,2:0:0:0:
346,244,79148,5,2,2:0:0:0:
346,244,79254,2,0,P|330:278|318:312,1,72,10|0,2:0|2:0,2:0:0:0:
453,270,79465,38,0,P|441:256|430:241,1,36,10|8,2:0|2:0,2:0:0:0:
461,263,79570,2,0,P|449:250|439:235,2,36,8|8|0,2:0|2:0|1:2,2:0:0:0:
57,384,79887,6,0,P|63:348|66:312,1,72,2|0,3:2|3:2,2:0:0:0:
9,248,80099,37,2,3:2:0:0:
9,248,80204,2,0,P|2:212|0:176,1,72,2|0,2:0|3:2,2:0:0:0:
149,294,80416,6,0,P|172:266|193:237,1,72,2|0,3:2|3:2,2:0:0:0:
273,262,80627,38,0,P|307:250|339:234,1,72,2|0,3:2|1:2,2:0:0:0:
57,112,80838,5,2,2:0:0:0:
57,112,80944,2,0,P|63:76|66:40,1,72,10|0,2:0|2:0,2:0:0:0:
139,172,81155,38,0,P|135:153|133:135,1,36,10|8,2:0|2:0,2:0:0:0:
149,169,81261,2,0,P|145:151|143:133,2,36,8|8|0,2:0|2:0|1:2,2:0:0:0:
400,0,81578,6,0,P|394:35|391:71,1,72,2|0,3:2|3:2,2:0:0:0:
293,70,81789,37,2,3:2:0:0:
293,70,81894,2,0,P|308:102|321:136,1,72,2|0,2:0|3:2,2:0:0:0:
486,94,82106,6,0,P|462:122|442:151,1,72,2|0,3:2|3:2,2:0:0:0:
512,219,82317,38,0,P|477:231|445:247,1,72,2|0,3:2|1:2,2:0:0:0:
237,185,82528,5,2,2:0:0:0:
237,185,82634,2,0,P|267:205|295:228,1,72,10|0,2:0|2:0,2:0:0:0:
362,277,82845,38,0,P|358:296|356:314,1,36,10|8,2:0|2:0,2:0:0:0:
372,280,82951,2,0,P|368:298|366:316,1,36,8|8,2:0|2:0,2:0:0:0:
359,326,83056,5,0,1:2:0:0:
359,326,84747,37,0,1:2:0:0:
0,92,84958,6,0,P|35:95|62:118,1,72,2|0,3:2|3:2,2:0:0:0:
105,41,85169,37,2,3:2:0:0:
105,41,85275,2,0,P|125:12|158:0,1,72,2|0,2:0|3:2,2:0:0:0:
146,114,85486,6,0,P|160:145|154:180,1,72,2|0,3:2|3:2,2:0:0:0:
199,251,85697,38,0,P|178:279|145:291,1,72,2|0,3:2|1:2,2:0:0:0:
214,63,85909,5,2,2:0:0:0:
214,63,86014,2,0,P|249:66|275:89,1,72,10|0,2:0|2:0,2:0:0:0:
297,206,86225,38,0,P|288:192|282:175,1,36,10|8,2:0|2:0,2:0:0:0:
287,214,86331,2,0,P|272:201|263:186,2,36,8|8|0,2:0|2:0|1:2,2:0:0:0:
512,311,86648,6,0,P|483:331|448:332,1,72,2|0,3:2|3:2,2:0:0:0:
383,384,86859,37,2,3:2:0:0:
383,384,86965,2,0,P|351:368|332:339,1,72,2|0,2:0|3:2,2:0:0:0:
456,249,87176,6,0,P|424:233|405:204,1,72,2|0,3:2|3:2,2:0:0:0:
481,169,87387,38,0,P|478:133|494:103,1,72,2|0,3:2|1:2,2:0:0:0:
255,308,87599,5,2,2:0:0:0:
255,308,87704,2,0,P|252:272|268:242,1,72,10|0,2:0|2:0,2:0:0:0:
310,167,87916,38,0,P|319:153|325:136,1,36,10|8,2:0|2:0,2:0:0:0:
320,175,88021,2,0,P|335:162|344:147,2,36,8|8|0,2:0|2:0|1:2,2:0:0:0:
79,384,88338,6,0,P|102:356|105:322,1,72,2|0,3:2|3:2,2:0:0:0:
152,252,88549,37,2,3:2:0:0:
152,252,88655,2,0,P|129:224|126:190,1,72,2|0,2:0|3:2,2:0:0:0:
79,120,88866,6,0,P|102:92|105:58,1,72,2|0,3:2|3:2,2:0:0:0:
0,89,89078,2,0,P|2:54|25:27,1,72,2|0,3:2|1:2,2:0:0:0:
230,222,89289,37,2,2:0:0:0:
230,222,89394,2,0,P|226:186|204:159,1,72,10|0,2:0|2:0,2:0:0:0:
26,307,89606,6,0,P|18:321|13:339,1,36,10|8,2:0|2:0,2:0:0:0:
15,302,89711,2,0,P|7:316|2:334,1,36,8|8,2:0|2:0,2:0:0:0:
3,351,89817,37,0,1:2:0:0:
3,351,90662,6,0,L|45:345,1,42,2|0,2:0|2:0,2:0:0:0:
55,351,90873,38,0,L|96:340,1,42,2|0,2:0|2:0,2:0:0:0:
106,344,91085,6,0,L|146:328,6,42,8|8|8|8|8|8|8,2:0|2:0|2:0|2:0|2:0|2:0|2:0,2:0:0:0:
291,347,91507,38,0,P|199:344|183:254,1,198,4|2,1:2|2:0,2:0:0:0:
247,207,92089,1,2,2:0:0:0:
229,130,92235,1,2,2:0:0:0:
304,152,92380,2,0,P|336:157|367:168,1,66,2|0,2:0|2:0,2:0:0:0:
418,235,92672,1,2,2:0:0:0:
418,235,92817,1,2,2:0:0:0:
482,194,92963,2,0,P|500:167|498:135,1,66,2|0,2:0|2:0,2:0:0:0:
456,69,93254,1,2,2:0:0:0:
383,95,93400,1,2,2:0:0:0:
311,63,93545,2,0,P|321:31|327:0,1,66,2|0,2:0|2:0,2:0:0:0:
511,352,93837,6,0,P|457:317|392:323,1,132,2|0,1:2|2:0,2:0:0:0:
275,339,94273,1,2,2:0:0:0:
323,284,94419,2,0,P|295:301|282:331,1,66,2|0,2:0|2:0,2:0:0:0:
208,384,94710,37,2,1:2:0:0:
62,344,94856,1,2,2:0:0:0:
27,242,95002,1,10,3:2:0:0:
61,169,95147,1,2,2:0:0:0:
70,176,95293,2,0,P|102:180|133:191,1,66,10|10,3:2|3:2,2:0:0:0:
194,142,95584,2,0,P|214:157|232:178,1,54.0000000000001,0|0,3:2|3:2,2:0:0:0:
191,246,95875,1,0,3:2:0:0:
182,254,95948,1,0,3:2:0:0:
180,266,96021,2,0,P|184:278|187:291,1,27,0|0,3:2|3:2,2:0:0:0:
399,30,96167,6,0,P|327:23|258:2,1,144,4|0,1:2|2:0,2:0:0:0:
183,27,96604,1,2,2:0:0:0:
273,11,96749,1,2,2:0:0:0:
168,18,96895,1,2,2:0:0:0:
121,112,97040,1,2,3:2:0:0:
110,118,97113,1,0,3:2:0:0:
97,119,97186,1,2,3:2:0:0:
84,115,97259,1,0,3:2:0:0:
72,105,97332,38,0,P|66:70|55:36,1,72,2|2,3:2|3:2,2:0:0:0:
191,152,97623,2,0,P|185:169|182:186,1,36,2|0,3:2|3:2,2:0:0:0:
193,190,97769,2,0,P|196:172|201:155,1,36,2|0,3:2|3:2,2:0:0:0:
281,149,97914,2,0,P|269:183|263:218,1,72,2|2,3:2|2:0,2:0:0:0:
357,310,98206,1,2,3:2:0:0:
344,309,98278,1,0,3:2:0:0:
333,303,98351,2,0,P|327:285|324:267,1,36,2|0,3:2|3:2,2:0:0:0:
512,0,98497,5,2,1:2:0:0:
402,110,98642,1,0,1:2:0:0:
425,240,98788,1,0,1:2:0:0:
500,283,98934,1,0,1:2:0:0:
440,234,99079,1,0,1:2:0:0:
485,289,99225,1,0,1:2:0:0:
459,354,99371,2,0,P|441:363|422:368,1,39,0|0,1:2|3:2,2:0:0:0:
415,376,99516,2,0,P|396:370|380:359,1,39,0|0,1:2|3:2,2:0:0:0:
324,268,99662,37,0,1:2:0:0:
200,194,99807,1,0,1:2:0:0:
107,207,99953,1,0,1:2:0:0:
60,268,100099,1,0,1:2:0:0:
68,276,100244,2,0,L|72:314,3,39,0|0|0|0,1:2|2:0|1:2|2:0,2:0:0:0:
151,301,100536,2,0,L|148:274,4,25.9999988098145,2|0|0|2|0,3:2|3:2|3:2|3:2|3:2,3:2:0:0:
14,51,100827,6,0,P|48:122|127:121,1,168,6|0,1:2|3:2,2:0:0:0:
193,74,101264,1,2,2:0:0:0:
222,1,101409,2,0,P|189:26|184:67,1,84,2|2,2:0|2:0,2:0:0:0:
272,155,101701,2,0,P|287:137|293:114,1,42,2|0,3:2|3:2,2:0:0:0:
306,122,101846,2,0,P|299:141|285:157,1,42,2|0,3:2|3:2,2:0:0:0:
194,174,101992,38,0,P|258:184|282:249,1,126,10|0,2:0|2:0,2:0:0:0:
342,285,102283,2,0,P|329:306|328:336,1,42,2|0,3:2|3:2,2:0:0:0:
302,334,102429,2,0,P|313:355|339:371,1,42,2|0,3:2|3:2,2:0:0:0:
417,375,102574,2,0,P|436:331|418:294,1,84,2|2,3:2|3:2,2:0:0:0:
401,179,102866,5,2,3:2:0:0:
406,166,102939,1,0,2:0:0:0:
420,156,103011,1,2,3:2:0:0:
437,153,103084,1,0,2:0:0:0:
455,157,103157,38,0,P|383:149|354:38,1,180,2|0,1:2|3:2,2:0:0:0:
282,143,103594,1,2,2:0:0:0:
217,213,103740,2,0,P|262:202|282:159,1,89.9999999999999,2|2,2:0|2:0,2:0:0:0:
218,18,104031,5,2,1:2:0:0:
204,22,104104,1,0,3:2:0:0:
192,33,104176,2,0,P|205:52|228:63,1,45,2|0,3:2|3:2,2:0:0:0:
410,9,104322,38,0,P|367:19|346:57,1,89.9999999999999,10|2,2:0|3:2,2:0:0:0:
430,245,104613,2,0,P|449:225|454:197,1,45,2|0,3:2|3:2,2:0:0:0:
474,195,104759,2,0,P|466:168|444:150,1,45,2|0,3:2|3:2,2:0:0:0:
314,250,104905,5,2,3:2:0:0:
341,322,105050,1,2,3:2:0:0:
416,344,105196,1,2,3:2:0:0:
431,341,105269,1,0,3:2:0:0:
442,331,105341,1,2,3:2:0:0:
319,319,105487,38,0,P|244:328|191:385,1,156,2|0,1:2|3:2,2:0:0:0:
98,239,105924,1,2,2:0:0:0:
98,239,106070,2,0,P|138:263|151:295,1,78,2|2,2:0|2:0,2:0:0:0:
240,192,106361,6,0,P|248:162|263:147,1,39,2|0,3:2|3:2,2:0:0:0:
248,131,106507,2,0,P|277:122|298:128,1,39,2|0,3:2|3:2,2:0:0:0:
396,235,106652,37,10,2:0:0:0:
328,206,106798,1,2,3:2:0:0:
441,72,106943,6,0,P|433:102|418:117,1,39,2|0,3:2|3:2,2:0:0:0:
433,133,107089,2,0,P|403:141|382:135,1,39,2|0,3:2|3:2,2:0:0:0:
317,23,107235,38,0,P|341:34|357:56,1,54.0000000000001,2|2,3:2|3:2,2:0:0:0:
166,145,107526,5,2,3:2:0:0:
153,141,107599,1,0,3:2:0:0:
140,137,107672,1,2,3:2:0:0:
128,131,107744,1,0,3:2:0:0:
112,107,107817,37,2,1:2:0:0:
380,141,108982,6,0,B|346:50|415:-2|474:8|504:45|492:97|450:102,1,270,2|0,2:0|2:0,2:0:0:0:
400,261,109565,37,8,2:0:0:0:
363,231,109638,1,8,2:0:0:0:
316,230,109710,1,8,2:0:0:0:
277,258,109783,1,8,2:0:0:0:
256,279,109856,5,8,2:0:0:0:
228,287,109929,1,8,2:0:0:0:
200,279,110002,1,8,2:0:0:0:
185,255,110074,1,8,2:0:0:0:
196,235,110147,6,0,L|175:345,1,108,6|2,1:2|3:2,2:0:0:0:
39,132,110730,2,0,P|78:135|113:95,1,81.0000000000001,2|0,2:0|2:0,2:0:0:0:
117,85,111021,2,0,P|116:62|104:37,3,27,2|0|0|0,3:2|3:2|3:2|3:2,2:0:0:0:
192,77,111312,2,0,P|190:50|177:22,1,54.0000000000001,10|0,2:0|3:2,2:0:0:0:
254,167,111604,5,2,3:2:0:0:
264,152,111676,1,0,3:2:0:0:
281,142,111749,1,0,3:2:0:0:
302,140,111822,1,0,3:2:0:0:
319,144,111895,2,0,P|358:147|393:107,1,81.0000000000001,2|0,3:2|2:0,2:0:0:0:
374,92,112186,2,0,P|377:73|387:56,3,27,2|0|0|0,3:2|3:2|3:2|3:2,2:0:0:0:
466,96,112477,38,0,L|481:221,1,108,2|2,1:2|3:2,2:0:0:0:
419,384,113060,2,0,P|380:374|359:340,1,81.0000000000001,2|0,2:0|2:0,2:0:0:0:
355,321,113351,2,0,P|334:307|319:305,3,27,2|0|0|0,1:2|3:2|3:2|3:2,2:0:0:0:
404,267,113642,2,0,P|377:243|356:238,1,54.0000000000001,10|0,2:0|3:2,2:0:0:0:
277,94,113934,6,0,P|256:108|241:110,3,27,2|0|0|0,3:2|3:2|3:2|3:2,2:0:0:0:
326,148,114225,2,0,P|299:171|278:176,1,54.0000000000001,2|0,3:2|3:2,2:0:0:0:
196,235,114516,37,2,3:2:0:0:
187,226,114589,1,0,3:2:0:0:
170,217,114662,1,2,3:2:0:0:
157,213,114735,1,0,3:2:0:0:
141,219,114807,6,0,P|168:168|143:117,1,108,2|2,1:2|3:2,2:0:0:0:
45,200,115390,2,0,P|35:157|51:125,1,81.0000000000001,2|0,2:0|2:0,2:0:0:0:
54,89,115681,2,0,P|50:68|40:59,3,27,2|0|0|0,3:2|3:2|3:2|3:2,2:0:0:0:
98,7,115973,2,0,P|117:29|125:67,1,54.0000000000001,10|0,2:0|3:2,2:0:0:0:
150,124,116264,37,2,3:2:0:0:
161,133,116337,1,0,3:2:0:0:
176,138,116409,1,0,3:2:0:0:
194,138,116482,1,0,3:2:0:0:
210,133,116555,2,0,P|253:140|286:179,1,81.0000000000001,2|0,3:2|2:0,2:0:0:0:
289,189,116846,2,0,P|305:200|319:202,3,27,2|0|0|0,3:2|3:2|3:2|3:2,2:0:0:0:
377,157,117138,6,0,L|392:32,2,108,2|2|2,1:2|3:2|2:0,2:0:0:0:
492,317,118011,2,0,L|485:357,3,27,2|0|0|0,1:2|3:2|3:2|3:2,2:0:0:0:
413,326,118303,38,0,L|417:305,12,17.9999994506836,10|0|0|0|0|0|0|0|0|0|0|0|0,2:0|3:0|3:0|3:2|3:0|3:0|3:2|3:0|3:0|3:2|3:0|3:0|3:2,3:0:0:0:
315,333,119176,6,0,P|247:331|222:269,1,135,2|0,1:2|2:0,2:0:0:0:
230,267,119468,38,0,P|257:219|242:169,1,108,6|2,1:2|3:2,2:0:0:0:
127,243,120050,2,0,P|116:203|137:167,1,81.0000000000001,2|0,2:0|2:0,2:0:0:0:
135,154,120341,2,0,P|121:161|99:164,3,27,2|0|0|0,3:2|3:2|3:2|3:2,2:0:0:0:
76,92,120633,2,0,P|106:77|132:77,1,54.0000000000001,10|0,2:0|3:2,2:0:0:0:
263,46,120924,6,0,P|249:39|227:36,3,27,2|0|0|0,3:2|3:2|3:2|3:2,2:0:0:0:
204,108,121215,2,0,P|234:123|260:123,1,54.0000000000001,2|0,3:2|3:2,2:0:0:0:
347,77,121506,37,2,3:2:0:0:
359,66,121579,1,0,3:2:0:0:
373,60,121652,1,0,3:2:0:0:
391,56,121725,1,0,3:2:0:0:
408,57,121798,6,0,P|439:99|426:161,1,108,2|2,1:2|3:2,2:0:0:0:
354,304,122380,2,0,P|383:271|425:267,1,81.0000000000001,2|0,2:0|2:0,2:0:0:0:
429,273,122672,2,0,P|421:251|419:232,3,27,2|0|0|0,1:2|3:2|3:2|3:2,2:0:0:0:
504,258,122963,2,0,P|492:228|488:195,1,54.0000000000001,10|0,2:0|3:2,2:0:0:0:
351,199,123254,38,0,P|359:177|361:158,3,27,2|0|0|0,3:2|3:2|3:2|3:2,2:0:0:0:
276,184,123545,2,0,P|287:154|291:121,1,54.0000000000001,2|0,3:2|3:2,2:0:0:0:
236,261,123837,6,0,P|216:273|192:275,1,27,2|0,3:2|3:2,2:0:0:0:
221,285,123982,2,0,P|197:285|175:275,1,27,2|0,3:2|3:2,2:0:0:0:
122,250,124128,38,0,P|164:281|162:348,1,108,2|2,1:2|3:2,2:0:0:0:
76,367,124710,2,0,P|42:337|47:296,1,81.0000000000001,2|0,2:0|2:0,2:0:0:0:
24,291,125002,2,0,P|27:269|21:249,3,27,2|0|0|0,3:2|3:2|3:2|3:2,2:0:0:0:
54,191,125293,2,0,P|33:164|30:127,1,54.0000000000001,10|0,2:0|3:2,2:0:0:0:
95,113,125584,2,0,P|98:95|97:77,3,27,2|0|0|0,3:2|3:2|3:2|3:2,2:0:0:0:
0,143,125875,2,0,P|18:111|15:76,1,54.0000000000001,2|0,3:2|3:2,2:0:0:0:
49,27,126167,2,0,P|41:10|37:-7,3,27,2|0|0|0,3:2|3:2|3:2|3:2,2:0:0:0:
259,125,126458,6,0,B|213:156|156:122|151:62|200:-5|273:21|289:81|284:86|279:91|291:128|329:142|367:138|399:103,1,360,2|0,1:2|2:0,2:0:0:0:
259,125,127623,38,0,B|256:127|253:128|253:128|254:132|254:132|251:130|251:130|248:131|246:131|246:131|243:128|243:128|243:132|243:132|241:133|238:133|238:133|237:137|237:137|235:134|235:134|233:134|230:134|230:134|229:130|229:130|227:134|227:134|225:134|222:133|222:133|220:137|220:137|219:132|219:132|217:132|215:131|215:131|215:127|215:127|212:130|212:130|209:129|207:127|207:127|204:130|204:130|205:126|205:126|203:124|201:123|201:123|203:119|203:119|199:120|199:120|197:118|196:117|196:117|192:117|192:117|194:114|194:114|193:112|192:110|192:110|195:107|195:107|191:107|191:107|190:104|189:102|189:102|185:101|185:101|189:99|189:99|188:97|188:94|188:94|192:93|192:93|188:91|188:91|188:89|189:86|189:86|185:84|185:84|189:83|189:83|190:81|191:78|191:78|195:79|195:79|192:76|192:76|193:73|194:71|194:71|192:68|192:68|196:69|196:69|198:67|199:65|199:65|203:67|203:67|201:63|201:63|203:61|205:60|205:60|204:56|204:56|208:58|208:58|210:57|212:56|212:56|215:59|215:59|215:54|215:54|217:54|220:53|220:53|220:49|220:49|223:52|223:52|225:52|228:52|228:52|229:56|229:56|231:52|231:52|233:52|236:52|236:52|238:48|238:48|239:52|239:52|241:53|243:54|243:54|244:58|244:58|246:54|246:54|249:55|251:56|251:56|254:53|254:53|254:58|254:58|256:59|258:60|258:60|257:64|257:64|260:62|260:62|263:63|264:65|264:65|268:63|268:63|267:67|267:67|269:69|270:70|270:70|268:74|268:74|272:73|272:73|274:74|276:76|276:76|280:75|280:75|277:79|277:79|279:81|280:83|280:83|278:86|278:86|282:85|282:85|284:87|285:89|285:89|289:88|289:88|287:92|287:92|288:94|289:96|289:96|287:99|287:99|291:98|291:98|293:100|294:102|294:102|298:101|298:101|296:105|296:105|298:107|299:108|299:108|298:112|298:112|302:110|302:110|303:112|305:114|305:114|309:112|309:112|308:116|308:116|310:117|312:118|312:118|311:123|311:123|314:120|314:120|317:121|319:122|319:122|322:119|322:119|321:124|321:124|324:125|326:125|326:125|327:130|327:130|329:126|329:126|332:127|334:127|334:127|336:124|336:124|337:128|337:128|339:128|342:128|342:128|343:132|343:132|345:128|345:128|347:128|350:128|350:128|351:124|351:124|353:128|353:128|355:128|358:127|358:127|360:131|360:131|361:126|361:126|363:126|366:125|366:125|366:121|366:121|368:124|368:124|371:123|373:122|373:122|376:125|376:125|376:121|376:121|378:120|380:118|380:118|379:114|379:114|383:117|383:117|385:115|387:114|387:114|390:116|390:116|389:112|389:112|392:110|394:107,1,601.556955869616,2|0,1:2|2:0,2:0:0:0:
254,355,128788,22,0,P|258:317|236:285,1,78,2|0,1:2|2:0,2:0:0:0:
136,305,128999,2,0,P|132:344|154:376,1,78,2|0,3:2|3:2,2:0:0:0:
246,374,129210,1,2,3:2:0:0:
421,226,129421,6,0,P|443:194|439:155,1,78,2|0,1:2|2:0,2:0:0:0:
346,127,129633,2,0,P|325:158|328:196,1,78,2|0,3:2|3:2,2:0:0:0:
422,242,129844,1,2,3:2:0:0:
366,42,130055,37,10,2:0:0:0:
324,32,130161,1,2,2:0:0:0:
284,56,130266,1,2,2:0:0:0:
288,74,130478,6,0,P|255:99|216:94,1,78,2|0,1:2|2:0,2:0:0:0:
102,12,130689,2,0,P|140:10|170:35,1,78,2|0,3:2|3:2,2:0:0:0:
196,112,130900,1,2,3:2:0:0:
17,144,131111,38,0,P|50:119|89:124,1,78,2|0,1:2|2:0,2:0:0:0:
200,202,131323,2,0,P|162:204|133:180,1,78,2|0,3:2|3:2,2:0:0:0:
99,107,131534,6,0,P|84:73|103:29,1,78,2|0,3:2|3:2,2:0:0:0:
165,1,131745,1,10,2:0:0:0:
30,367,132168,38,0,P|52:290|134:283,1,168,2|0,1:2|2:0,2:0:0:0:
258,361,132485,1,0,3:2:0:0:
258,361,132590,2,0,P|217:363|186:335,1,84,10|0,2:0|2:0,2:0:0:0:
292,259,132802,2,0,B|337:227|371:269|368:275|365:280|392:326|450:292,1,168,0|2,3:2|1:2,2:0:0:0:
190,177,133224,6,0,P|166:192|193:181,1,84,2|0,2:0|3:2,2:0:0:0:
241,109,133435,2,0,P|264:72|246:28,1,84,10|0,2:0|2:0,2:0:0:0:
164,25,133647,2,0,P|141:62|159:106,1,84,2|0,3:2|2:0,2:0:0:0:
437,27,133858,38,0,P|342:6|238:135,1,252,2|0,1:2|3:2,2:0:0:0:
277,193,134280,2,0,P|307:224|343:230,1,72,8|0,2:0|2:0,2:0:0:0:
112,360,134703,6,0,P|140:326|141:290,1,72,0|0,1:2|2:0,2:0:0:0:
193,220,134914,2,0,P|181:175|142:154,1,84,8|0,2:0|2:0,2:0:0:0:
5,0,135126,1,8,2:0:0:0:
0,52,135231,1,8,2:0:0:0:
29,95,135337,1,8,2:0:0:0:
78,109,135442,1,8,2:0:0:0:
124,88,135548,38,0,P|117:48|108:10,1,66,2|0,1:2|2:0,2:0:0:0:
190,0,135759,2,0,P|197:40|206:78,1,66,2|0,3:2|3:2,2:0:0:0:
111,2,135971,1,2,3:2:0:0:
362,201,136182,6,0,P|369:161|378:123,1,66,2|0,1:2|2:0,2:0:0:0:
296,113,136393,2,0,P|289:153|280:191,1,66,2|0,3:2|3:2,2:0:0:0:
375,115,136604,1,2,3:2:0:0:
279,281,136816,37,10,2:0:0:0:
236,311,136921,1,2,2:0:0:0:
185,299,137027,1,2,2:0:0:0:
174,281,137238,6,0,P|143:261|101:263,1,72,2|0,1:2|2:0,2:0:0:0:
0,351,137449,2,0,P|39:351|65:330,1,72,2|0,3:2|3:2,2:0:0:0:
38,259,137661,1,2,3:2:0:0:
218,198,137872,38,0,P|249:178|291:180,1,72,2|0,1:2|2:0,2:0:0:0:
392,268,138083,2,0,P|353:268|326:247,1,72,2|0,3:2|3:2,2:0:0:0:
368,63,138295,6,0,L|377:152,1,71.9999999999999,2|10,3:2|2:0,2:0:0:0:
420,192,138717,1,2,2:0:0:0:
33,147,138928,38,0,B|16:171|-21:164|-21:164|25:201|80:153|45:163|89:104|161:149,1,234,2|0,1:2|2:0,2:0:0:0:
220,268,139351,6,0,P|223:229|202:197,1,78,10|0,2:0|2:0,2:0:0:0:
139,287,139562,2,0,P|117:255|121:217,1,78,2|0,1:2|2:0,2:0:0:0:
317,78,139773,38,0,P|296:110|300:148,1,78,2|0,1:2|2:0,2:0:0:0:
400,98,139985,2,0,P|404:137|383:168,1,78,2|0,2:0|2:0,2:0:0:0:
343,254,140196,6,0,P|326:271|340:249,1,78,10|0,2:0|2:0,2:0:0:0:
419,244,140407,1,2,1:2:0:0:
351,363,140618,38,0,P|311:300|236:303,1,156,2|8,1:2|2:0,2:0:0:0:
194,364,140935,1,8,2:0:0:0:
199,373,141041,1,0,1:2:0:0:
278,208,141252,6,0,P|298:164|278:127,1,78,8|0,2:0|2:0,2:0:0:0:
219,102,141464,1,2,1:2:0:0:
30,148,141675,37,8,2:0:0:0:
58,192,141780,1,8,2:0:0:0:
112,188,141886,1,0,1:2:0:0:
172,30,142097,6,0,P|141:57|133:98,1,78,8|0,2:0|2:0,2:0:0:0:
279,307,142309,38,0,B|320:222|320:222|197:261|197:261|165:305|165:305|60:338,1,384,2|2,1:2|2:0,2:0:0:0:
291,31,146745,6,0,P|259:43|238:85,1,72,2|2,2:0|2:0,2:0:0:0:
181,129,146957,2,0,P|192:148|196:169,10,34.0000006484985,0|0|0|0|0|0|0|0|0|0|0,3:2|3:0|3:0|3:2|3:0|3:0|3:2|3:0|3:0|3:2|3:0,3:0:0:0:
96,93,147379,6,0,B|91:0|3:-19|-45:12|-55:65|-21:109|23:93,1,264.000008056641,6|2,1:2|2:0,2:0:0:0:
55,247,147696,1,2,2:0:0:0:
58,174,147802,2,0,P|112:118|182:130,1,153,10|0,2:0|2:0,2:0:0:0:
195,159,148013,2,0,P|232:189|288:184,1,102,2|0,1:2|2:0,2:0:0:0:
440,54,148224,6,0,P|395:71|371:122,1,102,2|0,2:0|2:0,2:0:0:0:
371,201,148435,1,2,1:2:0:0:
371,201,148541,1,0,1:2:0:0:
446,216,148647,2,0,B|402:193|368:227|379:238|360:275|312:267,1,153,10|0,2:0|2:0,2:0:0:0:
306,282,148858,2,0,P|335:286|364:270,2,51,2|0|0,3:2|3:2|3:2,2:0:0:0:
302,381,149069,38,0,P|292:300|183:296,1,204,2|2,1:2|2:0,2:0:0:0:
21,176,149386,1,2,2:0:0:0:
0,248,149492,2,0,P|71:257|108:160,1,153,10|0,2:0|2:0,2:0:0:0:
114,177,149703,2,0,P|141:132|191:129,1,102,2|0,1:2|2:0,2:0:0:0:
304,117,149914,5,2,2:0:0:0:
310,128,150020,1,0,2:0:0:0:
336,49,150126,37,2,1:2:0:0:
261,186,150231,1,0,1:2:0:0:
334,35,150337,6,0,P|402:42|433:116,1,153,10|0,2:0|2:0,2:0:0:0:
449,130,150548,2,0,P|452:86|443:68,2,51,2|0|0,3:2|3:2|3:2,2:0:0:0:
512,180,150759,38,0,P|437:168|384:236,1,171,2|0,1:2|2:0,2:0:0:0:
399,251,150971,2,0,P|384:219|356:206,1,60,2|0,2:0|2:0,2:0:0:0:
188,335,151182,6,0,P|262:346|315:278,1,171,10|0,2:0|2:0,2:0:0:0:
301,264,151393,2,0,P|316:296|344:309,1,60,2|0,1:2|2:0,2:0:0:0:
208,230,151604,38,0,B|166:200|126:245|132:252|138:258|108:309|54:279,1,171,2|0,2:0|2:0,2:0:0:0:
52,270,151816,1,2,1:2:0:0:
2,205,151921,1,0,1:2:0:0:
118,123,152027,6,0,P|109:61|23:39,1,153,10|0,2:0|2:0,2:0:0:0:
26,11,152238,2,0,P|54:11|91:29,2,51,2|0|0,3:2|3:2|3:2,2:0:0:0:
89,202,152449,38,0,P|133:139|202:145,1,153,2|0,1:2|2:0,2:0:0:0:
276,116,152661,2,0,P|298:106|272:114,1,102,2|2,2:0|2:0,2:0:0:0:
391,289,152872,6,0,P|398:233|361:204,1,102,10|0,2:0|2:0,2:0:0:0:
283,320,153083,2,0,P|248:284|258:236,1,102,2|0,1:2|2:0,2:0:0:0:
428,89,153295,37,2,1:2:0:0:
445,99,153400,1,0,1:2:0:0:
506,51,153506,5,0,1:2:0:0:
362,129,153611,1,0,1:2:0:0:
512,64,153717,38,0,P|523:37|513:12,2,54,8|0|8,3:2|3:2|2:0,2:0:0:0:
460,246,153928,5,8,2:0:0:0:
457,253,153981,37,0,3:2:0:0:
455,259,154034,6,0,L|470:320,1,54,8|0,2:0|3:2,2:0:0:0:
478,350,154140,38,0,L|515:132,1,204,2|2,1:2|2:0,2:0:0:0:
367,43,154457,1,2,2:0:0:0:
428,89,154562,2,0,P|380:144|308:123,1,153,10|0,2:0|2:0,2:0:0:0:
297,105,154773,2,0,P|256:67|212:73,1,102,2|0,1:2|2:0,2:0:0:0:
41,220,154985,6,0,P|94:203|111:162,1,102,2|0,2:0|2:0,2:0:0:0:
79,86,155196,1,2,1:2:0:0:
79,86,155302,1,0,1:2:0:0:
134,288,155407,2,0,P|91:231|120:140,1,153,10|0,2:0|2:0,2:0:0:0:
120,151,155618,2,0,P|109:177|105:214,2,51,2|0|0,3:2|3:2|3:2,2:0:0:0:
112,382,155830,38,0,P|155:295|255:305,1,204,2|2,1:2|2:0,2:0:0:0:
426,240,156147,1,2,2:0:0:0:
452,311,156252,2,0,P|390:321|344:246,1,153,10|0,2:0|2:0,2:0:0:0:
333,231,156464,2,0,P|331:181|277:157,1,102,2|0,1:2|2:0,2:0:0:0:
180,100,156675,5,2,2:0:0:0:
187,87,156780,1,0,2:0:0:0:
146,21,156886,37,2,1:2:0:0:
200,171,156992,1,0,1:2:0:0:
137,5,157097,6,0,P|212:16|296:38,1,153,10|0,2:0|2:0,2:0:0:0:
309,26,157309,2,0,P|279:12|255:9,2,51,2|0|0,3:2|3:2|3:2,2:0:0:0:
402,50,157520,38,0,P|332:51|311:143,1,171,2|0,1:2|2:0,2:0:0:0:
324,154,157731,2,0,P|356:152|383:121,1,60,2|0,2:0|2:0,2:0:0:0:
498,324,157942,6,0,P|428:323|407:231,1,171,10|0,2:0|2:0,2:0:0:0:
420,220,158154,2,0,P|452:222|479:253,1,60,2|0,1:2|2:0,2:0:0:0:
306,318,158365,37,2,2:0:0:0:
290,308,158471,1,0,2:0:0:0:
197,291,158576,5,2,1:2:0:0:
315,230,158682,1,0,1:2:0:0:
181,385,158788,38,0,P|166:316|88:298,1,153,10|0,2:0|2:0,2:0:0:0:
81,288,158999,2,0,P|119:278|141:284,2,51,2|0|0,3:2|3:2|3:2,2:0:0:0:
23,214,159210,6,0,P|8:193|9:159,1,60,10|0,2:0|2:0,2:0:0:0:
8,159,159527,1,0,1:2:0:0:
95,141,159633,38,0,P|110:162|109:196,1,60,8|0,2:0|2:0,2:0:0:0:
109,195,159949,1,0,1:2:0:0:
75,46,160055,6,0,P|102:107|213:100,1,180,8|0,2:0|2:0,2:0:0:0:
279,52,160478,37,10,2:0:0:0:
198,17,160583,1,10,2:0:0:0:
285,63,160689,1,10,2:0:0:0:
198,9,160795,1,10,2:0:0:0:
319,143,160900,6,0,P|359:116|366:64,1,96,6|2,1:2|2:0,2:0:0:0:
230,194,161111,37,2,1:2:0:0:
202,226,161217,1,2,1:2:0:0:
213,269,161323,1,10,2:0:0:0:
249,345,161428,6,0,P|209:368|162:344,1,96,2|2,2:0|1:2,2:0:0:0:
21,218,161640,1,2,1:2:0:0:
26,140,161745,2,0,P|97:162|114:251,1,144,2|0,1:2|2:0,2:0:0:0:
104,248,161957,1,2,1:2:0:0:
220,142,162062,1,2,1:2:0:0:
204,68,162168,2,0,P|133:90|116:179,1,153,10|0,2:0|2:0,2:0:0:0:
118,162,162379,2,0,P|126:125|141:107,2,51,2|0|0,1:2|2:0|2:0,2:0:0:0:
303,271,162590,38,0,B|339:248|381:267|387:304|383:308|378:312|385:347|430:362|467:342,1,204,2|0,1:2|2:0,2:0:0:0:
505,293,162907,1,0,1:2:0:0:
366,132,163013,5,10,2:0:0:0:
407,194,163118,2,0,P|446:173|459:73,1,153,2|0,2:0|2:0,2:0:0:0:
444,69,163330,1,2,1:2:0:0:
338,31,163435,38,0,P|299:52|286:152,1,153,2|0,1:2|2:0,2:0:0:0:
318,209,163647,1,2,1:2:0:0:
323,216,163699,2,0,P|316:240|295:256,1,51,0|0,3:2|1:2,2:0:0:0:
205,372,163858,6,0,P|194:303|107:291,1,153,10|0,2:0|2:0,2:0:0:0:
105,274,164069,2,0,P|146:263|171:273,2,51,2|0|0,1:2|3:2|2:0,2:0:0:0:
70,375,164280,38,0,L|93:181,1,204,2|0,1:2|2:0,2:0:0:0:
73,12,164597,1,2,1:2:0:0:
5,49,164703,2,0,P|40:96|127:81,1,153,10|0,2:0|2:0,2:0:0:0:
133,70,164914,2,0,P|182:39|227:53,1,102,2|0,1:2|2:0,2:0:0:0:
313,215,165126,6,0,P|277:173|281:122,1,102,2|0,1:2|2:0,2:0:0:0:
378,35,165337,1,2,1:2:0:0:
378,35,165442,1,0,1:2:0:0:
306,51,165548,38,0,B|351:34|378:72|371:79|391:111|442:93,1,153,10|0,2:0|2:0,2:0:0:0:
438,107,165759,2,0,P|411:112|384:100,2,51,2|0|0,1:2|3:2|2:0,2:0:0:0:
498,19,165971,6,0,P|470:110|454:223,1,204,2|0,1:2|2:0,2:0:0:0:
444,345,166288,1,2,1:2:0:0:
380,384,166393,2,0,P|321:349|328:281,1,153,10|0,2:0|2:0,2:0:0:0:
339,276,166604,2,0,P|376:248|377:201,1,102,2|0,1:2|2:0,2:0:0:0:
309,121,166816,37,2,1:2:0:0:
290,106,166921,1,0,1:2:0:0:
223,148,167027,5,0,1:2:0:0:
383,77,167133,1,0,1:2:0:0:
207,152,167238,38,0,P|223:174|247:184,2,51,8|0|0,2:0|3:2|2:0,2:0:0:0:
117,269,167449,5,10,2:0:0:0:
107,269,167502,37,0,3:2:0:0:
95,270,167555,6,0,P|76:281|58:305,1,51,10|0,2:0|3:2,2:0:0:0:
91,371,167661,38,0,B|112:313|56:264|49:302|-3:264|14:201,1,204,6|0,1:2|2:0,2:0:0:0:
30,191,167978,1,0,1:2:0:0:
187,3,168083,1,10,2:0:0:0:
118,33,168189,2,0,P|88:62|91:117,1,102,2|0,2:0|2:0,2:0:0:0:
207,152,168400,2,0,P|237:123|234:68,1,102,2|0,1:2|2:0,2:0:0:0:
209,324,168611,5,2,2:0:0:0:
249,262,168717,1,2,1:2:0:0:
323,263,168823,1,2,1:2:0:0:
342,280,168928,38,0,P|414:289|456:213,1,153,10|0,2:0|2:0,2:0:0:0:
459,212,169140,5,2,1:2:0:0:
400,55,169245,1,2,1:2:0:0:
441,122,169351,37,2,1:2:0:0:
397,152,169457,1,2,2:0:0:0:
344,144,169562,1,2,1:2:0:0:
315,104,169668,1,2,1:2:0:0:
281,36,169773,5,10,2:0:0:0:
291,21,169879,1,2,2:0:0:0:
171,91,169985,37,2,1:2:0:0:
181,106,170090,1,2,1:2:0:0:
137,172,170196,5,2,1:2:0:0:
204,17,170302,1,2,2:0:0:0:
133,185,170407,38,0,P|107:179|89:167,2,51,2|0|0,1:2|3:2|2:0,2:0:0:0:
142,282,170618,6,0,P|159:212|231:219,1,153,10|0,2:0|2:0,2:0:0:0:
302,196,170830,37,2,1:2:0:0:
312,196,170883,2,0,P|333:216|340:241,1,51,0|0,3:2|1:2,2:0:0:0:
88,136,171041,6,0,P|146:225|228:222,1,204,2|0,1:2|2:0,2:0:0:0:
380,85,171358,1,2,1:2:0:0:
312,49,171464,2,0,P|283:37|310:58,1,102,10|0,2:0|2:0,2:0:0:0:
490,208,171675,38,0,P|484:152|439:132,1,102,2|0,1:2|2:0,2:0:0:0:
396,249,171886,2,0,P|359:220|359:174,1,102,2|0,1:2|2:0,2:0:0:0:
471,287,172097,1,2,1:2:0:0:
471,287,172203,1,0,1:2:0:0:
352,349,172309,6,0,B|316:317|275:344|287:354|257:386|212:364,1,153,10|0,2:0|2:0,2:0:0:0:
209,355,172520,2,0,P|238:355|260:345,2,51,2|0|0,1:2|3:2|2:0,2:0:0:0:
133,358,172731,38,0,P|205:338|207:264,1,153,10|0,2:0|2:0,2:0:0:0:
190,263,172942,2,0,P|152:223|162:179,1,102,2|0,1:2|2:0,2:0:0:0:
314,56,173154,6,0,P|242:76|240:150,1,153,10|0,2:0|2:0,2:0:0:0:
257,151,173365,2,0,P|295:191|285:235,1,102,2|0,1:2|2:0,2:0:0:0:
27,159,173576,37,10,2:0:0:0:
10,85,173682,1,10,2:0:0:0:
62,32,173788,1,10,2:0:0:0:
136,43,173893,1,10,2:0:0:0:
179,108,173999,6,0,L|172:145,9,34.0000006484985,10|0|0|0|0|0|2|0|0|0,2:0|3:0|3:0|3:0|3:0|3:0|2:0|3:0|3:0|3:0,3:0:0:0:
155,155,174421,5,4,1:2:0:0:
469,362,174633,6,0,P|471:313|444:284,1,72,2|0,3:2|2:0,2:0:0:0:
457,216,174844,37,10,2:0:0:0:
457,216,174949,2,0,P|415:189|376:198,1,72,2|0,2:0|3:2,2:0:0:0:
354,265,175161,6,0,P|312:292|273:283,1,72,2|0,2:0|1:2,2:0:0:0:
275,95,175372,38,0,P|319:117|331:156,1,72,2|0,3:2|3:2,2:0:0:0:
235,223,175583,5,2,3:2:0:0:
196,290,175689,2,0,P|204:248|240:219,1,72,10|0,2:0|2:0,2:0:0:0:
133,138,175900,38,0,P|146:156|152:180,1,36,2|0,3:2|3:2,2:0:0:0:
138,128,176006,2,0,P|151:146|157:170,2,36,0|0|0,3:2|3:2|1:2,2:0:0:0:
512,92,176323,6,0,P|477:95|450:118,1,72,2|0,3:2|2:0,2:0:0:0:
407,41,176534,37,10,2:0:0:0:
407,41,176640,2,0,P|387:12|354:0,1,72,2|0,2:0|3:2,2:0:0:0:
366,114,176851,6,0,P|352:145|358:180,1,72,2|0,2:0|1:2,2:0:0:0:
313,251,177062,38,0,P|334:279|367:291,1,72,2|0,3:2|3:2,2:0:0:0:
227,87,177273,5,2,3:2:0:0:
298,63,177379,2,0,P|263:66|237:89,1,72,10|0,2:0|2:0,2:0:0:0:
215,206,177590,38,0,P|224:192|230:175,1,36,2|0,3:2|3:2,2:0:0:0:
225,214,177696,2,0,P|240:201|249:186,2,36,0|0|0,3:2|3:2|1:2,2:0:0:0:
55,363,178013,6,0,P|79:320|66:278,1,72,2|0,3:2|2:0,2:0:0:0:
128,236,178224,37,10,2:0:0:0:
128,236,178330,2,0,P|102:193|59:183,1,72,2|0,2:0|3:2,2:0:0:0:
227,62,178541,6,0,P|196:80|182:112,1,72,2|0,3:2|1:2,2:0:0:0:
248,171,178752,2,0,P|278:153|293:121,1,72,2|0,3:2|3:2,2:0:0:0:
422,85,178964,37,2,3:2:0:0:
376,25,179069,2,0,P|383:63|419:84,1,72,10|0,2:0|2:0,2:0:0:0:
477,177,179280,6,0,P|486:147|499:128,1,36,2|0,3:2|3:2,2:0:0:0:
489,186,179386,2,0,P|498:156|511:137,2,36,0|0|0,3:2|3:2|1:2,2:0:0:0:
445,290,179703,38,0,P|395:283|358:349,1,108,2|0,3:2|2:0,2:0:0:0:
338,343,179914,6,0,P|307:325|294:285,1,72,8|0,2:0|2:0,2:0:0:0:
188,247,180126,1,2,3:2:0:0:
188,247,180231,38,0,P|219:229|232:189,1,72,0|0,3:2|1:2,2:0:0:0:
298,156,180442,1,0,1:2:0:0:
339,85,180548,6,0,P|328:63|304:53,1,36,2|0,1:2|2:0,2:0:0:0:
347,46,180654,2,0,P|322:44|301:60,1,36,0|0,1:2|3:2,2:0:0:0:
251,3,180759,38,0,P|211:18|195:53,1,72,8|8,2:0|2:0,2:0:0:0:
107,80,180971,5,10,2:0:0:0:
58,25,181076,1,8,2:0:0:0:
102,98,181182,37,4,1:2:0:0:
20,272,181393,6,0,P|56:248|92:251,1,72,2|0,3:2|2:0,2:0:0:0:
129,312,181604,37,10,2:0:0:0:
129,312,181710,2,0,P|165:336|201:333,1,72,2|0,2:0|3:2,2:0:0:0:
296,214,181921,6,0,P|257:233|241:265,1,72,2|0,2:0|1:2,2:0:0:0:
305,335,182133,2,0,P|343:315|359:283,1,72,2|0,3:2|3:2,2:0:0:0:
379,124,182344,37,2,3:2:0:0:
398,197,182449,2,0,P|376:166|379:117,1,72,10|0,2:0|2:0,2:0:0:0:
441,78,182661,6,0,P|449:57|447:37,1,36,2|0,3:2|3:2,2:0:0:0:
450,89,182766,2,0,P|458:68|456:48,2,36,0|0|0,3:2|3:2|1:2,2:0:0:0:
301,94,183083,38,0,P|265:96|229:103,1,72,2|0,3:2|2:0,2:0:0:0:
229,219,183295,5,10,2:0:0:0:
229,219,183400,2,0,P|197:204|163:191,1,72,2|0,2:0|3:2,2:0:0:0:
205,26,183611,38,0,P|177:50|148:70,1,72,2|0,2:0|1:2,2:0:0:0:
80,0,183823,6,0,P|68:35|52:67,1,72,2|0,3:2|3:2,2:0:0:0:
54,233,184034,37,2,3:2:0:0:
107,291,184140,2,0,P|87:261|64:233,1,72,10|0,2:0|2:0,2:0:0:0:
0,144,184351,6,0,P|26:148|51:154,1,36,2|0,3:2|3:2,2:0:0:0:
15,141,184457,2,0,P|41:145|66:151,1,36,0|0,3:2|3:2,2:0:0:0:
55,140,184562,1,0,1:2:0:0:
225,345,184773,38,0,P|222:308|239:279,1,72,2|0,3:2|2:0,2:0:0:0:
240,195,184985,5,10,2:0:0:0:
240,195,185090,2,0,P|274:185|296:159,1,72,2|0,2:0|3:2,2:0:0:0:
376,128,185302,38,0,P|373:91|390:62,1,72,2|0,2:0|1:2,2:0:0:0:
458,148,185513,2,0,P|476:118|473:82,1,72,2|0,3:2|3:2,2:0:0:0:
260,90,185724,5,2,3:2:0:0:
194,125,185830,2,0,P|217:97|251:88,1,72,10|8,2:0|2:0,2:0:0:0:
312,312,186041,38,0,P|310:328|304:345,1,36,10|0,2:0|2:0,2:0:0:0:
324,314,186147,2,0,P|322:330|316:347,1,36,8|0,2:0|2:0,2:0:0:0:
306,361,186252,5,14,2:0:0:0:
512,373,187942,38,0,P|455:354|396:347,1,120,2|0,1:2|2:0,2:0:0:0:
327,383,188259,2,0,P|364:337|354:280,1,120,2|0,3:2|2:0,2:0:0:0:
344,273,188576,1,2,3:2:0:0:
247,337,188788,6,0,P|248:307|265:283,1,60,2|0,2:0|3:2,2:0:0:0:
294,213,188999,1,2,2:0:0:0:
294,213,189104,2,0,P|288:153|269:96,1,120,2|0,3:2|2:0,2:0:0:0:
223,34,189421,37,2,3:2:0:0:
200,58,189527,1,2,2:0:0:0:
166,55,189633,2,0,P|110:65|85:118,1,120,2|0,1:2|2:0,2:0:0:0:
19,179,189949,2,0,P|37:201|13:186,1,78.0000000000004,2|0,3:2|2:0,2:0:0:0:
27,299,190266,6,0,P|50:216|134:201,2,180,2|0|0,3:2|3:2|3:2,2:0:0:0:
103,275,191111,1,2,2:0:0:0:
128,350,191323,38,0,P|188:355|246:372,1,120,2|0,1:2|2:0,2:0:0:0:
317,337,191640,2,0,P|350:288|335:231,1,120,2|0,3:2|2:0,2:0:0:0:
325,224,191957,1,2,3:2:0:0:
392,297,192168,6,0,P|414:317|443:323,1,60,2|0,2:0|3:2,2:0:0:0:
503,280,192379,1,2,2:0:0:0:
503,280,192485,2,0,P|490:221|481:162,1,120,2|0,3:2|2:0,2:0:0:0:
480,147,192802,1,2,3:2:0:0:
440,75,193013,38,0,P|395:38|336:44,1,120,2|0,1:2|2:0,2:0:0:0:
291,110,193330,2,0,P|237:104|236:49,1,120,2|0,3:2|2:0,2:0:0:0:
200,179,193647,6,0,P|265:123|240:42,1,180,2|0,3:2|3:2,2:0:0:0:
173,3,194069,2,0,P|145:11|125:33,1,60,0|0,3:2|3:2,2:0:0:0:
134,118,194280,37,0,3:2:0:0:
134,118,194492,1,0,3:2:0:0:
0,188,194703,6,0,P|16:252|22:317,1,132,2|2,1:2|3:2,2:0:0:0:
102,305,195020,1,2,3:2:0:0:
102,305,195126,2,0,P|96:239|80:175,1,132,8|2,2:0|3:2,2:0:0:0:
27,53,195548,38,0,P|3:31|0:0,2,66,2|0|2,2:0|3:2|2:0,2:0:0:0:
102,38,195865,1,2,3:2:0:0:
102,38,195971,2,0,P|166:44|206:94,1,132,8|2,2:0|3:2,2:0:0:0:
291,282,196393,6,0,P|298:249|308:218,1,66,2|0,1:2|2:0,2:0:0:0:
211,290,196604,1,2,3:2:0:0:
211,290,196710,2,0,P|224:225|244:162,1,132,2|0,3:2|2:0,2:0:0:0:
364,63,197027,38,0,P|295:127|207:94,2,198,2|0|8,3:2|3:2|2:0,2:0:0:0:
277,38,197872,1,2,2:0:0:0:
303,221,198083,6,0,P|368:206|434:203,1,132,2|0,1:2|3:2,2:0:0:0:
512,218,198400,1,2,3:2:0:0:
512,218,198506,2,0,P|459:184|467:122,1,132,10|2,2:0|3:2,2:0:0:0:
374,254,198928,38,0,P|391:267|404:309,1,66,2|0,2:0|3:2,2:0:0:0:
375,384,199140,1,2,2:0:0:0:
375,384,199245,2,0,P|414:333|477:338,1,132,2|0,3:2|2:0,2:0:0:0:
485,346,199562,2,0,P|512:328|519:296,1,66,2|0,3:2|2:0,2:0:0:0:
309,321,199773,6,0,P|206:280|110:270,2,198,2|2|2,1:2|2:0|2:0,2:0:0:0:
484,210,200830,37,2,2:0:0:0:
431,150,201041,2,0,B|387:136|368:171|375:178|354:212|299:199,1,132,2|0,2:0|2:0,2:0:0:0:
