osu file format v14

[General]
AudioFilename: audio.mp3
AudioLeadIn: 0
PreviewTime: 50627
Countdown: 0
SampleSet: Soft
StackLeniency: 0.4
Mode: 0
LetterboxInBreaks: 0
WidescreenStoryboard: 0

[Editor]
DistanceSpacing: 1
BeatDivisor: 8
GridSize: 16
TimelineZoom: 1.8

[Metadata]
Title:God-ish
TitleUnicode:神っぽいな
Artist:philo
ArtistUnicode:フィロ
Creator:Basensorex
Version:"Death"-ish
Source:
Tags:kirishima- pincus alevi vanya2 ermi nymphe modding queue kiyoshi guarden gazimal brain exe kamippoi kami ppoi na godish japanese pop j-pop jpop vocaloid ボーカ utaite cover female strong vocals vocalist pinocchiop hatsune miku
BeatmapID:3520227
BeatmapSetID:1722410

[Difficulty]
HPDrainRate:3
CircleSize:4.2
OverallDifficulty:9.8
ApproachRate:10
SliderMultiplier:2.8
SliderTickRate:1

[Events]
//Background and Video events
0,0,"hot.png",0,0
//Break Periods
//Storyboard Layer 0 (Background)
//Storyboard Layer 1 (Fail)
//Storyboard Layer 2 (Pass)
//Storyboard Layer 3 (Foreground)
//Storyboard Layer 4 (Overlay)
//Storyboard Sound Samples

[TimingPoints]
240,422.535211267606,4,2,22,40,1,0
6155,-83.3333333333333,4,2,22,40,0,0
7000,-166.666666666667,4,2,22,40,0,0
13549,-142.857142857143,4,2,22,40,0,0
13761,-125,4,2,22,50,0,0
18831,-41.6666666666667,4,2,22,50,0,0
18884,-50,4,2,22,5,0,0
19887,-50,4,2,22,50,0,0
20099,-500,4,2,22,50,0,0
20521,-83.3333333333333,4,2,22,65,0,0
25803,-62.5,4,2,22,65,0,0
26225,-71.4285714285714,4,2,22,65,0,0
26648,-83.3333333333333,4,2,22,65,0,0
32775,-166.666666666667,4,2,22,65,0,0
34042,-111.111111111111,4,2,22,55,0,0
36789,-83.3333333333333,4,2,22,55,0,0
37423,-100,4,2,22,65,0,0
40803,-111.111111111111,4,2,22,55,0,0
44078,-50,4,2,22,5,0,0
44183,-99.9999999999999,4,2,22,65,0,0
45873,-83.3333333333333,4,2,22,70,0,0
46718,-71.4285714285714,4,2,22,70,0,0
47563,-312.5,4,2,22,70,0,0
50521,-50,4,2,22,70,0,0
50548,-50,4,2,22,5,0,0
50944,-50,4,2,22,80,0,1
51366,-66.6666666666667,4,2,22,80,0,1
51947,-66.6666666666667,4,2,22,5,0,1
52000,-66.6666666666667,4,2,22,80,0,1
52634,-50,4,2,22,80,0,1
53056,-66.6666666666667,4,2,22,80,0,1
53637,-66.6666666666667,4,2,22,5,0,1
53690,-66.6666666666667,4,2,22,80,0,1
54324,-50,4,2,22,80,0,1
54482,-66.6666666666667,4,2,22,5,0,1
54535,-83.3333333333333,4,2,22,80,0,1
54747,-50,4,2,22,80,0,1
54905,-66.6666666666667,4,2,22,5,0,1
54958,-83.3333333333333,4,2,22,80,0,1
55169,-66.6666666666667,4,2,22,80,0,1
55328,-66.6666666666667,4,2,22,5,0,1
55381,-83.3333333333333,4,2,22,80,0,1
55592,-66.6666666666667,4,2,22,80,0,1
56014,-50,4,2,22,80,0,1
56173,-66.6666666666667,4,2,22,5,0,1
56226,-83.3333333333333,4,2,22,80,0,1
56437,-66.6666666666667,4,2,22,80,0,1
57704,-50,4,2,22,80,0,1
58127,-66.6666666666667,4,2,22,80,0,1
58708,-66.6666666666667,4,2,22,5,0,1
58761,-83.3333333333333,4,2,22,80,0,1
58972,-66.6666666666667,4,2,22,80,0,1
59394,-50,4,2,22,80,0,1
59817,-66.6666666666667,4,2,22,80,0,1
60398,-66.6666666666667,4,2,22,5,0,1
60451,-83.3333333333333,4,2,22,80,0,1
60662,-66.6666666666667,4,2,22,80,0,1
61085,-50,4,2,22,80,0,1
61243,-66.6666666666667,4,2,22,5,0,1
61296,-83.3333333333333,4,2,22,80,0,1
61507,-50,4,2,22,80,0,1
61666,-66.6666666666667,4,2,22,5,0,1
61718,-83.3333333333333,4,2,22,80,0,1
61930,-66.6666666666667,4,2,22,80,0,1
62088,-66.6666666666667,4,2,22,5,0,1
62141,-66.6666666666667,4,2,22,80,0,1
62775,-55.5555555555556,4,2,22,80,0,1
63197,-50,4,2,22,80,0,1
63620,-45.4545454545455,4,2,22,80,0,1
63937,-45.4545454545455,4,2,22,5,0,1
64042,-83.3333333333333,4,2,22,60,0,0
64465,-62.5,4,2,22,80,0,1
66842,-66.6666666666667,4,2,22,5,0,1
66895,-66.6666666666667,4,2,22,80,0,1
67423,-66.6666666666667,4,2,22,80,0,1
67845,-50,4,2,22,80,0,1
68268,-62.5,4,2,22,80,0,1
68849,-66.6666666666667,4,2,22,5,0,1
68902,-66.6666666666667,4,2,22,80,0,1
69535,-50,4,2,22,80,0,1
69958,-62.5,4,2,22,80,0,1
72123,-66.6666666666667,4,2,22,5,0,1
72176,-66.6666666666667,4,2,22,80,0,1
74183,-66.6666666666667,4,2,22,80,0,1
74606,-50,4,2,22,80,0,1
75028,-62.5,4,2,22,80,0,1
75609,-66.6666666666667,4,2,22,5,0,1
75662,-66.6666666666667,4,2,22,80,0,1
76296,-50,4,2,22,80,0,1
76454,-66.6666666666667,4,2,22,5,0,1
76507,-66.6666666666667,4,2,22,80,0,1
76718,-41.6666666666667,4,2,22,80,0,1
76877,-66.6666666666667,4,2,22,5,0,1
76930,-66.6666666666667,4,2,22,80,0,1
77563,-50,4,2,22,80,0,1
77933,-50,4,2,22,80,0,1
77986,-83.3333333333333,4,2,22,60,0,0
83901,-125,4,2,22,60,0,0
84324,-55.5555555555556,4,2,22,60,0,0
84958,-83.3333333333333,4,2,22,60,0,0
90662,-55.5555555555556,4,2,22,60,0,0
91507,582.52427184466,4,2,22,50,1,0
95002,-166.666666666667,4,2,22,50,0,0
99371,-125,4,2,22,50,0,0
100244,-100,4,2,22,50,0,0
100827,-100,4,2,22,65,0,0
108400,-100,4,2,22,5,0,0
108982,-200,4,2,22,65,0,0
109419,-100,4,2,22,5,0,0
109565,-100,4,2,22,65,0,0
110147,-100,4,2,22,75,0,0
126895,-100,4,2,22,5,0,0
127623,-200,4,2,22,75,0,0
128060,-100,4,2,22,5,0,0
128788,422.535211267606,4,2,22,55,1,0
131534,-76.9230769230769,4,2,22,55,0,0
132168,-90.9090909090909,4,2,22,65,0,0
135548,-100,4,2,22,55,0,0
138823,-100,4,2,22,5,0,0
138928,-90.9090909090909,4,2,22,65,0,0
140618,-76.9230769230769,4,2,22,70,0,0
141464,-66.6666666666667,4,2,22,70,0,0
142309,-238.095238095238,4,2,22,70,0,0
146745,-55.5555555555556,4,2,22,70,0,0
146957,-22.7272727272727,4,2,22,70,0,0
147379,-45.4545454545455,4,2,22,85,0,1
147802,-62.5,4,2,22,85,0,1
148383,-62.5,4,2,22,5,0,1
148435,-62.5,4,2,22,85,0,1
149069,-45.4545454545455,4,2,22,85,0,1
149492,-62.5,4,2,22,85,0,1
150073,-62.5,4,2,22,5,0,1
150125,-62.5,4,2,22,85,0,1
150759,-45.4545454545455,4,2,22,85,0,1
150918,-45.4545454545455,4,2,22,5,0,1
150971,-76.9230769230769,4,2,22,85,0,1
151182,-45.4545454545455,4,2,22,85,0,1
151340,-45.4545454545455,4,2,22,5,0,1
151394,-76.9230769230769,4,2,22,85,0,1
151604,-62.5,4,2,22,85,0,1
151763,-62.5,4,2,22,5,0,1
151815,-62.5,4,2,22,85,0,1
152449,-45.4545454545455,4,2,22,85,0,1
152608,-62.5,4,2,22,5,0,1
152660,-62.5,4,2,22,85,0,1
152872,-62.5,4,2,22,85,0,1
154140,-45.4545454545455,4,2,22,85,0,1
154562,-62.5,4,2,22,85,0,1
155143,-62.5,4,2,22,5,0,1
155195,-62.5,4,2,22,85,0,1
155830,-45.4545454545455,4,2,22,85,0,1
156252,-62.5,4,2,22,85,0,1
156833,-62.5,4,2,22,5,0,1
156885,-62.5,4,2,22,85,0,1
157520,-45.4545454545455,4,2,22,85,0,1
157678,-45.4545454545455,4,2,22,5,0,1
157731,-76.9230769230769,4,2,22,85,0,1
157942,-45.4545454545455,4,2,22,85,0,1
158101,-45.4545454545455,4,2,22,5,0,1
158153,-76.9230769230769,4,2,22,85,0,1
158788,-62.5,4,2,22,85,0,1
159210,-52.6315789473684,4,2,22,85,0,1
159632,-47.6190476190476,4,2,22,85,0,1
160055,-43.4782608695652,4,2,22,85,0,1
160372,-43.4782608695652,4,2,22,5,0,1
160478,-43.4782608695652,4,2,22,85,0,0
160900,-58.8235294117647,4,2,22,85,0,1
161904,-62.5,4,2,22,5,0,1
161956,-62.5,4,2,22,85,0,1
163277,-62.5,4,2,22,5,0,1
163329,-62.5,4,2,22,85,0,1
163858,-62.5,4,2,22,85,0,1
164280,-45.4545454545455,4,2,22,85,0,1
164703,-58.8235294117647,4,2,22,85,0,1
165284,-62.5,4,2,22,5,0,1
165336,-62.5,4,2,22,85,0,1
165971,-45.4545454545455,4,2,22,85,0,1
166393,-58.8235294117647,4,2,22,85,0,1
168559,-62.5,4,2,22,5,0,1
168611,-62.5,4,2,22,85,0,1
170618,-62.5,4,2,22,85,0,1
171041,-45.4545454545455,4,2,22,85,0,1
171464,-58.8235294117647,4,2,22,85,0,1
172045,-62.5,4,2,22,5,0,1
172097,-62.5,4,2,22,85,0,1
172731,-45.4545454545455,4,2,22,85,0,1
172890,-62.5,4,2,22,5,0,1
172942,-62.5,4,2,22,85,0,1
173154,-38.4615384615385,4,2,22,85,0,1
173312,-62.5,4,2,22,5,0,1
173364,-62.5,4,2,22,85,0,1
173999,-45.4545454545455,4,2,22,85,0,1
174157,-62.5,4,2,22,5,0,1
174209,-62.5,4,2,22,85,0,1
174421,-76.9230769230769,4,2,22,75,0,0
179703,-58.8235294117647,4,2,22,75,0,0
180126,-66.6666666666667,4,2,22,75,0,0
181182,-76.9230769230769,4,2,22,75,0,0
187942,-166.666666666667,4,2,22,50,0,0
194492,-142.857142857143,4,2,22,50,0,0
194703,-125,4,2,22,50,0,0
199773,-41.6666666666667,4,2,22,50,0,0
199826,-41.6666666666667,4,2,22,5,0,0

[Colours]
Combo1 : 169,177,5
Combo2 : 191,191,191
Combo3 : 75,74,74
Combo4 : 228,14,46

[HitObjects]
177,256,6155,6,0,B|228:178|416:227|291:354|473:336,1,335.999989746094,2|0,0:2|3:2,0:0:0:0:
458,337,7000,6,0,P|480:302|479:260,1,83.9999974365235,2|0,1:2|0:0,0:0:0:0:
512,189,7317,2,0,P|493:152|456:132,1,83.9999974365235,2|0,3:2|0:0,0:0:0:0:
410,68,7634,1,2,3:2:0:0:
409,68,7845,38,0,P|391:77|370:79,1,41.9999987182618,2|0,0:2|3:2,0:0:0:0:
296,62,8056,1,2,0:2:0:0:
296,62,8162,2,0,P|346:96|356:156,1,125.999996154785,2|2,3:2|3:2,0:0:0:0:
294,206,8585,1,2,0:2:0:0:
233,157,8690,6,0,B|168:147|181:193|103:181,1,125.999996154785,2|2,1:2|3:2,0:0:0:0:
37,157,9113,2,0,P|32:136|26:116,1,41.9999987182618
131,23,9324,2,0,P|117:62|107:103,1,83.9999974365235,2|0,3:2|0:0,0:0:0:0:
107,103,9641,1,0,3:2:0:0:
6,0,9852,1,0,3:2:0:0:
6,0,9958,37,0,3:2:0:0:
113,183,10169,5,2,0:2:0:0:
257,27,10380,38,0,P|298:24|333:46,1,83.9999974365235,2|0,1:2|0:0,0:0:0:0:
412,54,10697,2,0,P|434:88|433:130,1,83.9999974365235,2|0,3:2|0:0,0:0:0:0:
465,203,11014,1,2,3:2:0:0:
465,203,11225,6,0,P|455:221|453:242,1,41.9999987182618,2|0,0:2|3:2,0:0:0:0:
509,307,11437,1,2,0:2:0:0:
509,307,11542,2,0,P|447:293|384:286,1,125.999996154785,2|2,3:2|3:2,0:0:0:0:
211,320,12070,38,0,B|276:310|263:356|341:344,1,125.999996154785,2|2,1:2|3:2,0:0:0:0:
385,286,12493,2,0,P|389:265|395:245,1,41.9999987182618,2|0,0:2|0:0,0:0:0:0:
366,172,12704,1,2,3:2:0:0:
211,320,12916,5,0,3:2:0:0:
191,335,13021,1,0,3:2:0:0:
166,342,13127,1,0,3:2:0:0:
141,338,13232,1,0,3:2:0:0:
118,326,13338,38,0,P|107:307|103:283,1,41.9999987182618,0|0,3:2|0:0,0:0:0:0:
17,204,13549,6,0,P|23:180|40:162,1,48.9999985046387,0|0,3:2|0:0,0:0:0:0:
46,25,13761,38,0,P|100:13|156:6,1,112,2|2,1:2|3:2,0:0:0:0:
202,70,14078,2,0,P|257:77|312:88,1,112,2|0,3:2|0:0,0:0:0:0:
344,161,14394,1,2,3:2:0:0:
512,31,14606,6,0,P|485:37|465:57,1,56,2|0,0:2|3:2,0:0:0:0:
393,31,14817,1,2,0:2:0:0:
392,31,14923,2,0,P|391:85|429:124,1,112,2|0,3:2|0:0,0:0:0:0:
507,120,15240,1,2,3:2:0:0:
344,161,15451,38,0,P|348:188|352:216,1,56,2|0,1:2|0:0,0:0:0:0:
426,250,15662,1,2,3:2:0:0:
426,250,15768,2,0,P|418:305|407:360,1,112,2|0,3:2|0:0,0:0:0:0:
332,384,16085,1,2,3:2:0:0:
270,285,16296,1,0,0:0:0:0:
270,285,16402,1,0,3:2:0:0:
172,267,16613,1,0,3:2:0:0:
172,267,16719,1,8,0:2:0:0:
110,318,16930,1,2,0:2:0:0:
50,268,17141,6,0,B|44:207|75:222|68:159,1,112,2|0,1:2|3:2,0:0:0:0:
3,119,17458,1,2,3:2:0:0:
3,119,17563,2,0,P|20:97|44:84,1,56,10|0,0:2|0:0,0:0:0:0:
46,7,17775,2,0,P|73:10|96:25,1,56,2|0,3:2|0:0,0:0:0:0:
150,164,17986,38,0,P|204:152|260:145,1,112,2|2,0:2|0:2,0:0:0:0:
302,78,18303,2,0,P|357:85|412:96,1,112,2|0,3:2|0:0,0:0:0:0:
473,45,18620,1,2,3:2:0:0:
512,384,18831,6,0,B|500:382|500:382|497:379|497:379|474:379|474:379|470:376|470:376|443:376|443:376|440:373|440:373|430:371,1,83.9999974365235,2|0,1:2|0:0,0:0:0:0:
431,371,19887,37,2,3:2:0:0:
394,304,19993,1,0,3:2:0:0:
483,237,20099,6,0,P|470:224|469:242,1,42,10|0,0:2|0:0,0:0:0:0:
483,237,20521,38,0,P|442:233|413:204,1,83.9999974365235,4|0,1:2|0:0,0:0:0:0:
502,73,20732,2,0,P|488:112|481:154,1,83.9999974365235,2|0,0:2|0:0,0:0:0:0:
325,74,20944,1,2,1:2:0:0:
390,9,21049,2,0,P|403:48|410:90,1,83.9999974365235,2|0,0:2|0:0,0:0:0:0:
284,216,21261,6,0,P|270:176|263:134,1,83.9999974365235,2|0,0:2|1:2,0:0:0:0:
176,158,21472,2,0,P|183:116|196:76,1,83.9999974365235,2|0,0:2|0:0,0:0:0:0:
259,21,21683,1,2,0:2:0:0:
102,96,21789,1,2,1:2:0:0:
102,96,22000,1,10,0:2:0:0:
93,87,22053,1,8,0:2:0:0:
80,83,22106,1,8,0:2:0:0:
67,83,22159,1,8,0:2:0:0:
55,87,22211,38,0,P|25:116|21:157,1,83.9999974365235,0|0,1:2|0:0,0:0:0:0:
87,302,22423,2,0,P|101:262|107:221,1,83.9999974365235,2|0,0:2|0:0,0:0:0:0:
20,244,22634,1,2,1:2:0:0:
196,238,22740,2,0,P|189:196|175:157,1,83.9999974365235,2|0,0:2|0:0,0:0:0:0:
361,271,22951,6,0,P|346:310|340:351,1,83.9999974365235,2|0,0:2|1:2,0:0:0:0:
427,208,23162,2,0,P|441:247|447:288,1,83.9999974365235,2|0,0:2|0:0,0:0:0:0:
427,371,23373,1,2,0:2:0:0:
287,214,23479,1,2,1:2:0:0:
287,214,23690,1,10,0:2:0:0:
295,204,23743,1,8,0:2:0:0:
304,195,23796,1,8,0:2:0:0:
315,190,23849,1,8,0:2:0:0:
327,186,23901,38,0,P|356:156|360:115,1,83.9999974365235,0|0,1:2|0:0,0:0:0:0:
197,102,24113,2,0,P|238:108|277:122,1,83.9999974365235,2|0,0:2|0:0,0:0:0:0:
217,188,24324,1,2,1:2:0:0:
132,35,24430,2,0,P|171:20|212:14,1,83.9999974365235,2|0,0:2|0:0,0:0:0:0:
135,217,24641,6,0,P|95:202|54:196,1,83.9999974365235,2|0,0:2|1:2,0:0:0:0:
193,285,24852,2,0,P|153:299|112:305,1,83.9999974365235,2|0,0:2|0:0,0:0:0:0:
31,278,25063,1,2,0:2:0:0:
179,377,25169,1,2,1:2:0:0:
179,377,25380,1,10,0:2:0:0:
190,381,25433,1,8,0:2:0:0:
202,380,25486,1,8,0:2:0:0:
214,378,25539,1,8,0:2:0:0:
225,373,25592,38,0,P|265:359|307:352,1,83.9999974365235,0|0,1:2|0:0,0:0:0:0:
424,369,25803,6,0,P|322:336|307:230,1,224,2|0,0:2|1:2,0:0:0:0:
306,231,26120,1,0,0:0:0:0:
384,177,26225,38,0,P|473:206|486:299,1,195.999994018555,2|0,0:2|1:2,0:0:0:0:
486,297,26542,1,0,0:0:0:0:
411,350,26648,6,0,P|335:324|322:245,1,167.999994873047,2|0,0:2|1:2,0:0:0:0:
321,245,26965,1,0,0:0:0:0:
304,169,27070,1,10,0:2:0:0:
291,169,27123,1,8,0:2:0:0:
280,175,27176,1,8,0:2:0:0:
269,182,27229,1,8,0:2:0:0:
261,192,27282,38,0,P|231:221|190:225,1,83.9999974365235,0|0,1:2|0:0,0:0:0:0:
174,61,27493,2,0,P|188:100|194:141,1,83.9999974365235,2|0,0:2|0:0,0:0:0:0:
261,19,27704,1,2,1:2:0:0:
104,0,27810,2,0,P|89:39|83:80,1,83.9999974365235,2|0,0:2|0:0,0:0:0:0:
304,169,28021,6,0,P|318:129|324:88,1,83.9999974365235,2|0,0:2|1:2,0:0:0:0:
413,103,28232,2,0,P|406:61|392:22,1,83.9999974365235,2|0,0:2|0:0,0:0:0:0:
324,88,28444,1,2,0:2:0:0:
498,137,28549,1,2,1:2:0:0:
498,137,28761,1,10,0:2:0:0:
505,147,28813,1,8,0:2:0:0:
509,158,28866,1,8,0:2:0:0:
511,170,28919,1,8,0:2:0:0:
510,182,28972,38,0,P|480:210|439:215,1,83.9999974365235,0|0,1:2|0:0,0:0:0:0:
311,301,29183,2,0,P|350:287|391:281,1,83.9999974365235,2|0,0:2|0:0,0:0:0:0:
274,223,29394,1,2,1:2:0:0:
249,364,29500,2,0,P|288:378|329:384,1,83.9999974365235,2|0,0:2|0:0,0:0:0:0:
245,143,29711,6,0,P|203:148|164:163,1,83.9999974365235,2|0,0:2|1:2,0:0:0:0:
306,77,29923,2,0,P|266:62|225:56,1,83.9999974365235,2|0,0:2|0:0,0:0:0:0:
154,0,30134,1,2,0:2:0:0:
0,86,30240,1,2,1:2:0:0:
0,86,30451,1,10,0:2:0:0:
10,78,30504,1,8,0:2:0:0:
21,74,30556,1,8,0:2:0:0:
33,74,30609,1,8,0:2:0:0:
45,76,30662,38,0,P|73:105|78:146,1,83.9999974365235,0|0,1:2|0:0,0:0:0:0:
0,294,30873,2,0,P|5:252|20:213,1,83.9999974365235,2|0,0:2|0:0,0:0:0:0:
145,203,31085,1,2,1:2:0:0:
110,354,31190,2,0,P|104:312|89:273,1,83.9999974365235,2|0,0:2|0:0,0:0:0:0:
209,93,31401,6,0,P|223:132|229:173,1,83.9999974365235,2|0,0:2|1:2,0:0:0:0:
314,155,31613,2,0,P|308:196|293:235,1,83.9999974365235,2|0,0:2|0:0,0:0:0:0:
207,271,31824,1,2,0:2:0:0:
383,349,31930,1,2,1:2:0:0:
383,349,32141,1,10,0:2:0:0:
392,340,32194,1,8,0:2:0:0:
402,333,32247,1,8,0:2:0:0:
414,330,32299,1,8,0:2:0:0:
426,330,32352,37,2,1:2:0:0:
481,27,32775,6,0,P|487:46|492:67,3,41.9999987182618,0|0|2|0,3:2|3:2|3:2|3:2,0:0:0:0:
412,73,33197,1,0,3:2:0:0:
412,73,33409,37,0,1:2:0:0:
345,5,33514,1,0,1:2:0:0:
195,80,33620,5,8,0:2:0:0:
195,80,34042,38,0,P|164:98|136:100,1,62.9999980773926,2|0,1:2|0:0,0:0:0:0:
131,178,34254,2,0,P|100:172|76:152,1,62.9999980773926,2|0,3:2|3:2,0:0:0:0:
65,75,34465,1,2,3:2:0:0:
133,258,34676,6,0,P|163:252|187:232,1,62.9999980773926,2|0,1:2|0:0,0:0:0:0:
246,284,34887,2,0,P|263:258|266:227,1,62.9999980773926,2|0,3:2|3:2,0:0:0:0:
223,160,35099,1,2,3:2:0:0:
0,302,35310,37,10,0:2:0:0:
0,302,35416,1,2,0:2:0:0:
77,332,35521,1,2,0:2:0:0:
77,332,35732,6,0,P|108:328|139:327,1,62.9999980773926,2|0,1:2|0:0,0:0:0:0:
162,240,35944,2,0,P|186:259|209:281,1,62.9999980773926,2|0,3:2|3:2,0:0:0:0:
216,359,36155,1,2,3:2:0:0:
77,332,36366,38,0,P|108:328|139:327,1,62.9999980773926,2|0,1:2|0:0,0:0:0:0:
162,240,36578,2,0,P|186:259|209:281,1,62.9999980773926,2|0,3:2|3:2,0:0:0:0:
512,276,36789,6,0,B|473:266|473:266|471:262|471:262|432:252,1,83.9999974365235,2|0,3:2|3:2,0:0:0:0:
138,162,37000,1,10,0:2:0:0:
206,119,37211,1,2,0:2:0:0:
3,375,37423,38,0,P|69:349|139:344,1,140,2|0,1:2|0:0,0:0:0:0:
137,343,37740,1,0,3:2:0:0:
209,295,37845,2,0,P|275:321|345:326,1,140,10|0,0:2|3:2,0:0:0:0:
343,327,38162,1,0,0:0:0:0:
424,281,38268,6,0,P|445:249|449:218,1,70,2|0,1:2|0:0,0:0:0:0:
372,183,38479,2,0,P|350:214|346:245,1,70,2|0,0:2|3:2,0:0:0:0:
426,368,38690,38,0,P|462:360|488:341,1,70,10|0,0:2|0:0,0:0:0:0:
370,96,38901,2,0,P|333:103|307:122,1,70,2|0,3:2|0:0,0:0:0:0:
185,340,39113,6,0,B|57:306|144:259|13:230,1,210,2|0,1:2|3:2,0:0:0:0:
193,240,39535,1,8,0:2:0:0:
15,333,39747,1,0,3:2:0:0:
0,136,39958,2,0,P|4:101|6:66,1,70,0|0,1:2|0:0,0:0:0:0:
83,20,40169,37,8,0:2:0:0:
83,20,40380,1,8,0:2:0:0:
160,14,40486,1,8,0:2:0:0:
215,68,40592,1,8,0:2:0:0:
290,53,40698,1,8,0:2:0:0:
347,110,40803,6,0,P|351:141|352:172,1,62.9999980773926,2|0,1:2|0:0,0:0:0:0:
432,208,41014,2,0,P|412:232|391:255,1,62.9999980773926,2|0,3:2|3:2,0:0:0:0:
311,243,41225,1,2,3:2:0:0:
199,366,41437,38,0,P|195:335|194:304,1,62.9999980773926,2|0,1:2|0:0,0:0:0:0:
114,268,41648,2,0,P|134:244|155:221,1,62.9999980773926,2|0,3:2|3:2,0:0:0:0:
235,233,41859,1,2,3:2:0:0:
402,50,42070,5,10,0:2:0:0:
402,50,42175,1,2,0:2:0:0:
347,110,42281,1,2,0:2:0:0:
347,110,42493,38,0,P|326:133|320:164,1,62.9999980773926,2|0,1:2|0:0,0:0:0:0:
243,161,42704,2,0,P|245:192|262:218,1,62.9999980773926,2|0,3:2|3:2,0:0:0:0:
336,241,42916,1,2,3:2:0:0:
402,50,43127,6,0,P|422:73|428:104,1,62.9999980773926,2|0,1:2|0:0,0:0:0:0:
505,103,43338,2,0,P|502:134|485:160,1,62.9999980773926,2|0,3:2|3:2,0:0:0:0:
413,181,43549,1,2,3:2:0:0:
219,34,43761,38,0,B|106:63|181:106|65:132,1,188.999994232178,10|0,0:2|0:0,0:0:0:0:
0,33,44183,6,0,P|31:132|41:237,1,210,2|0,1:2|0:0,0:0:0:0:
0,318,44606,1,10,0:2:0:0:
139,226,44817,2,0,P|126:258|119:293,1,70,2|0,1:2|0:0,0:0:0:0:
74,384,45028,38,0,P|144:311|244:326,1,210,2|0,1:2|0:0,0:0:0:0:
314,384,45451,1,10,0:2:0:0:
280,252,45662,2,0,P|308:269|324:305,1,70,2|0,1:2|0:0,0:0:0:0:
463,372,45873,6,0,P|472:331|489:292,1,83.9999974365235,2|0,1:2|0:0,0:0:0:0:
345,43,46085,1,8,0:2:0:0:
306,87,46190,1,8,0:2:0:0:
321,143,46296,2,0,P|358:161|399:159,1,83.9999974365235,0|0,1:2|0:0,0:0:0:0:
406,240,46507,2,0,P|445:226|473:196,1,83.9999974365235,8|0,0:2|0:0,0:0:0:0:
62,384,46718,38,0,P|39:340|10:301,1,97.9999970092774,2|0,1:2|0:0,0:0:0:0:
159,3,46930,1,8,0:2:0:0:
213,58,47035,1,8,0:2:0:0:
179,129,47141,2,0,P|142:156|91:159,1,97.9999970092774,0|0,1:2|0:0,0:0:0:0:
99,238,47352,2,0,P|53:230|15:196,1,97.9999970092774,8|0,0:2|0:0,0:0:0:0:
278,3,47563,6,0,P|249:179|237:358,1,358.4,2|2,1:2|0:2,0:0:0:0:
237,358,50521,38,0,P|241:354|237:364,1,35,8|0,0:2|0:0,0:0:0:0:
237,358,50944,22,0,B|236:289|161:240|45:264|76:395|169:359,1,280,6|2,1:2|0:2,0:0:0:0:
275,237,51261,1,2,0:2:0:0:
415,373,51366,2,0,P|466:375|512:347,1,105.000004005432,10|0,0:2|0:0,0:0:0:0:
342,178,51578,2,0,P|298:150|246:153,1,105.000004005432,2|0,1:2|0:0,0:0:0:0:
450,119,51789,6,0,P|425:193|413:271,1,157.500006008148,2|0,0:2|0:0,0:0:0:0:
411,287,52000,1,2,1:2:0:0:
512,220,52106,1,0,1:2:0:0:
436,29,52211,38,0,B|376:38|399:67|343:75,1,105.000004005432,10|0,0:2|0:0,0:0:0:0:
173,104,52423,1,2,3:2:0:0:
165,84,52475,1,0,3:2:0:0:
168,63,52528,1,0,3:2:0:0:
180,46,52581,1,0,3:2:0:0:
200,34,52634,6,0,B|377:58|267:143|446:166,1,280,2|2,1:2|0:2,0:0:0:0:
246,204,52951,1,2,0:2:0:0:
85,103,53056,2,0,P|78:50|65:1,1,105.000004005432,10|0,0:2|0:0,0:0:0:0:
246,204,53268,2,0,P|232:254|226:306,1,105.000004005432,2|0,1:2|0:0,0:0:0:0:
0,131,53479,38,0,P|56:184|138:170,1,157.500006008148,2|0,0:2|0:0,0:0:0:0:
145,164,53690,1,2,1:2:0:0:
207,25,53796,1,0,1:2:0:0:
372,107,53901,6,0,B|392:82|382:50|382:50|370:75|343:87,1,105.000004005432,10|0,0:2|0:0,0:0:0:0:
246,204,54113,1,2,3:2:0:0:
229,184,54165,1,0,3:2:0:0:
226,157,54218,1,0,3:2:0:0:
239,134,54271,1,0,3:2:0:0:
256,121,54324,38,0,P|359:136|459:168,1,210,2|0,1:2|0:0,0:0:0:0:
473,174,54535,2,0,P|431:180|391:192,1,83.9999974365235,2|0,0:2|0:0,0:0:0:0:
239,305,54747,6,0,P|342:320|442:352,1,210,10|0,0:2|0:0,0:0:0:0:
457,359,54958,2,0,P|415:365|375:377,1,83.9999974365235,2|0,1:2|0:0,0:0:0:0:
155,346,55169,38,0,P|210:293|201:218,1,157.500006008148,2|0,0:2|0:0,0:0:0:0:
190,204,55380,1,2,1:2:0:0:
69,322,55486,1,0,1:2:0:0:
247,138,55592,6,0,B|307:147|284:176|340:184,1,105.000004005432,10|0,0:2|0:0,0:0:0:0:
95,63,55803,1,2,3:2:0:0:
74,67,55856,1,0,3:2:0:0:
57,80,55909,1,0,3:2:0:0:
47,98,55961,1,0,3:2:0:0:
40,115,56014,38,0,B|52:216|52:216|56:219|56:219|68:321,1,210,2|0,1:2|0:0,0:0:0:0:
72,340,56225,1,2,0:2:0:0:
288,234,56331,1,2,0:2:0:0:
489,384,56437,6,0,P|444:357|392:359,1,105.000004005432,10|0,0:2|0:0,0:0:0:0:
290,145,56648,2,0,P|239:157|204:195,1,105.000004005432,2|0,1:2|0:0,0:0:0:0:
10,280,56859,37,2,1:2:0:0:
52,366,56965,1,0,1:2:0:0:
25,155,57070,5,0,1:2:0:0:
137,240,57176,1,0,1:2:0:0:
53,18,57282,37,8,0:2:0:0:
69,5,57335,1,0,3:2:0:0:
93,0,57387,1,8,0:2:0:0:
124,6,57440,1,0,3:2:0:0:
154,25,57493,1,8,0:2:0:0:
182,57,57546,1,0,3:2:0:0:
219,83,57599,1,8,0:2:0:0:
270,81,57651,1,0,3:2:0:0:
305,34,57704,6,0,B|392:-44|494:26|494:26|454:16|424:45,1,280,2|2,1:2|0:2,0:0:0:0:
265,187,58021,1,2,0:2:0:0:
461,220,58127,2,0,P|487:175|485:123,1,105.000004005432,10|0,0:2|0:0,0:0:0:0:
343,315,58338,2,0,P|367:360|413:384,1,105.000004005432,2|0,1:2|0:0,0:0:0:0:
265,187,58549,38,0,P|187:198|112:224,1,157.500006008148,2|0,0:2|0:0,0:0:0:0:
97,230,58761,1,2,1:2:0:0:
231,278,58866,1,0,1:2:0:0:
363,120,58972,6,0,B|338:100|306:110|306:110|331:122|343:149,1,105.000004005432,10|0,0:2|0:0,0:0:0:0:
458,119,59183,1,2,3:2:0:0:
454,98,59236,1,0,3:2:0:0:
447,78,59289,1,0,3:2:0:0:
434,61,59342,1,0,3:2:0:0:
418,47,59394,38,0,B|381:35|362:7|362:7|334:26|298:30|298:30|297:116|225:141,1,280,2|2,1:2|0:2,0:0:0:0:
363,120,59711,1,2,0:2:0:0:
203,49,59817,2,0,P|153:63|101:69,1,105.000004005432,10|0,0:2|0:0,0:0:0:0:
353,212,60028,2,0,P|405:217|455:232,1,105.000004005432,2|0,1:2|0:0,0:0:0:0:
151,256,60240,6,0,P|162:180|227:140,1,157.500006008148,2|0,0:2|0:0,0:0:0:0:
242,139,60451,1,2,1:2:0:0:
300,286,60556,1,0,1:2:0:0:
129,344,60662,38,0,B|69:335|92:306|36:298,1,105.000004005432,10|0,0:2|0:0,0:0:0:0:
150,256,60873,1,2,3:2:0:0:
170,259,60926,1,0,3:2:0:0:
188,269,60979,1,0,3:2:0:0:
200,286,61032,1,0,3:2:0:0:
210,302,61085,6,0,P|281:371|375:335,1,210,2|0,1:2|0:0,0:0:0:0:
385,322,61296,2,0,P|397:281|402:240,1,83.9999974365235,2|0,0:2|0:0,0:0:0:0:
212,156,61507,38,0,P|140:225|47:189,1,210,10|0,0:2|0:0,0:0:0:0:
37,176,61718,2,0,P|24:135|19:94,1,83.9999974365235,2|0,1:2|0:0,0:0:0:0:
284,28,61930,6,0,P|309:102|320:180,1,157.500006008148,2|0,0:2|0:0,0:0:0:0:
320,195,62141,1,2,1:2:0:0:
398,86,62247,1,0,1:2:0:0:
416,264,62352,38,0,B|391:284|359:274|359:274|384:262|396:235,1,105.000004005432,10|0,0:2|0:0,0:0:0:0:
504,312,62563,1,2,3:2:0:0:
494,330,62616,1,0,3:2:0:0:
478,344,62669,1,0,3:2:0:0:
459,353,62722,1,0,3:2:0:0:
436,357,62775,6,0,B|286:335|378:265|221:244,1,251.999992309571,10|0,0:2|0:0,0:0:0:0:
134,299,63092,1,0,1:2:0:0:
451,234,63197,38,0,B|281:258|386:337|207:362,1,280,8|0,0:2|0:0,0:0:0:0:
134,299,63515,1,0,1:2:0:0:
504,312,63620,6,0,P|271:275|46:255,1,462.000014099122,8|0,0:2|0:0,0:0:0:0:
7,180,64042,5,2,0:2:0:0:
14,160,64148,1,2,0:2:0:0:
95,104,64254,5,2,0:2:0:0:
83,70,64360,1,2,0:2:0:0:
173,8,64465,5,6,1:2:0:0:
320,112,64570,1,2,0:2:0:0:
210,76,64676,5,2,1:2:0:0:
283,44,64781,1,2,1:2:0:0:
401,126,64887,38,0,P|384:179|378:234,1,112,10|2,0:2|0:2,0:0:0:0:
432,294,65099,1,2,1:2:0:0:
502,265,65204,1,2,1:2:0:0:
356,322,65310,5,2,1:2:0:0:
241,266,65415,1,2,0:2:0:0:
136,329,65521,37,2,1:2:0:0:
63,361,65626,1,2,1:2:0:0:
139,202,65732,5,10,0:2:0:0:
139,202,65944,37,2,1:2:0:0:
162,249,66049,1,2,1:2:0:0:
247,169,66155,6,0,P|253:113|269:60,1,112,2|0,1:2|0:0,0:0:0:0:
40,252,66366,2,0,P|56:305|62:360,1,112,2|0,1:2|1:2,0:0:0:0:
107,122,66578,37,10,0:2:0:0:
258,266,66683,2,0,B|359:240|292:201|395:178,1,168,2|0,0:2|0:0,0:0:0:0:
411,180,66894,1,2,1:2:0:0:
512,323,67000,5,2,1:2:0:0:
403,273,67106,1,2,0:2:0:0:
507,202,67211,37,2,1:2:0:0:
510,174,67264,1,0,3:2:0:0:
506,146,67317,1,0,1:2:0:0:
495,119,67370,1,0,3:2:0:0:
481,93,67423,2,0,P|436:66|384:68,1,105.000004005432,10|0,0:2|0:0,0:0:0:0:
172,212,67633,5,2,1:2:0:0:
183,229,67686,1,0,3:2:0:0:
202,237,67739,1,0,1:2:0:0:
222,242,67792,1,0,3:2:0:0:
240,237,67845,38,0,B|309:236|358:161|334:45|203:76|239:169,1,280,2|2,1:2|1:2,0:0:0:0:
320,295,68162,1,2,1:2:0:0:
89,244,68268,2,0,P|88:189|117:142,1,112,10|0,0:2|0:0,0:0:0:0:
260,353,68479,2,0,P|212:381|157:380,1,112,2|0,1:2|1:2,0:0:0:0:
437,206,68690,6,0,P|409:285|396:368,1,168,2|0,1:2|0:0,0:0:0:0:
393,384,68901,1,2,1:2:0:0:
496,300,69007,1,0,1:2:0:0:
374,113,69113,38,0,B|353:138|363:171|363:171|376:146|403:133,1,105.000004005432,10|0,0:2|0:0,0:0:0:0:
416,37,69324,1,2,1:2:0:0:
395,27,69377,1,0,3:2:0:0:
372,24,69430,1,0,1:2:0:0:
350,29,69482,1,0,3:2:0:0:
333,41,69535,6,0,B|177:73|258:155|106:193,1,280,2|2,1:2|1:2,0:0:0:0:
160,36,69852,1,2,1:2:0:0:
314,150,69958,2,0,P|297:203|291:258,1,112,10|0,0:2|0:0,0:0:0:0:
72,108,70169,2,0,P|66:52|48:0,1,112,2|0,1:2|1:2,0:0:0:0:
291,258,70380,37,2,1:2:0:0:
227,340,70486,1,0,1:2:0:0:
387,221,70592,5,0,1:2:0:0:
372,378,70698,1,0,1:2:0:0:
496,222,70803,37,8,0:2:0:0:
485,202,70856,1,0,3:2:0:0:
466,188,70908,1,8,0:2:0:0:
436,180,70961,1,0,3:2:0:0:
400,184,71014,1,10,0:2:0:0:
361,201,71067,1,0,3:2:0:0:
317,209,71120,1,10,0:2:0:0:
272,186,71172,1,0,3:2:0:0:
242,136,71225,6,0,P|247:80|265:27,1,112,6|0,1:2|0:0,0:0:0:0:
13,245,71437,2,0,P|30:298|36:353,1,112,2|0,1:2|1:2,0:0:0:0:
153,123,71648,37,10,0:2:0:0:
0,55,71754,1,2,0:2:0:0:
69,4,71859,5,2,1:2:0:0:
86,193,71965,2,0,B|187:219|120:258|223:281,1,168,2|0,1:2|0:0,0:0:0:0:
238,276,72176,1,2,0:2:0:0:
371,135,72282,37,2,1:2:0:0:
228,191,72387,1,2,1:2:0:0:
382,338,72493,5,10,0:2:0:0:
382,338,72704,37,2,1:2:0:0:
359,291,72809,1,2,1:2:0:0:
450,276,72916,5,2,1:2:0:0:
294,351,73021,1,2,0:2:0:0:
127,332,73127,37,2,1:2:0:0:
238,276,73232,1,2,1:2:0:0:
135,141,73338,6,0,P|151:190|157:242,1,105.000004005432,10|2,0:2|0:2,0:0:0:0:
56,135,73549,1,2,1:2:0:0:
17,202,73655,1,2,1:2:0:0:
192,86,73761,37,2,1:2:0:0:
278,206,73867,1,2,0:2:0:0:
341,65,73971,5,2,1:2:0:0:
367,56,74024,1,0,3:2:0:0:
395,54,74077,1,0,1:2:0:0:
421,62,74130,1,0,3:2:0:0:
444,79,74183,2,0,P|471:124|469:176,1,105.000004005432,10|0,0:2|0:0,0:0:0:0:
339,364,74394,37,2,1:2:0:0:
318,360,74447,1,0,3:2:0:0:
302,346,74500,1,0,1:2:0:0:
295,326,74553,1,0,3:2:0:0:
298,308,74606,6,0,B|378:222|486:284|486:284|445:278|418:309,1,280,2|2,1:2|1:2,0:0:0:0:
224,384,74923,1,2,1:2:0:0:
49,245,75028,2,0,P|66:298|72:353,1,112,10|0,0:2|0:0,0:0:0:0:
278,206,75240,2,0,P|283:150|301:97,1,112,2|0,1:2|1:2,0:0:0:0:
12,44,75451,38,0,P|54:113|135:122,1,168,2|0,1:2|0:0,0:0:0:0:
150,114,75662,1,2,1:2:0:0:
267,13,75768,1,0,1:2:0:0:
410,160,75873,5,10,0:2:0:0:
410,160,76085,1,2,1:2:0:0:
429,169,76137,1,0,3:2:0:0:
443,185,76190,1,2,1:2:0:0:
450,206,76243,1,0,3:2:0:0:
449,227,76296,38,0,B|319:257|406:309|269:339,1,210,10|0,0:2|0:0,0:0:0:0:
267,330,76507,1,2,1:2:0:0:
131,254,76613,1,2,1:2:0:0:
470,235,76718,6,0,B|319:274|416:340|255:356,1,251.999992309571,10|0,0:2|0:0,0:0:0:0:
244,351,76930,1,2,1:2:0:0:
108,275,77035,1,2,1:2:0:0:
267,174,77141,37,10,0:2:0:0:
145,367,77247,1,10,0:2:0:0:
150,149,77352,5,10,0:2:0:0:
341,275,77458,1,10,0:2:0:0:
512,114,77563,38,0,B|449:134|386:73|443:59|450:40|377:-44|285:-14|224:38|278:50|278:50|308:103|365:116|420:75,1,490,10|0,3:2|3:0,0:0:0:0:
408,83,77986,21,0,1:2:0:0:
411,87,78197,2,0,P|396:126|390:167,1,83.9999974365235,2|0,3:2|3:2,0:0:0:0:
229,81,78409,1,2,3:2:0:0:
296,18,78514,2,0,P|310:57|316:98,1,83.9999974365235,2|0,0:2|3:2,0:0:0:0:
144,219,78725,6,0,P|149:177|164:138,1,83.9999974365235,2|0,3:2|3:2,0:0:0:0:
75,277,78937,2,0,P|60:237|54:196,1,83.9999974365235,2|0,3:2|1:2,0:0:0:0:
160,297,79148,1,2,0:2:0:0:
11,382,79254,1,10,0:2:0:0:
11,382,79465,1,10,0:2:0:0:
17,371,79517,1,8,0:2:0:0:
26,363,79570,1,8,0:2:0:0:
37,357,79623,1,8,0:2:0:0:
49,354,79676,37,0,1:2:0:0:
49,354,79887,2,0,P|88:368|129:374,1,83.9999974365235,2|0,3:2|3:2,0:0:0:0:
185,208,80099,1,2,3:2:0:0:
241,276,80204,2,0,P|201:290|160:296,1,83.9999974365235,2|0,0:2|3:2,0:0:0:0:
206,124,80416,6,0,P|247:129|286:144,1,83.9999974365235,2|0,3:2|3:2,0:0:0:0:
145,57,80627,2,0,P|184:42|225:36,1,83.9999974365235,2|0,3:2|1:2,0:0:0:0:
118,141,80838,1,2,0:2:0:0:
320,53,80944,1,10,0:2:0:0:
320,53,81155,1,10,0:2:0:0:
328,62,81207,1,8,0:2:0:0:
338,70,81260,1,8,0:2:0:0:
350,75,81313,1,8,0:2:0:0:
363,76,81366,37,0,1:2:0:0:
363,76,81578,2,0,P|377:115|383:156,1,83.9999974365235,2|0,3:2|3:2,0:0:0:0:
292,140,81789,1,2,3:2:0:0:
472,137,81894,2,0,P|466:178|451:217,1,83.9999974365235,2|0,0:2|3:2,0:0:0:0:
232,256,82106,6,0,P|217:216|211:175,1,83.9999974365235,2|0,3:2|3:2,0:0:0:0:
144,127,82317,2,0,P|158:87|164:46,1,83.9999974365235,2|0,3:2|1:2,0:0:0:0:
236,0,82528,1,2,0:2:0:0:
59,140,82634,1,10,0:2:0:0:
59,140,82845,1,10,0:2:0:0:
57,152,82897,1,8,0:2:0:0:
61,163,82950,1,8,0:2:0:0:
66,174,83003,1,8,0:2:0:0:
74,182,83056,37,0,1:2:0:0:
74,182,83901,6,0,P|81:208|86:236,1,56,2|2,0:2|0:2,0:0:0:0:
159,218,84113,2,0,P|151:191|146:163,1,56,2|2,0:2|0:2,0:0:0:0:
256,240,84324,38,0,P|131:260|10:295,2,251.999992309571,8|2|0,0:2|1:2|1:2,0:0:0:0:
256,240,84958,2,0,P|270:279|276:320,1,83.9999974365235,2|0,3:2|3:2,0:0:0:0:
187,301,85169,1,2,3:2:0:0:
366,298,85275,2,0,P|360:339|345:378,1,83.9999974365235,2|0,0:2|3:2,0:0:0:0:
84,360,85486,6,0,P|89:318|104:279,1,83.9999974365235,2|0,3:2|3:2,0:0:0:0:
29,232,85697,2,0,P|23:190|9:151,1,83.9999974365235,2|0,3:2|1:2,0:0:0:0:
56,79,85909,1,2,0:2:0:0:
167,209,86014,1,10,0:2:0:0:
167,209,86226,1,10,0:2:0:0:
178,213,86279,1,8,0:2:0:0:
190,213,86332,1,8,0:2:0:0:
202,209,86385,1,8,0:2:0:0:
212,202,86437,37,0,1:2:0:0:
212,202,86648,2,0,P|197:162|191:121,1,83.9999974365235,2|0,3:2|3:2,0:0:0:0:
366,126,86859,1,2,3:2:0:0:
279,144,86965,2,0,P|284:102|299:63,1,83.9999974365235,2|0,0:2|3:2,0:0:0:0:
470,13,87176,6,0,P|463:54|448:93,1,83.9999974365235,2|0,3:2|3:2,0:0:0:0:
491,171,87387,2,0,P|497:212|512:251,1,83.9999974365235,2|0,3:2|1:2,0:0:0:0:
469,324,87599,1,2,0:2:0:0:
318,277,87704,1,10,0:2:0:0:
318,277,87916,1,10,0:2:0:0:
308,284,87968,1,8,0:2:0:0:
300,294,88021,1,8,0:2:0:0:
298,306,88074,1,8,0:2:0:0:
299,319,88127,37,0,1:2:0:0:
299,319,88338,2,0,P|259:333|218:339,1,83.9999974365235,2|0,3:2|3:2,0:0:0:0:
218,159,88549,1,2,3:2:0:0:
154,228,88655,2,0,P|193:242|234:248,1,83.9999974365235,2|0,0:2|3:2,0:0:0:0:
363,121,88866,6,0,P|323:106|282:100,1,83.9999974365235,2|0,3:2|3:2,0:0:0:0:
298,14,89078,2,0,P|256:20|217:34,1,83.9999974365235,2|0,3:2|1:2,0:0:0:0:
157,97,89289,1,2,0:2:0:0:
42,10,89394,1,10,0:2:0:0:
42,10,89606,1,10,0:2:0:0:
49,20,89658,1,8,0:2:0:0:
55,32,89711,1,8,0:2:0:0:
57,45,89764,1,8,0:2:0:0:
57,57,89817,37,0,1:2:0:0:
57,57,90662,6,0,B|93:52|116:33|116:33|126:63|152:81,1,125.999996154785,2|0,0:2|0:0,0:0:0:0:
115,243,90873,2,0,B|78:247|55:266|55:266|45:236|19:218,1,125.999996154785,2|0,0:2|0:0,0:0:0:0:
83,150,91085,37,8,0:2:0:0:
94,152,91137,1,8,0:2:0:0:
88,144,91190,1,8,0:2:0:0:
86,155,91242,1,8,0:2:0:0:
75,147,91296,5,8,0:2:0:0:
100,153,91348,1,8,0:2:0:0:
90,138,91401,1,8,0:2:0:0:
85,162,91453,1,8,0:2:0:0:
86,149,91507,37,4,1:2:0:0:
32,352,93837,1,2,1:2:0:0:
32,352,94710,1,2,1:2:0:0:
196,286,95002,6,0,L|206:369,1,83.9999974365235,10|10,3:2|3:2,0:0:0:0:
117,338,95439,1,10,3:2:0:0:
286,318,95584,2,0,L|306:315,3,20.9999993591309,0|0|0|0,3:2|3:2|3:2|3:2,0:0:0:0:
200,290,95875,1,0,3:2:0:0:
200,290,96021,1,0,3:2:0:0:
370,374,96167,38,0,L|453:364,1,83.9999974365235,4|0,1:2|0:0,0:0:0:0:
454,364,97040,2,0,L|474:361,2,20.9999993591309,2|0|2,3:2|3:2|3:2,0:0:0:0:
512,293,97332,1,2,3:2:0:0:
512,293,97477,1,2,3:2:0:0:
444,226,97623,2,0,L|464:223,2,20.9999993591309,2|0|2,3:2|3:2|3:2,0:0:0:0:
364,234,97914,1,2,3:2:0:0:
511,155,98206,2,0,L|509:134,3,20.9999993591309,2|0|2|0,3:2|3:2|3:2|3:2,0:0:0:0:
457,80,98497,5,2,1:2:0:0:
439,36,98642,1,0,1:2:0:0:
340,144,98788,37,0,1:2:0:0:
360,68,98935,1,0,1:2:0:0:
230,188,99079,5,0,1:2:0:0:
198,53,99225,1,0,1:2:0:0:
31,171,99371,38,0,L|2:167,3,28,0|0|0|0,1:2|3:2|1:2|3:2,0:0:0:0:
76,105,99662,5,0,1:2:0:0:
168,132,99807,1,0,1:2:0:0:
293,242,99953,37,0,1:2:0:0:
120,293,100099,1,0,1:2:0:0:
407,354,100244,6,0,L|401:398,3,35,0|0|0|0,1:2|0:0|1:2|0:0,0:0:0:0:
472,302,100536,2,0,L|469:284,6,17.5,0|0|0|0|0|0|0,1:2|3:2|3:2|3:2|3:2|3:2|3:2,0:0:0:0:
324,359,100827,38,0,B|258:352|258:352|255:348|255:348|187:341,1,140,6|0,1:2|3:2,0:0:0:0:
187,340,101701,2,0,L|182:379,2,35,2|0|2,3:2|3:2|3:2,0:0:0:0:
121,282,101992,1,10,0:2:0:0:
203,249,102138,1,2,3:2:0:0:
133,197,102283,2,0,L|128:162,2,35,2|0|2,3:2|3:2|3:2,0:0:0:0:
54,228,102574,1,2,3:2:0:0:
1,158,102720,1,2,3:2:0:0:
68,102,102866,1,2,3:2:0:0:
68,102,102939,1,0,0:0:0:0:
68,102,103011,1,2,3:2:0:0:
4,32,103157,6,0,B|32:9|32:9|135:24,1,140,2|0,1:2|3:2,0:0:0:0:
135,24,104031,2,0,L|174:28,2,35,2|0|2,1:2|3:2|3:2,0:0:0:0:
218,117,104322,1,10,0:2:0:0:
302,20,104468,1,2,3:2:0:0:
387,112,104613,2,0,L|352:107,2,35,2|0|2,3:2|3:2|3:2,0:0:0:0:
459,23,104905,1,2,3:2:0:0:
512,125,105050,1,2,3:2:0:0:
441,220,105196,1,2,3:2:0:0:
441,220,105269,1,0,3:2:0:0:
441,220,105341,1,2,3:2:0:0:
505,317,105487,38,0,B|432:325|432:325|417:343|417:343|373:348,1,140,2|0,1:2|3:2,0:0:0:0:
374,347,106361,2,0,L|378:386,2,35,2|0|2,3:2|3:2|3:2,0:0:0:0:
251,379,106652,1,10,0:2:0:0:
181,273,106798,1,2,3:2:0:0:
266,181,106943,2,0,L|261:141,2,35,2|0|2,3:2|3:2|3:2,0:0:0:0:
385,225,107235,1,2,3:2:0:0:
268,295,107380,1,2,3:2:0:0:
149,376,107526,1,2,3:2:0:0:
149,376,107599,1,0,3:2:0:0:
149,376,107672,1,2,3:2:0:0:
25,272,107817,6,0,L|91:0,1,280,2|0,1:2|0:0,0:0:0:0:
70,192,108982,38,0,L|44:90,1,105,2|0,0:2|0:0,0:0:0:0:
82,20,109565,5,8,0:2:0:0:
112,3,109638,1,8,0:2:0:0:
146,3,109710,1,8,0:2:0:0:
177,19,109783,1,8,0:2:0:0:
194,49,109856,37,8,0:2:0:0:
211,61,109929,1,8,0:2:0:0:
230,68,110002,1,8,0:2:0:0:
250,64,110074,1,8,0:2:0:0:
266,54,110147,22,0,B|354:76|295:110|386:130,1,140,6|2,1:2|3:2,0:0:0:0:
254,142,110730,1,2,0:2:0:0:
402,45,111021,2,0,P|396:25|391:7,3,35,2|0|0|0,3:2|3:2|3:2|3:2,0:0:0:0:
461,106,111312,6,0,P|495:96|530:91,1,70,10|0,0:2|3:2,0:0:0:0:
325,199,111604,2,0,P|319:215|315:232,3,35,2|0|0|0,3:2|3:2|3:2|3:2,0:0:0:0:
378,128,111895,1,2,3:2:0:0:
423,198,112040,1,0,3:2:0:0:
469,268,112186,1,2,3:2:0:0:
466,281,112259,1,0,3:2:0:0:
463,294,112332,1,0,3:2:0:0:
460,307,112405,1,0,3:2:0:0:
457,320,112477,38,0,P|389:339|325:367,1,140,2|2,1:2|3:2,0:0:0:0:
247,265,113060,1,2,0:2:0:0:
138,367,113351,2,0,P|154:361|171:357,3,35,2|0|0|0,1:2|3:2|3:2|3:2,0:0:0:0:
92,303,113642,6,0,P|58:293|23:288,1,70,10|0,0:2|3:2,0:0:0:0:
138,237,113934,2,0,P|154:241|171:246,3,35,2|0|0|0,3:2|3:2|3:2|3:2,0:0:0:0:
106,164,114225,1,2,3:2:0:0:
158,98,114371,1,0,3:2:0:0:
110,29,114516,1,2,3:2:0:0:
97,32,114589,1,0,3:2:0:0:
84,35,114662,1,2,3:2:0:0:
71,38,114735,1,0,3:2:0:0:
58,41,114807,38,0,P|8:87|28:158,1,140,2|2,1:2|3:2,0:0:0:0:
138,237,115390,1,2,0:2:0:0:
24,333,115681,2,0,P|19:316|14:299,3,35,2|0|0|0,3:2|3:2|3:2|3:2,0:0:0:0:
98,384,115973,6,0,P|103:349|112:315,1,70,10|0,0:2|3:2,0:0:0:0:
209,197,116264,2,0,P|213:180|218:163,3,35,2|0|0|0,3:2|3:2|3:2|3:2,0:0:0:0:
138,237,116555,1,2,3:2:0:0:
204,288,116701,1,0,3:2:0:0:
271,338,116847,1,2,3:2:0:0:
284,341,116919,1,0,3:2:0:0:
297,344,116992,1,0,3:2:0:0:
310,347,117065,1,0,3:2:0:0:
323,350,117138,38,0,B|373:377|417:359|417:359|392:356|372:335,1,140,2|2,1:2|3:2,0:0:0:0:
301,218,117720,1,2,0:2:0:0:
438,244,118011,2,0,P|432:260|428:277,3,35,2|0|0|0,1:2|3:2|3:2|3:2,0:0:0:0:
378,191,118303,5,10,0:2:0:0:
375,178,118375,1,0,3:2:0:0:
372,165,118448,1,0,3:2:0:0:
369,152,118521,1,0,3:2:0:0:
366,139,118594,2,0,P|354:134|342:130,8,17.5,0|0|0|0|0|0|0|0|0,3:2|3:2|3:2|3:2|3:2|3:2|3:2|3:2|3:2,0:0:0:0:
366,139,119176,1,2,1:2:0:0:
461,89,119468,38,0,P|396:61|329:42,1,140,6|2,1:2|3:2,0:0:0:0:
221,148,120050,1,2,0:2:0:0:
102,33,120341,2,0,P|97:16|92:0,3,35,2|0|0|0,3:2|3:2|3:2|3:2,0:0:0:0:
172,79,120633,6,0,P|205:70|240:65,1,70,10|0,0:2|3:2,0:0:0:0:
125,147,120924,2,0,P|120:163|115:180,3,35,2|0|0|0,3:2|3:2|3:2|3:2,0:0:0:0:
60,101,121215,1,2,3:2:0:0:
37,182,121361,1,0,3:2:0:0:
16,263,121506,1,2,3:2:0:0:
18,278,121579,1,0,3:2:0:0:
21,291,121652,1,0,3:2:0:0:
24,305,121725,1,0,3:2:0:0:
27,318,121798,38,0,B|117:332|61:371|154:384,1,140,2|2,1:2|3:2,0:0:0:0:
308,342,122380,1,2,0:2:0:0:
165,269,122672,2,0,P|159:285|155:302,3,35,2|0|0|0,1:2|3:2|3:2|3:2,0:0:0:0:
234,214,122963,6,0,P|243:247|248:282,1,70,10|0,0:2|3:2,0:0:0:0:
306,167,123254,2,0,P|311:183|315:200,3,35,2|0|0|0,3:2|3:2|3:2|3:2,0:0:0:0:
231,134,123545,1,2,3:2:0:0:
296,81,123691,1,0,3:2:0:0:
363,31,123836,1,2,3:2:0:0:
378,32,123909,1,0,3:2:0:0:
391,34,123982,1,2,3:2:0:0:
406,35,124055,1,0,3:2:0:0:
419,37,124128,38,0,P|469:83|449:154,1,140,2|2,1:2|3:2,0:0:0:0:
348,270,124710,1,2,0:2:0:0:
479,379,125002,2,0,P|495:373|512:369,3,35,2|0|0|0,3:2|3:2|3:2|3:2,0:0:0:0:
425,320,125293,6,0,P|429:285|438:251,1,70,10|0,0:2|3:2,0:0:0:0:
350,361,125584,2,0,P|333:355|316:351,3,35,2|0|0|0,3:2|3:2|3:2|3:2,0:0:0:0:
273,286,125875,1,2,3:2:0:0:
195,319,126021,1,0,3:2:0:0:
118,353,126166,1,2,3:2:0:0:
103,352,126239,1,0,3:2:0:0:
90,350,126312,1,0,3:2:0:0:
76,348,126385,1,0,3:2:0:0:
63,346,126458,38,0,P|46:243|18:142,1,210,2|0,1:2|0:0,0:0:0:0:
63,347,127623,6,0,P|70:295|83:244,1,105,2|0,1:2|0:0,0:0:0:0:
83,244,128788,6,0,P|111:224|146:221,1,70,2|0,1:2|0:0,0:0:0:0:
153,138,128999,2,0,P|186:144|213:167,1,70,2|0,3:2|3:2,0:0:0:0:
230,249,129211,1,2,3:2:0:0:
146,53,129421,6,0,P|112:59|85:82,1,70,2|0,1:2|0:0,0:0:0:0:
22,26,129633,2,0,P|2:54|0:89,1,70,2|0,3:2|3:2,0:0:0:0:
47,159,129844,1,2,3:2:0:0:
220,0,130055,37,10,0:2:0:0:
220,0,130160,1,2,0:2:0:0:
305,29,130266,1,2,0:2:0:0:
305,29,130478,6,0,P|339:24|374:23,1,70,2|0,1:2|0:0,0:0:0:0:
401,102,130689,2,0,P|428:123|454:146,1,70,2|0,3:2|3:2,0:0:0:0:
421,224,130900,1,2,3:2:0:0:
305,29,131111,38,0,P|339:24|374:23,1,70,2|0,1:2|0:0,0:0:0:0:
401,102,131323,2,0,P|428:123|454:146,1,70,2|0,3:2|3:2,0:0:0:0:
195,384,131534,6,0,B|206:340|206:340|210:338|210:338|220:299,1,90.9999958343508,2|0,3:2|3:2,0:0:0:0:
305,29,131745,1,10,0:2:0:0:
222,58,131957,1,2,0:2:0:0:
435,259,132168,38,0,P|386:316|312:320,1,154.000004699707,2|0,1:2|0:0,0:0:0:0:
312,320,132485,1,0,3:2:0:0:
283,233,132590,2,0,P|250:213|212:215,1,77.0000023498536,10|0,0:2|0:0,0:0:0:0:
201,133,132802,2,0,P|164:142|138:170,1,77.0000023498536,0|0,3:2|0:0,0:0:0:0:
30,382,133013,6,0,P|23:303|-1:224,1,154.000004699707,2|2,1:2|0:2,0:0:0:0:
1,231,133330,1,0,3:2:0:0:
45,153,133435,2,0,P|49:114|56:77,1,77.0000023498536,10|0,0:2|0:0,0:0:0:0:
147,61,133647,2,0,P|177:36|209:15,1,77.0000023498536,2|0,3:2|0:0,0:0:0:0:
482,154,133858,38,0,B|341:116|437:65|293:33,1,231.000007049561,2|0,1:2|3:2,0:0:0:0:
482,54,134280,1,8,0:2:0:0:
294,136,134492,1,0,3:2:0:0:
470,229,134703,2,0,P|474:190|481:153,1,77.0000023498536,0|0,1:2|0:0,0:0:0:0:
384,269,134914,2,0,P|379:230|372:193,1,77.0000023498536,8|0,0:2|0:0,0:0:0:0:
477,384,135126,5,8,0:2:0:0:
397,356,135231,1,8,0:2:0:0:
315,380,135337,1,8,0:2:0:0:
235,352,135442,1,8,0:2:0:0:
149,384,135548,38,0,P|144:350|142:315,1,70,2|0,1:2|0:0,0:0:0:0:
61,290,135759,2,0,P|81:262|104:236,1,70,2|0,3:2|3:2,0:0:0:0:
189,245,135971,1,2,3:2:0:0:
194,31,136182,6,0,P|199:65|201:100,1,70,2|0,1:2|0:0,0:0:0:0:
282,125,136393,2,0,P|261:152|238:178,1,70,2|0,3:2|3:2,0:0:0:0:
154,170,136605,1,2,3:2:0:0:
317,5,136816,37,10,0:2:0:0:
317,5,136921,1,2,0:2:0:0:
382,64,137027,1,2,0:2:0:0:
382,64,137238,6,0,P|402:92|405:127,1,70,2|0,1:2|0:0,0:0:0:0:
488,138,137449,2,0,P|482:171|459:198,1,70,2|0,3:2|3:2,0:0:0:0:
375,208,137661,1,2,3:2:0:0:
382,64,137872,38,0,P|402:92|405:127,1,70,2|0,1:2|0:0,0:0:0:0:
488,138,138083,2,0,P|482:171|459:198,1,70,2|0,3:2|3:2,0:0:0:0:
511,265,138295,2,0,P|482:285|447:288,1,70,2|0,3:2|3:2,0:0:0:0:
297,219,138506,6,0,B|169:252|256:299|125:328,1,210,10|0,0:2|0:0,0:0:0:0:
0,354,138928,38,0,P|100:313|92:205,1,231.000007049561,2|0,1:2|0:0,0:0:0:0:
19,161,139351,1,10,0:2:0:0:
162,152,139562,2,0,P|132:127|95:121,1,77.0000023498536,2|0,1:2|0:0,0:0:0:0:
217,21,139773,6,0,P|249:131|258:246,1,231.000007049561,2|0,1:2|0:0,0:0:0:0:
200,312,140196,1,10,0:2:0:0:
352,228,140407,2,0,P|341:265|336:303,1,77.0000023498536,2|0,1:2|0:0,0:0:0:0:
53,352,140618,38,0,P|97:361|139:379,1,90.9999958343508,2|0,1:2|0:0,0:0:0:0:
360,147,140830,1,8,0:2:0:0:
308,128,140935,1,8,0:2:0:0:
258,151,141041,2,0,P|236:191|240:237,1,90.9999958343508,0|0,1:2|0:0,0:0:0:0:
153,239,141252,2,0,P|165:282|201:312,1,90.9999958343508,8|0,0:2|0:0,0:0:0:0:
512,43,141464,6,0,P|460:54|413:77,1,105.000004005432,2|0,1:2|0:0,0:0:0:0:
153,239,141675,1,8,0:2:0:0:
199,311,141780,1,8,0:2:0:0:
282,303,141886,2,0,P|305:256|296:206,1,105.000004005432,0|0,1:2|0:0,0:0:0:0:
380,199,142097,2,0,P|363:150|321:120,1,105.000004005432,8|0,0:2|0:0,0:0:0:0:
23,218,142309,38,0,P|256:187|491:179,2,470.399985644532,2|2|2,1:2|0:2|0:2,0:0:0:0:
24,218,146745,6,0,B|35:143|0:169|9:87,1,125.999996154785,2|2,0:2|0:2,0:0:0:0:
147,57,146957,6,0,P|126:76|135:48,14,77.0000023498536,0|0|0|0|0|0|0|0|0|0|0|0|0|0|0,3:2|3:2|3:2|3:2|3:2|3:2|3:2|3:2|3:2|3:2|3:2|3:2|3:2|3:2|3:2,0:0:0:0:
147,57,147379,6,0,B|113:49|94:65|94:65|131:-21|257:40|169:120|310:115,1,308.000009399414,6|2,1:2|0:2,0:0:0:0:
424,220,147696,1,2,0:2:0:0:
400,48,147802,2,0,P|354:20|299:26,1,112,10|0,0:2|0:0,0:0:0:0:
442,311,148013,2,0,P|490:284|512:234,1,112,2|0,1:2|0:0,0:0:0:0:
192,205,148224,38,0,P|218:284|231:367,1,168,2|0,0:2|0:0,0:0:0:0:
233,384,148435,1,2,1:2:0:0:
292,211,148541,1,0,1:2:0:0:
112,153,148647,6,0,B|49:162|73:192|14:201,1,112,10|0,0:2|0:0,0:0:0:0:
120,29,148858,1,2,3:2:0:0:
142,32,148911,1,0,3:2:0:0:
161,44,148964,1,0,3:2:0:0:
173,62,149016,1,0,3:2:0:0:
178,84,149069,38,0,B|252:165|351:97|351:97|354:27|426:14,1,308.000009399414,2|2,1:2|0:2,0:0:0:0:
266,35,149386,1,2,0:2:0:0:
442,101,149492,2,0,P|427:155|419:210,1,112,10|0,0:2|0:0,0:0:0:0:
272,361,149703,2,0,P|264:305|249:251,1,112,2|0,1:2|0:0,0:0:0:0:
507,214,149914,6,0,P|468:285|388:294,1,168,2|0,0:2|0:0,0:0:0:0:
374,285,150125,1,2,1:2:0:0:
261,161,150231,1,0,1:2:0:0:
116,271,150337,38,0,B|94:244|105:210|105:210|118:237|137:245,1,112,10|0,0:2|0:0,0:0:0:0:
272,361,150548,1,2,3:2:0:0:
283,341,150601,1,0,3:2:0:0:
283,318,150654,1,0,3:2:0:0:
278,296,150707,1,0,3:2:0:0:
264,280,150759,6,0,P|149:296|38:332,1,231.000007049561,2|0,1:2|0:0,0:0:0:0:
22,338,150971,2,0,P|67:344|110:357,1,90.9999958343508,2|0,0:2|0:0,0:0:0:0:
242,129,151182,38,0,P|127:145|16:181,1,231.000007049561,10|0,0:2|0:0,0:0:0:0:
0,187,151394,2,0,P|45:193|88:206,1,90.9999958343508,2|0,1:2|0:0,0:0:0:0:
342,153,151604,6,0,P|271:114|264:34,1,168,2|0,0:2|0:0,0:0:0:0:
275,21,151816,1,2,1:2:0:0:
432,134,151921,1,0,1:2:0:0:
320,308,152027,38,0,B|257:298|281:268|222:259,1,112,10|0,0:2|0:0,0:0:0:0:
104,361,152238,1,2,3:2:0:0:
114,341,152291,1,0,3:2:0:0:
132,328,152344,1,0,3:2:0:0:
154,324,152397,1,0,3:2:0:0:
173,326,152449,6,0,B|234:330|273:292|273:292|271:278|271:278|306:239|369:245,1,231.000007049561,2|0,1:2|0:0,0:0:0:0:
386,253,152661,1,2,0:2:0:0:
242,129,152766,1,2,0:2:0:0:
28,308,152872,38,0,P|21:253|50:206,1,112,10|0,0:2|0:0,0:0:0:0:
0,62,153083,2,0,P|34:18|87:5,1,112,2|0,1:2|0:0,0:0:0:0:
320,168,153295,5,2,1:2:0:0:
353,61,153400,1,0,1:2:0:0:
243,219,153506,37,0,1:2:0:0:
184,56,153611,1,0,1:2:0:0:
248,310,153717,5,8,3:2:0:0:
264,323,153770,1,0,3:2:0:0:
288,328,153822,1,8,0:2:0:0:
319,322,153875,1,0,3:2:0:0:
349,303,153928,1,8,0:2:0:0:
377,271,153981,1,0,3:2:0:0:
414,245,154034,1,8,0:2:0:0:
465,247,154086,1,0,3:2:0:0:
500,294,154140,38,0,B|440:273|404:319|434:313|400:366|331:399|256:341|280:276|326:250|362:272,1,308.000009399414,2|2,1:2|0:2,0:0:0:0:
483,384,154457,1,2,0:2:0:0:
239,226,154562,2,0,P|207:271|211:326,1,112,10|0,0:2|0:0,0:0:0:0:
449,176,154773,2,0,P|425:126|375:102,1,112,2|0,1:2|0:0,0:0:0:0:
120,108,154985,6,0,P|199:134|282:147,1,168,2|0,0:2|0:0,0:0:0:0:
299,149,155196,1,2,1:2:0:0:
156,25,155302,1,0,1:2:0:0:
48,209,155407,38,0,B|26:182|37:148|37:148|50:175|69:183,1,112,10|0,0:2|0:0,0:0:0:0:
93,328,155618,1,2,3:2:0:0:
84,307,155671,1,0,3:2:0:0:
65,294,155724,1,0,3:2:0:0:
42,294,155777,1,0,3:2:0:0:
22,305,155830,6,0,B|156:322|94:231|239:252|239:252|195:252|173:292,1,308.000009399414,2|2,1:2|0:2,0:0:0:0:
48,209,156147,1,2,0:2:0:0:
251,340,156252,2,0,P|305:325|360:317,1,112,10|0,0:2|0:0,0:0:0:0:
127,136,156464,2,0,P|72:121|17:113,1,112,2|0,1:2|0:0,0:0:0:0:
241,18,156675,38,0,P|299:73|288:153,1,168,2|0,0:2|0:0,0:0:0:0:
275,164,156886,1,2,1:2:0:0:
382,21,156992,1,0,1:2:0:0:
512,192,157097,6,0,B|449:182|473:152|414:143,1,112,10|0,0:2|0:0,0:0:0:0:
344,297,157309,1,2,3:2:0:0:
365,290,157361,1,0,3:2:0:0:
381,274,157414,1,0,3:2:0:0:
390,253,157467,1,0,3:2:0:0:
388,229,157520,38,0,P|278:196|209:286,1,231.000007049561,2|0,1:2|0:0,0:0:0:0:
207,292,157731,2,0,P|217:336|224:381,1,90.9999958343508,2|0,0:2|0:0,0:0:0:0:
330,99,157942,6,0,P|440:66|509:156,1,231.000007049561,10|0,0:2|0:0,0:0:0:0:
511,162,158153,2,0,P|501:206|494:251,1,90.9999958343508,2|0,1:2|0:0,0:0:0:0:
333,384,158365,37,2,0:2:0:0:
388,229,158471,1,0,0:0:0:0:
496,346,158576,5,2,1:2:0:0:
308,286,158682,1,0,1:2:0:0:
118,228,158788,38,0,B|96:254|107:288|107:288|120:261|139:253,1,112,10|0,0:2|0:0,0:0:0:0:
87,85,158999,1,2,3:2:0:0:
67,95,159052,1,0,3:2:0:0:
56,114,159104,1,0,3:2:0:0:
57,136,159157,1,0,3:2:0:0:
66,153,159210,6,0,B|229:121|124:60|293:32,1,265.999992897034,10|0,0:2|0:0,0:0:0:0:
390,87,159527,1,0,1:2:0:0:
53,18,159632,38,0,B|252:51|126:119|313:155,1,293.999991027832,8|0,0:2|0:0,0:0:0:0:
390,87,159950,1,0,1:2:0:0:
0,101,160055,6,0,P|238:63|478:41,1,483.000009212494,8|0,0:2|0:0,0:0:0:0:
292,32,160478,37,10,0:2:0:0:
468,133,160583,1,10,0:2:0:0:
277,42,160689,5,10,0:2:0:0:
483,123,160795,1,10,0:2:0:0:
263,242,160900,38,0,P|254:183|238:126,1,119.000002269745,6|2,1:2|0:2,0:0:0:0:
428,216,161111,1,2,1:2:0:0:
345,177,161217,1,2,1:2:0:0:
511,253,161323,5,10,0:2:0:0:
361,285,161428,1,2,0:2:0:0:
288,384,161534,37,2,1:2:0:0:
191,360,161639,1,2,1:2:0:0:
163,281,161745,6,0,B|56:253|126:212|18:187,1,178.500003404617,2|0,1:2|0:0,0:0:0:0:
4,198,161957,1,2,1:2:0:0:
127,96,162062,1,2,1:2:0:0:
263,242,162168,37,10,0:2:0:0:
263,242,162379,5,2,1:2:0:0:
193,204,162485,1,2,1:2:0:0:
353,60,162590,38,0,P|336:117|327:176,1,112,2|0,1:2|0:0,0:0:0:0:
427,360,162802,1,2,1:2:0:0:
499,306,162907,1,0,1:2:0:0:
287,324,163013,5,10,0:2:0:0:
500,172,163118,2,0,B|396:199|464:238|353:265,1,168,2|0,0:2|0:0,0:0:0:0:
348,262,163330,1,2,1:2:0:0:
219,384,163435,37,2,1:2:0:0:
263,242,163541,1,2,0:2:0:0:
146,339,163647,5,2,1:2:0:0:
118,327,163699,1,0,3:2:0:0:
88,327,163752,1,0,1:2:0:0:
61,341,163805,1,0,3:2:0:0:
41,361,163858,2,0,P|12:314|19:259,1,112,10|0,0:2|0:0,0:0:0:0:
58,68,164069,37,2,1:2:0:0:
69,87,164122,1,0,3:2:0:0:
69,109,164175,1,0,1:2:0:0:
59,129,164228,1,0,3:2:0:0:
45,145,164280,6,0,B|11:137|-8:153|-8:153|29:67|155:128|67:208|208:203,1,308.000009399414,2|2,1:2|1:2,0:0:0:0:
432,109,164597,1,2,1:2:0:0:
213,7,164703,2,0,P|181:56|187:114,1,119.000002269745,10|0,0:2|0:0,0:0:0:0:
453,258,164914,2,0,P|426:206|372:182,1,119.000002269745,2|0,1:2|1:2,0:0:0:0:
25,333,165126,38,0,P|109:305|197:290,1,178.500003404617,2|0,1:2|0:0,0:0:0:0:
214,289,165337,1,2,1:2:0:0:
306,123,165442,1,0,1:2:0:0:
453,258,165548,6,0,B|476:229|464:193|464:193|450:221|437:225,1,112,10|0,0:2|0:0,0:0:0:0:
510,326,165759,1,2,1:2:0:0:
491,340,165812,1,0,3:2:0:0:
468,347,165865,1,0,1:2:0:0:
444,346,165918,1,0,3:2:0:0:
422,340,165971,38,0,B|348:421|249:353|249:353|246:283|174:270,1,308.000009399414,2|2,1:2|1:2,0:0:0:0:
321,208,166288,1,2,1:2:0:0:
154,361,166393,2,0,P|96:344|37:335,1,119.000002269745,10|0,0:2|0:0,0:0:0:0:
306,123,166604,2,0,P|363:106|422:97,1,119.000002269745,2|0,1:2|1:2,0:0:0:0:
81,228,166816,5,2,1:2:0:0:
50,113,166921,1,0,1:2:0:0:
184,272,167027,37,0,1:2:0:0:
226,100,167133,1,0,1:2:0:0:
277,316,167238,5,8,0:2:0:0:
261,303,167291,1,0,3:2:0:0:
237,298,167343,1,8,0:2:0:0:
206,304,167396,1,0,3:2:0:0:
176,323,167449,1,10,0:2:0:0:
148,355,167502,1,0,3:2:0:0:
111,381,167555,1,10,0:2:0:0:
60,379,167607,1,0,3:2:0:0:
24,334,167661,38,0,P|16:275|-1:218,1,119.000002269745,6|0,1:2|0:0,0:0:0:0:
229,0,167872,2,0,P|212:56|204:115,1,119.000002269745,2|0,1:2|1:2,0:0:0:0:
509,209,168083,5,10,0:2:0:0:
342,268,168189,1,2,0:2:0:0:
388,339,168295,37,2,1:2:0:0:
184,272,168400,2,0,B|288:245|220:206|331:179,1,178.500003404617,2|0,1:2|0:0,0:0:0:0:
347,185,168611,1,2,0:2:0:0:
161,191,168717,5,2,1:2:0:0:
312,101,168823,1,2,1:2:0:0:
138,5,168928,37,10,0:2:0:0:
138,5,169140,5,2,1:2:0:0:
185,72,169245,1,2,1:2:0:0:
296,7,169351,37,2,1:2:0:0:
239,146,169457,1,2,0:2:0:0:
414,171,169562,5,2,1:2:0:0:
453,264,169668,1,2,1:2:0:0:
255,267,169773,38,0,P|308:252|364:243,1,112,10|2,0:2|0:2,0:0:0:0:
222,358,169985,1,2,1:2:0:0:
161,294,170090,1,2,1:2:0:0:
1,368,170196,5,2,1:2:0:0:
101,228,170302,1,2,0:2:0:0:
0,70,170407,37,2,1:2:0:0:
28,81,170460,1,0,3:2:0:0:
57,82,170513,1,0,1:2:0:0:
82,67,170566,1,0,3:2:0:0:
100,47,170618,2,0,P|146:19|201:26,1,112,10|0,0:2|0:0,0:0:0:0:
441,197,170830,5,2,1:2:0:0:
459,185,170883,1,0,3:2:0:0:
469,166,170935,1,0,1:2:0:0:
468,144,170988,1,0,3:2:0:0:
464,124,171041,38,0,B|404:145|368:99|398:105|364:52|295:19|220:77|244:142|290:168|326:146,1,308.000009399414,2|2,1:2|1:2,0:0:0:0:
457,39,171358,1,2,1:2:0:0:
359,233,171464,2,0,P|367:292|384:350,1,119.000002269745,10|0,0:2|0:0,0:0:0:0:
166,137,171675,2,0,P|182:80|191:21,1,119.000002269745,2|0,1:2|1:2,0:0:0:0:
456,225,171886,6,0,P|409:146|328:141,1,178.500003404617,2|0,1:2|0:0,0:0:0:0:
314,151,172097,1,2,1:2:0:0:
228,287,172203,1,0,1:2:0:0:
41,240,172309,37,10,0:2:0:0:
41,240,172520,1,2,1:2:0:0:
25,222,172573,1,0,3:2:0:0:
17,200,172626,1,2,1:2:0:0:
17,177,172678,1,0,3:2:0:0:
23,155,172731,6,0,B|167:122|70:64|222:31,1,231.000007049561,10|0,0:2|0:0,0:0:0:0:
228,32,172942,1,2,1:2:0:0:
342,168,173048,1,2,1:2:0:0:
0,143,173154,38,0,B|171:107|61:37|241:5,1,272.999987503052,10|0,0:2|0:0,0:0:0:0:
246,9,173365,1,2,1:2:0:0:
360,145,173471,1,2,1:2:0:0:
175,181,173576,5,10,0:2:0:0:
355,32,173682,1,10,0:2:0:0:
512,246,173788,37,10,3:2:0:0:
491,286,173840,1,0,3:0:0:0:
450,308,173893,1,10,3:2:0:0:
404,302,173946,1,0,3:0:0:0:
366,277,173999,6,0,P|253:305|139:321,1,231.000007049561,10|0,3:2|0:0,0:0:0:0:
122,317,174210,1,10,0:2:0:0:
279,384,174316,1,0,0:0:0:0:
430,213,174421,6,0,P|452:175|446:130,1,90.9999958343508,4|0,1:2|0:0,0:0:0:0:
267,80,174633,2,0,P|313:73|357:57,1,90.9999958343508,2|0,3:2|0:0,0:0:0:0:
219,248,174844,1,10,0:2:0:0:
196,156,174949,2,0,P|242:164|286:180,1,90.9999958343508,2|0,0:0|3:2,0:0:0:0:
127,31,175161,6,0,P|84:46|39:54,1,90.9999958343508,2|0,0:0|1:2,0:0:0:0:
108,127,175372,1,2,3:2:0:0:
54,201,175478,2,0,P|57:224|59:247,1,45.4999979171754,0|0,3:2|3:2,0:0:0:0:
0,359,175583,2,0,P|17:345|36:332,1,45.4999979171754,2|0,3:2|3:2,0:0:0:0:
122,317,175689,1,10,0:2:0:0:
122,317,175900,1,2,3:2:0:0:
144,320,175953,1,0,3:2:0:0:
165,313,176006,1,0,3:2:0:0:
181,297,176059,1,0,3:2:0:0:
191,278,176111,38,0,P|229:256|274:262,1,90.9999958343508,0|0,1:2|0:0,0:0:0:0:
343,384,176323,2,0,P|358:342|364:297,1,90.9999958343508,2|0,3:2|0:0,0:0:0:0:
512,178,176534,1,10,0:2:0:0:
442,247,176640,2,0,P|426:205|420:160,1,90.9999958343508,2|0,0:0|3:2,0:0:0:0:
321,4,176851,6,0,P|314:49|299:92,1,90.9999958343508,2|0,0:0|1:2,0:0:0:0:
402,70,177062,1,2,3:2:0:0:
330,176,177168,2,0,P|307:179|284:181,1,45.4999979171754,0|0,3:2|3:2,0:0:0:0:
188,83,177273,2,0,P|202:102|215:121,1,45.4999979171754,2|0,3:2|3:2,0:0:0:0:
199,206,177379,1,10,0:2:0:0:
199,206,177590,1,2,3:2:0:0:
179,219,177643,1,0,3:2:0:0:
156,221,177696,1,0,3:2:0:0:
134,213,177749,1,0,3:2:0:0:
116,199,177802,38,0,P|94:237|100:282,1,90.9999958343508,0|0,1:2|0:0,0:0:0:0:
282,332,178013,2,0,P|239:317|194:311,1,90.9999958343508,2|0,3:2|0:0,0:0:0:0:
305,149,178224,1,10,0:2:0:0:
370,216,178330,2,0,P|327:232|282:238,1,90.9999958343508,2|0,0:0|3:2,0:0:0:0:
361,363,178541,6,0,P|405:370|448:384,1,90.9999958343508,2|0,3:2|1:2,0:0:0:0:
429,286,178752,1,2,3:2:0:0:
512,246,178858,2,0,P|509:223|507:200,1,45.4999979171754,0|0,3:2|3:2,0:0:0:0:
394,130,178964,2,0,P|415:139|436:149,1,45.4999979171754,2|0,3:2|3:2,0:0:0:0:
512,109,179069,1,10,0:2:0:0:
512,109,179280,1,2,3:2:0:0:
494,94,179333,1,0,3:2:0:0:
486,73,179386,1,0,3:2:0:0:
485,51,179439,1,0,3:2:0:0:
490,29,179492,38,0,P|445:23|402:8,1,90.9999958343508,0|0,1:2|0:0,0:0:0:0:
253,47,179703,6,0,P|350:103|339:215,1,238.00000453949,2|8,3:2|0:2,0:0:0:0:
339,215,180020,1,0,0:0:0:0:
257,235,180126,38,0,P|192:197|191:121,1,157.500006008148,2|0,3:2|0:0,0:0:0:0:
202,110,180337,5,0,1:2:0:0:
94,245,180442,1,0,1:2:0:0:
16,78,180548,1,2,1:2:0:0:
34,60,180601,1,0,3:0:0:0:
59,53,180654,1,0,1:2:0:0:
85,54,180707,1,0,3:2:0:0:
107,66,180759,37,8,0:2:0:0:
248,17,180865,1,8,0:2:0:0:
75,146,180971,5,10,0:2:0:0:
297,174,181077,1,8,0:2:0:0:
94,245,181182,38,0,P|71:284|78:329,1,90.9999958343508,4|0,1:2|0:0,0:0:0:0:
293,383,181393,2,0,P|277:341|271:296,1,90.9999958343508,2|0,3:2|0:0,0:0:0:0:
94,245,181604,1,10,0:2:0:0:
168,311,181710,2,0,P|183:269|189:224,1,90.9999958343508,2|0,0:0|3:2,0:0:0:0:
0,93,181921,6,0,P|6:138|21:181,1,90.9999958343508,2|0,0:0|1:2,0:0:0:0:
97,117,182133,1,2,3:2:0:0:
183,43,182238,2,0,P|181:66|178:89,1,45.4999979171754,0|0,3:2|3:2,0:0:0:0:
303,31,182344,2,0,P|284:18|266:5,1,45.4999979171754,2|0,3:2|3:2,0:0:0:0:
267,118,182449,1,10,0:2:0:0:
267,118,182661,1,2,3:2:0:0:
288,127,182714,1,0,3:2:0:0:
310,130,182766,1,0,3:2:0:0:
332,125,182819,1,0,3:2:0:0:
350,112,182872,38,0,P|388:90|433:97,1,90.9999958343508,0|0,1:2|0:0,0:0:0:0:
429,269,183083,2,0,P|413:227|407:182,1,90.9999958343508,2|0,3:2|0:0,0:0:0:0:
243,275,183295,1,10,0:2:0:0:
308,343,183400,2,0,P|323:301|329:256,1,90.9999958343508,2|0,0:0|3:2,0:0:0:0:
198,125,183611,6,0,P|182:168|176:213,1,90.9999958343508,2|0,0:0|1:2,0:0:0:0:
268,188,183823,1,2,3:2:0:0:
332,125,183928,2,0,P|329:103|327:80,1,45.4999979171754,0|0,3:2|3:2,0:0:0:0:
450,142,184034,2,0,P|431:156|413:169,1,45.4999979171754,2|0,3:2|3:2,0:0:0:0:
424,47,184140,1,10,0:2:0:0:
424,47,184351,1,2,3:2:0:0:
444,37,184404,1,0,3:2:0:0:
466,35,184457,1,0,3:2:0:0:
487,43,184509,1,0,3:2:0:0:
501,61,184562,38,0,P|507:106|485:145,1,90.9999958343508,0|0,1:2|0:0,0:0:0:0:
355,205,184773,2,0,P|397:221|442:227,1,90.9999958343508,2|0,3:2|0:0,0:0:0:0:
304,377,184985,1,10,0:2:0:0:
241,310,185090,2,0,P|283:295|328:289,1,90.9999958343508,2|0,0:0|3:2,0:0:0:0:
329,120,185302,6,0,P|284:114|241:99,1,90.9999958343508,2|0,0:0|1:2,0:0:0:0:
264,201,185513,1,2,3:2:0:0:
185,171,185618,2,0,P|162:173|139:176,1,45.4999979171754,0|0,3:2|3:2,0:0:0:0:
125,51,185724,2,0,P|138:70|151:88,1,45.4999979171754,2|0,3:2|3:2,0:0:0:0:
67,123,185830,37,10,0:2:0:0:
208,15,185935,1,8,0:2:0:0:
62,203,186041,5,10,0:2:0:0:
329,120,186147,1,8,0:2:0:0:
38,279,186252,37,14,0:2:0:0:
38,279,187309,5,0,3:2:0:0:
104,325,187414,1,0,3:2:0:0:
208,257,187520,37,8,0:2:0:0:
208,257,187942,6,0,P|242:234|284:235,1,83.9999974365235,2|0,1:2|0:0,0:0:0:0:
350,190,188259,2,0,P|386:209|405:246,1,83.9999974365235,2|0,3:2|0:0,0:0:0:0:
473,287,188576,1,2,3:2:0:0:
473,287,188787,38,0,P|463:305|461:326,1,41.9999987182618,2|0,0:2|3:2,0:0:0:0:
395,370,188998,1,2,0:2:0:0:
395,370,189104,2,0,P|334:360|300:309,1,125.999996154785,2|2,3:2|3:2,0:0:0:0:
284,235,189527,1,2,0:2:0:0:
222,288,189632,6,0,B|157:278|170:324|92:312,1,125.999996154785,2|2,1:2|3:2,0:0:0:0:
29,282,190055,2,0,P|22:262|18:241,1,41.9999987182618
119,149,190266,2,0,P|109:189|95:229,1,83.9999974365235,2|0,3:2|0:0,0:0:0:0:
95,229,190583,1,0,3:2:0:0:
0,362,190794,1,0,3:2:0:0:
0,362,190900,37,0,3:2:0:0:
173,264,191111,5,2,0:2:0:0:
4,160,191322,38,0,P|22:123|59:103,1,83.9999974365235,2|0,1:2|0:0,0:0:0:0:
94,31,191640,2,0,P|135:28|170:50,1,83.9999974365235,2|0,3:2|0:0,0:0:0:0:
249,35,191956,1,2,3:2:0:0:
249,35,192167,6,0,P|258:53|260:74,1,41.9999987182618,2|0,0:2|3:2,0:0:0:0:
204,129,192379,1,2,0:2:0:0:
204,129,192484,2,0,P|265:115|328:108,1,125.999996154785,2|2,3:2|3:2,0:0:0:0:
497,147,193012,38,0,B|432:137|445:183|367:171,1,125.999996154785,2|2,1:2|3:2,0:0:0:0:
328,108,193435,2,0,P|332:87|338:67,1,41.9999987182618,2|0,0:2|0:0,0:0:0:0:
412,36,193646,1,2,3:2:0:0:
512,250,193858,5,0,3:2:0:0:
488,240,193963,1,0,3:2:0:0:
462,241,194069,1,0,3:2:0:0:
442,256,194174,1,0,3:2:0:0:
431,278,194280,38,0,P|412:288|388:292,1,41.9999987182618,0|0,3:2|0:0,0:0:0:0:
291,384,194492,6,0,P|267:377|249:360,1,48.9999985046387,0|0,3:2|0:0,0:0:0:0:
114,346,194703,38,0,P|102:291|95:235,1,112,2|2,1:2|3:2,0:0:0:0:
24,199,195020,2,0,P|31:143|42:88,1,112,2|0,3:2|0:0,0:0:0:0:
1,20,195336,1,2,3:2:0:0:
162,188,195548,6,0,P|188:181|208:161,1,56,2|0,0:2|3:2,0:0:0:0:
283,184,195759,1,2,0:2:0:0:
283,184,195865,2,0,P|284:129|246:90,1,112,2|0,3:2|0:0,0:0:0:0:
169,93,196182,1,2,3:2:0:0:
114,346,196393,38,0,P|141:341|169:337,1,56,2|0,1:2|0:0,0:0:0:0:
222,279,196604,1,2,3:2:0:0:
222,279,196710,2,0,P|277:286|332:297,1,112,2|0,3:2|0:0,0:0:0:0:
380,362,197027,1,2,3:2:0:0:
481,290,197238,1,0,0:0:0:0:
481,290,197344,1,0,3:2:0:0:
421,201,197555,1,0,3:2:0:0:
421,201,197661,1,8,0:2:0:0:
482,150,197872,1,2,0:2:0:0:
432,88,198083,6,0,B|374:79|385:120|316:109,1,112,2|0,1:2|3:2,0:0:0:0:
282,39,198400,2,0,P|246:80|246:135,1,112,2|0,3:2|0:0,0:0:0:0:
261,215,198717,2,0,P|287:206|307:187,1,56,2|0,3:2|0:0,0:0:0:0:
482,255,198928,38,0,P|427:243|371:236,1,112,2|2,0:2|0:2,0:0:0:0:
329,304,199245,2,0,P|273:311|218:322,1,112,2|0,3:2|0:0,0:0:0:0:
170,384,199562,1,2,3:2:0:0:
0,0,199773,6,0,B|12:2|12:2|15:5|15:5|38:5|38:5|42:8|42:8|69:8|69:8|72:11|72:11|82:13,1,83.9999974365235,2|0,1:2|0:0,0:0:0:0:
