osu file format v14

[General]
AudioFilename: audio.mp3
AudioLeadIn: 0
PreviewTime: 50627
Countdown: 0
SampleSet: Soft
StackLeniency: 0.5
Mode: 0
LetterboxInBreaks: 0
WidescreenStoryboard: 1

[Editor]
Bookmarks: 110147
DistanceSpacing: 1.4
BeatDivisor: 8
GridSize: 16
TimelineZoom: 2.3

[Metadata]
Title:God-ish
TitleUnicode:神っぽいな
Artist:philo
ArtistUnicode:フィロ
Creator:Basensorex
Version:Basen & Pincus' Hard
Source:
Tags:kirishima- pincus alevi vanya2 ermi nymphe modding queue kiyoshi guarden gazimal brain exe kamippoi kami ppoi na godish japanese pop j-pop jpop vocaloid ボーカ utaite cover female strong vocals vocalist pinocchiop hatsune miku
BeatmapID:3664501
BeatmapSetID:1722410

[Difficulty]
HPDrainRate:4
CircleSize:3.5
OverallDifficulty:5.8
ApproachRate:8
SliderMultiplier:1.4
SliderTickRate:1

[Events]
//Background and Video events
0,0,"hot.png",0,0
//Break Periods
//Storyboard Layer 0 (Background)
//Storyboard Layer 1 (Fail)
//Storyboard Layer 2 (Pass)
//Storyboard Layer 3 (Foreground)
//Storyboard Layer 4 (Overlay)
//Storyboard Sound Samples

[TimingPoints]
240,422.535211267606,4,2,22,40,1,0
7000,-125,4,2,22,40,0,0
13761,-111.111111111111,4,2,22,50,0,0
20521,-100,4,2,22,65,0,0
32775,-111.111111111111,4,2,22,65,0,0
34042,-111.111111111111,4,2,22,55,0,0
37423,-100,4,2,22,65,0,0
40803,-111.111111111111,4,2,22,55,0,0
44183,-100,4,2,22,65,0,0
45873,-100,4,2,22,70,0,0
47563,-200,4,2,22,70,0,0
50944,-83.3333333333333,4,2,22,80,0,1
64042,-100,4,2,22,60,0,0
64465,-83.3333333333333,4,2,22,80,0,1
77986,-100,4,2,22,60,0,0
91507,582.52427184466,4,2,22,50,1,0
100827,-100,4,2,22,65,0,0
103157,-90.9090909090909,4,2,22,65,0,0
105487,-83.3333333333333,4,2,22,65,0,0
108982,-100,4,2,22,65,0,0
110147,-100,4,2,22,75,0,0
128788,422.535211267606,4,2,22,55,1,0
128788,-111.111111111111,4,2,22,55,0,0
132168,-99.9999999999999,4,2,22,65,0,0
135548,-111.111111111111,4,2,22,55,0,0
138928,-99.9999999999999,4,2,22,65,0,0
140618,-99.9999999999999,4,2,22,70,0,0
142309,-200,4,2,22,70,0,0
145689,-200,4,2,22,70,0,0
147379,-83.3333333333333,4,2,22,85,0,1
160478,-100,4,2,22,85,0,0
160900,-83.3333333333333,4,2,22,85,0,1
174421,-100,4,2,22,75,0,0
187309,-125,4,2,22,75,0,0
187942,-125,4,2,22,50,0,0
194703,-111.111111111111,4,2,22,50,0,0

[Colours]
Combo1 : 169,177,5
Combo2 : 191,191,191
Combo3 : 75,74,74
Combo4 : 228,14,46

[HitObjects]
29,90,7000,6,0,L|39:173,2,84,2|2|2,1:2|3:2|3:2,0:0:0:0:
90,41,7845,2,0,P|117:38|143:48,1,56,2|2,0:2|0:2,0:0:0:0:
152,58,8162,1,2,3:2:0:0:
223,151,8479,1,2,3:2:0:0:
236,148,8585,1,2,0:2:0:0:
249,144,8690,6,0,P|280:113|274:62,2,84,2|2|2,1:2|3:2|3:2,0:0:0:0:
131,148,9641,1,0,3:2:0:0:
101,220,9852,1,0,3:2:0:0:
105,233,9958,1,0,3:2:0:0:
240,311,10380,38,0,L|250:227,2,84,2|2|2,1:2|3:2|3:2,0:0:0:0:
302,359,11225,2,0,P|327:369|355:366,1,56,2|2,0:2|0:2,0:0:0:0:
368,361,11542,1,2,3:2:0:0:
473,308,11859,1,2,3:2:0:0:
454,231,12070,6,0,P|455:190|485:161,2,84,2|2|2,1:2|3:2|3:2,0:0:0:0:
397,286,12916,2,0,P|386:276|378:264,3,28,0|0|0|0,3:2|3:2|3:2|3:2,0:0:0:0:
374,251,13338,1,0,3:2:0:0:
315,199,13549,1,0,3:2:0:0:
221,263,13761,38,0,L|157:270,1,62.9999980773926,2|2,1:2|3:2,0:0:0:0:
149,282,14078,1,2,3:2:0:0:
139,294,14183,2,0,L|75:286,1,62.9999980773926,8|2,0:2|3:2,0:0:0:0:
17,220,14606,2,0,P|14:188|29:161,1,62.9999980773926,2|2,0:2|0:2,0:0:0:0:
41,152,14923,1,2,3:2:0:0:
150,77,15240,1,2,3:2:0:0:
228,117,15451,6,0,L|220:180,1,62.9999980773926,2|2,1:2|3:2,0:0:0:0:
228,193,15768,1,2,3:2:0:0:
164,308,16085,2,0,B|110:306|124:330|59:328,2,94.499997116089,2|0|8,3:2|3:2|0:2,0:0:0:0:
231,365,16930,1,2,0:2:0:0:
325,302,17141,38,0,L|420:313,1,94.499997116089,2|2,1:2|3:2,0:0:0:0:
434,314,17563,1,10,0:2:0:0:
493,248,17775,1,2,3:2:0:0:
437,179,17986,2,0,P|434:147|449:120,1,62.9999980773926,2|2,0:2|0:2,0:0:0:0:
456,107,18303,2,0,P|441:63|400:42,1,94.499997116089,2|2,3:2|3:2,0:0:0:0:
294,83,18831,5,2,1:2:0:0:
294,83,19887,1,2,3:2:0:0:
278,78,19993,1,0,3:2:0:0:
262,73,20099,37,10,0:2:0:0:
82,151,20521,6,0,L|72:230,1,70,4|2,1:2|0:2,0:0:0:0:
119,307,20944,1,2,1:2:0:0:
123,324,21049,1,2,0:2:0:0:
214,288,21261,1,2,0:2:0:0:
268,369,21472,1,2,0:2:0:0:
361,339,21684,1,2,0:2:0:0:
377,333,21789,2,0,P|392:302|388:267,1,70,2|10,1:2|0:2,0:0:0:0:
476,178,22211,38,0,P|464:145|437:123,1,70,0|2,1:2|0:2,0:0:0:0:
398,33,22634,1,2,1:2:0:0:
402,16,22739,1,2,0:2:0:0:
303,16,22951,1,2,0:2:0:0:
247,96,23162,1,2,0:2:0:0:
297,180,23373,1,2,0:2:0:0:
293,197,23479,2,0,L|213:206,1,70,2|10,1:2|0:2,0:0:0:0:
173,320,23901,6,0,L|93:311,1,70,0|2,1:2|0:2,0:0:0:0:
23,256,24324,1,2,1:2:0:0:
10,260,24429,1,2,0:2:0:0:
33,164,24641,1,2,0:2:0:0:
128,141,24852,1,2,0:2:0:0:
159,48,25063,1,2,0:2:0:0:
164,31,25169,2,0,P|198:27|229:42,1,70,2|10,1:2|0:2,0:0:0:0:
333,114,25592,37,0,1:2:0:0:
421,71,25803,2,0,L|408:175,1,105,2|0,0:2|0:0,0:0:0:0:
405,192,26225,1,2,0:2:0:0:
347,271,26437,1,0,1:2:0:0:
273,206,26648,2,0,L|260:310,1,105,2|0,0:2|0:0,0:0:0:0:
258,327,27070,1,10,0:2:0:0:
139,371,27282,6,0,P|104:374|73:359,1,70,0|2,1:2|0:2,0:0:0:0:
19,277,27704,1,2,1:2:0:0:
15,260,27809,1,2,0:2:0:0:
89,195,28021,1,2,0:2:0:0:
38,111,28232,1,2,0:2:0:0:
111,45,28444,1,2,0:2:0:0:
124,33,28549,2,0,L|193:40,1,70,2|10,1:2|0:2,0:0:0:0:
242,156,28972,38,0,L|311:148,1,70,0|2,1:2|0:2,0:0:0:0:
372,71,29394,1,2,1:2:0:0:
389,75,29499,1,2,0:2:0:0:
485,93,29711,1,2,0:2:0:0:
512,187,29923,1,2,0:2:0:0:
447,260,30134,1,2,0:2:0:0:
436,273,30240,2,0,P|401:276|370:261,1,70,2|10,1:2|0:2,0:0:0:0:
272,181,30662,6,0,P|237:177|206:192,1,70,0|2,1:2|0:2,0:0:0:0:
115,228,31085,1,2,1:2:0:0:
111,245,31190,1,2,0:2:0:0:
120,342,31401,1,2,0:2:0:0:
211,379,31613,1,2,0:2:0:0:
291,322,31824,1,2,0:2:0:0:
305,311,31930,2,0,L|374:318,1,70,2|10,1:2|0:2,0:0:0:0:
485,378,32352,37,2,1:2:0:0:
500,202,32775,2,0,L|505:154,4,31.4999990386963,0|0|2|0|0,3:2|3:2|3:2|3:2|3:2,0:0:0:0:
417,169,33409,1,0,1:2:0:0:
415,152,33514,1,0,1:2:0:0:
414,136,33620,1,8,0:2:0:0:
298,2,34042,6,0,L|172:17,1,125.999996154785,2|2,1:2|3:2,0:0:0:0:
162,104,34676,2,0,L|36:88,1,125.999996154785,2|2,1:2|3:2,0:0:0:0:
7,171,35310,1,10,0:2:0:0:
100,330,35732,38,0,P|155:303|175:245,1,125.999996154785,2|2,1:2|3:2,0:0:0:0:
243,188,36366,2,0,P|263:130|318:103,1,125.999996154785,2|2,1:2|3:2,0:0:0:0:
408,127,37000,1,10,0:2:0:0:
408,127,37211,1,2,0:2:0:0:
458,243,37423,6,0,L|378:252,1,70,2|0,1:2|0:0,0:0:0:0:
352,341,37845,2,0,L|272:331,1,70,10|0,0:2|3:2,0:0:0:0:
207,277,38268,1,2,1:2:0:0:
207,277,38479,1,2,0:2:0:0:
141,349,38690,1,10,0:2:0:0:
141,349,38901,1,2,3:2:0:0:
34,281,39113,38,0,B|50:203|12:224|29:136,1,140,2|8,1:2|0:2,0:0:0:0:
126,120,39747,1,0,3:2:0:0:
126,120,39958,2,0,L|116:40,1,70,0|8,1:2|0:2,0:0:0:0:
220,3,40380,1,8,0:2:0:0:
237,2,40486,1,8,0:2:0:0:
253,8,40592,1,8,0:2:0:0:
266,19,40697,1,8,0:2:0:0:
273,31,40803,6,0,P|319:70|380:66,1,125.999996154785,2|2,1:2|3:2,0:0:0:0:
463,31,41437,2,0,L|479:157,1,125.999996154785,2|2,1:2|3:2,0:0:0:0:
492,243,42070,1,10,0:2:0:0:
364,365,42493,38,0,P|317:325|256:329,1,125.999996154785,2|2,1:2|3:2,0:0:0:0:
173,360,43127,2,0,L|157:235,1,125.999996154785,2|2,1:2|3:2,0:0:0:0:
76,199,43761,1,10,0:2:0:0:
176,30,44183,6,0,B|267:21|230:64|319:58,1,140,2|10,1:2|0:2,0:0:0:0:
396,12,44817,1,2,1:2:0:0:
479,63,45028,2,0,L|469:142,1,70,2|2,1:2|0:2,0:0:0:0:
390,189,45451,2,0,L|399:268,1,70,10|2,0:2|1:2,0:0:0:0:
317,355,45873,37,2,1:2:0:0:
219,345,46085,1,8,0:2:0:0:
202,350,46190,1,8,0:2:0:0:
184,354,46296,2,0,P|169:322|173:288,1,70,0|8,1:2|0:2,0:0:0:0:
226,174,46718,5,2,1:2:0:0:
324,164,46930,1,8,0:2:0:0:
341,169,47035,1,8,0:2:0:0:
359,173,47141,2,0,P|374:141|370:107,1,70,0|8,1:2|0:2,0:0:0:0:
273,27,47563,38,0,B|211:-28|67:27|170:110|19:99,1,280,2|2,1:2|0:2,0:0:0:0:
31,99,50521,1,8,0:2:0:0:
31,334,50944,22,0,B|70:349|70:349|111:338,1,83.9999974365235,6|2,1:2|0:2,0:0:0:0:
212,298,51366,1,10,0:2:0:0:
280,383,51578,1,2,1:2:0:0:
380,339,51789,1,2,0:2:0:0:
367,231,52000,1,2,1:2:0:0:
372,206,52106,1,0,1:2:0:0:
377,181,52211,1,10,0:2:0:0:
480,145,52423,1,2,3:2:0:0:
414,28,52634,6,0,B|372:22|372:22|368:25|368:25|331:21,1,83.9999974365235,2|2,1:2|0:2,0:0:0:0:
241,83,53056,1,10,0:2:0:0:
156,13,53268,1,2,1:2:0:0:
66,75,53479,2,0,B|34:130|34:130|80:229,1,167.999994873047,2|10,0:2|0:2,0:0:0:0:
63,332,54113,1,2,3:2:0:0:
188,379,54324,37,2,1:2:0:0:
188,379,54535,1,2,0:2:0:0:
262,298,54747,1,10,0:2:0:0:
262,298,54958,1,2,1:2:0:0:
203,205,55169,2,0,B|188:166|188:166|199:125,1,83.9999974365235,2|2,0:2|1:2,0:0:0:0:
258,33,55592,1,10,0:2:0:0:
360,70,55803,1,2,3:2:0:0:
384,64,55909,1,0,3:2:0:0:
408,60,56014,6,0,B|402:101|402:101|405:105|405:105|401:142,1,83.9999974365235,2|2,1:2|0:2,0:0:0:0:
482,215,56437,1,10,0:2:0:0:
465,322,56648,1,2,1:2:0:0:
358,347,56859,1,2,1:2:0:0:
340,328,56965,1,0,1:2:0:0:
315,322,57070,1,0,1:2:0:0:
291,329,57176,1,0,1:2:0:0:
272,346,57282,2,0,L|231:341,3,41.9999987182618,8|8|8|8,0:2|0:2|0:2|0:2,0:0:0:0:
209,337,57704,38,0,B|194:298|194:298|205:257,1,83.9999974365235,2|2,1:2|0:2,0:0:0:0:
132,174,58127,1,10,0:2:0:0:
166,70,58338,1,2,1:2:0:0:
272,48,58549,1,2,0:2:0:0:
357,116,58761,1,2,1:2:0:0:
382,111,58867,1,0,1:2:0:0:
407,106,58972,1,10,0:2:0:0:
494,170,59183,1,2,3:2:0:0:
381,242,59394,6,0,B|339:236|339:236|335:239|335:239|298:235,1,83.9999974365235,2|2,1:2|0:2,0:0:0:0:
240,328,59817,1,10,0:2:0:0:
133,349,60028,1,2,1:2:0:0:
48,279,60240,2,0,B|10:205|10:205|34:122,1,167.999994873047,2|10,0:2|0:2,0:0:0:0:
81,25,60873,1,2,3:2:0:0:
214,9,61085,37,2,1:2:0:0:
214,9,61296,1,2,0:2:0:0:
290,94,61507,1,10,0:2:0:0:
290,94,61718,1,2,1:2:0:0:
230,185,61930,2,0,B|215:224|215:224|226:265,1,83.9999974365235,2|2,0:2|1:2,0:0:0:0:
260,368,62352,1,10,0:2:0:0:
367,349,62563,1,2,3:2:0:0:
392,354,62669,1,0,3:2:0:0:
417,359,62775,6,0,P|458:314|456:247,1,125.999996154785,10|0,0:2|1:2,0:0:0:0:
451,231,63197,2,0,P|406:189|339:191,1,125.999996154785,8|0,0:2|1:2,0:0:0:0:
325,198,63620,1,8,0:2:0:0:
226,44,64042,2,0,L|191:39,3,35,2|2|2|2,0:2|0:2|0:2|0:2,0:0:0:0:
173,20,64465,37,6,1:2:0:0:
147,24,64570,1,2,0:2:0:0:
121,27,64676,1,2,1:2:0:0:
95,30,64782,1,2,1:2:0:0:
70,33,64887,2,0,P|58:50|54:71,3,41.9999987182618,10|2|2|2,0:2|0:2|1:2|1:2,0:0:0:0:
41,87,65310,2,0,P|44:107|57:125,3,41.9999987182618,2|2|2|2,1:2|0:2|1:2|1:2,0:0:0:0:
58,145,65732,1,10,0:2:0:0:
114,238,65944,1,2,1:2:0:0:
110,262,66049,1,2,1:2:0:0:
107,287,66155,6,0,P|145:303|186:299,1,83.9999974365235,2|2,1:2|1:2,0:0:0:0:
283,350,66578,1,10,0:2:0:0:
302,365,66683,2,0,P|340:348|381:352,1,83.9999974365235,2|2,0:2|1:2,0:0:0:0:
404,361,67000,1,2,1:2:0:0:
491,295,67211,1,2,1:2:0:0:
424,207,67423,1,10,0:2:0:0:
501,129,67634,1,2,1:2:0:0:
496,104,67740,1,0,1:2:0:0:
491,79,67845,38,0,B|452:64|452:64|411:75,1,83.9999974365235,2|2,1:2|1:2,0:0:0:0:
326,5,68268,1,10,0:2:0:0:
219,26,68479,1,2,1:2:0:0:
176,126,68690,1,2,1:2:0:0:
69,147,68901,1,2,1:2:0:0:
64,172,69007,1,0,1:2:0:0:
59,197,69112,1,10,0:2:0:0:
33,303,69324,1,2,1:2:0:0:
148,370,69535,6,0,B|190:364|190:364|194:367|194:367|231:363,1,83.9999974365235,2|2,1:2|1:2,0:0:0:0:
306,284,69958,1,10,0:2:0:0:
239,197,70169,1,2,1:2:0:0:
309,113,70380,1,2,1:2:0:0:
327,94,70486,1,0,1:2:0:0:
352,88,70591,1,0,1:2:0:0:
376,95,70697,1,0,1:2:0:0:
395,112,70803,2,0,L|436:107,3,41.9999987182618,8|8|10|10,0:2|0:2|0:2|0:2,0:0:0:0:
457,104,71225,38,0,P|473:142|469:183,1,83.9999974365235,6|2,1:2|1:2,0:0:0:0:
510,285,71648,1,10,0:2:0:0:
499,307,71754,2,0,P|466:332|425:339,1,83.9999974365235,2|2,0:2|1:2,0:0:0:0:
327,289,72176,1,2,0:2:0:0:
314,268,72282,2,0,L|319:226,2,41.9999987182618,2|2|10,1:2|1:2|0:2,0:0:0:0:
207,291,72704,1,2,1:2:0:0:
182,297,72810,1,2,1:2:0:0:
157,304,72916,6,0,P|148:285|147:264,3,41.9999987182618,2|2|2|2,1:2|0:2|1:2|1:2,0:0:0:0:
139,244,73338,2,0,P|150:226|166:213,3,41.9999987182618,10|2|2|2,0:2|0:2|1:2|1:2,0:0:0:0:
186,205,73761,2,0,L|228:199,2,41.9999987182618,2|2|2,1:2|0:2|1:2,0:0:0:0:
176,96,74183,1,10,0:2:0:0:
279,60,74394,1,2,1:2:0:0:
399,121,74606,38,0,B|414:160|414:160|403:201,1,83.9999974365235,2|2,1:2|1:2,0:0:0:0:
439,303,75028,1,10,0:2:0:0:
358,377,75240,1,2,1:2:0:0:
271,310,75451,1,2,1:2:0:0:
182,374,75662,1,2,1:2:0:0:
157,369,75768,1,0,1:2:0:0:
132,364,75873,1,10,0:2:0:0:
89,262,76085,1,2,1:2:0:0:
64,267,76191,1,2,1:2:0:0:
39,272,76296,6,0,P|11:217|30:153,1,125.999996154785,10|2,0:2|1:2,0:0:0:0:
39,140,76718,2,0,P|93:112|157:131,1,125.999996154785,10|2,0:2|1:2,0:0:0:0:
171,139,77141,1,10,0:2:0:0:
190,154,77247,1,10,0:2:0:0:
213,162,77352,1,10,0:2:0:0:
238,163,77458,1,10,0:2:0:0:
261,155,77563,37,10,3:2:0:0:
415,34,77986,22,0,L|425:113,1,70,0|2,1:2|3:2,0:0:0:0:
493,173,78409,1,2,3:2:0:0:
490,190,78514,1,2,0:2:0:0:
425,263,78725,2,0,P|393:247|359:251,2,70,2|2|2,3:2|3:2|0:2,0:0:0:0:
438,274,79254,1,10,0:2:0:0:
380,353,79465,1,10,0:2:0:0:
262,306,79676,6,0,P|246:274|250:240,1,70,0|2,1:2|3:2,0:0:0:0:
312,164,80099,1,2,3:2:0:0:
309,147,80204,1,2,0:2:0:0:
374,73,80416,2,0,L|453:63,2,70,2|2|2,3:2|3:2|0:2,0:0:0:0:
361,60,80944,1,10,0:2:0:0:
282,1,81155,1,10,0:2:0:0:
198,95,81366,38,0,L|128:86,1,70,0|2,1:2|3:2,0:0:0:0:
61,158,81789,1,2,3:2:0:0:
64,175,81894,1,2,0:2:0:0:
75,272,82106,2,0,P|43:287|9:283,2,70,2|2|2,3:2|3:2|0:2,0:0:0:0:
92,276,82634,1,10,0:2:0:0:
162,344,82845,1,10,0:2:0:0:
266,273,83056,5,0,1:2:0:0:
266,273,83901,2,0,L|270:307,3,35,2|2|2|2,0:2|0:2|0:2|0:2,0:0:0:0:
273,325,84324,1,8,0:2:0:0:
358,372,84535,1,2,1:2:0:0:
464,304,84747,38,0,L|455:234,1,70,0|2,1:2|3:2,0:0:0:0:
394,157,85169,1,2,3:2:0:0:
397,140,85274,1,2,0:2:0:0:
414,43,85486,2,0,P|445:27|479:31,2,70,2|2|2,3:2|3:2|0:2,0:0:0:0:
397,39,86014,1,10,0:2:0:0:
310,85,86225,1,10,0:2:0:0:
209,7,86437,6,0,P|174:3|143:18,1,70,0|2,1:2|3:2,0:0:0:0:
70,83,86859,1,2,3:2:0:0:
73,100,86964,1,2,0:2:0:0:
145,166,87176,2,0,L|214:157,2,70,2|2|2,3:2|3:2|0:2,0:0:0:0:
135,180,87704,1,10,0:2:0:0:
38,196,87916,1,10,0:2:0:0:
101,304,88127,38,0,L|170:312,1,70,0|2,1:2|3:2,0:0:0:0:
251,367,88549,1,2,3:2:0:0:
268,364,88654,1,2,0:2:0:0:
339,296,88866,2,0,P|342:261|327:230,2,70,2|2|2,3:2|3:2|0:2,0:0:0:0:
351,308,89394,1,10,0:2:0:0:
433,361,89606,1,10,0:2:0:0:
450,358,89711,1,8,0:2:0:0:
467,355,89817,5,0,1:2:0:0:
467,355,90662,1,2,0:2:0:0:
509,267,90873,1,2,0:2:0:0:
434,202,91085,2,0,L|399:197,3,35,8|8|8|8,0:2|0:2|0:2|0:2,0:0:0:0:
381,194,91507,37,4,1:2:0:0:
428,115,93837,1,2,1:2:0:0:
367,45,96167,1,4,1:2:0:0:
281,81,98497,1,2,1:2:0:0:
288,173,100827,6,0,B|231:157|193:187|193:187|192:200|192:200|151:228|96:215,1,210,6|2,1:2|3:2,0:0:0:0:
40,147,101992,1,10,0:2:0:0:
40,147,103157,38,0,B|30:135|27:120|27:120|24:110|24:110|25:99|25:99|26:78|39:60|39:60|49:54|49:54|54:45|54:45|77:29|105:33,1,154.000004699707,2|2,1:2|0:2,0:0:0:0:
175,87,104031,1,2,1:2:0:0:
257,30,104322,1,10,0:2:0:0:
257,30,105487,6,0,B|242:82|237:125|237:125|239:131|239:131|232:183|229:213|229:213|230:217|230:217|226:252|225:278,1,251.999992309571,2|2,1:2|3:2,0:0:0:0:
293,364,106652,1,10,0:2:0:0:
293,364,107817,38,0,B|373:355|373:355|376:351|376:351|458:342,1,167.999994873047,2|0,1:2|0:0,0:0:0:0:
458,342,108982,6,0,P|460:287|481:238,1,105,2|0,0:2|0:0,0:0:0:0:
491,229,109565,1,8,0:2:0:0:
440,153,109856,1,8,0:2:0:0:
485,66,110147,6,0,P|435:22|369:36,1,140,6|2,1:2|0:2,0:0:0:0:
320,122,111021,2,0,L|323:139,3,17.5,2|0|0|0,3:2|3:2|3:2|3:2,0:0:0:0:
305,111,111312,2,0,L|237:99,1,70,10|2,0:2|3:2,0:0:0:0:
158,159,111895,2,0,L|170:227,1,70,2|2,3:2|3:2,0:0:0:0:
157,324,112477,6,0,B|74:314|123:269|39:259,1,140,2|2,1:2|0:2,0:0:0:0:
3,167,113351,1,2,1:2:0:0:
82,110,113642,2,0,P|115:103|145:121,1,70,10|2,0:2|3:2,0:0:0:0:
187,209,114225,1,2,3:2:0:0:
271,159,114516,2,0,L|288:155,3,17.5,2|0|2|0,3:2|3:2|3:2|3:2,0:0:0:0:
254,147,114807,38,0,P|260:77|273:8,1,140,2|2,1:2|0:2,0:0:0:0:
371,4,115681,1,2,3:2:0:0:
418,90,115973,2,0,L|405:158,1,70,10|2,0:2|3:2,0:0:0:0:
344,235,116555,1,2,3:2:0:0:
379,326,116846,2,0,L|396:322,3,17.5,2|0|0|0,3:2|3:2|3:2|3:2,0:0:0:0:
369,342,117138,6,0,B|329:318|289:342|289:342|277:370|247:376,1,140,2|2,1:2|0:2,0:0:0:0:
211,284,118011,1,2,1:2:0:0:
123,328,118303,2,0,L|119:345,3,17.5,10|0|0|0,0:2|3:2|3:2|3:2,0:0:0:0:
109,315,118594,2,0,P|107:297|102:280,1,35,0|0,3:2|3:2,0:0:0:0:
4,170,119176,1,2,1:2:0:0:
62,90,119468,38,0,B|146:78|110:134|192:122,1,140,6|2,1:2|0:2,0:0:0:0:
263,55,120341,2,0,L|267:37,3,17.5,2|0|0|0,3:2|3:2|3:2|3:2,0:0:0:0:
278,68,120633,2,0,L|291:136,1,70,10|2,0:2|3:2,0:0:0:0:
376,184,121215,2,0,L|364:252,1,70,2|2,3:2|3:2,0:0:0:0:
435,320,121798,6,0,P|484:278|455:219,1,140,2|2,1:2|0:2,0:0:0:0:
363,252,122672,2,0,L|359:269,4,17.5,2|0|0|0|10,1:2|3:2|3:2|3:2|0:2,0:0:0:0:
270,219,123254,2,0,L|266:201,4,17.5,2|0|0|0|2,3:2|3:2|3:2|3:2|3:2,0:0:0:0:
191,277,123837,2,0,L|187:294,3,17.5,2|0|2|0,3:2|3:2|3:2|3:2,0:0:0:0:
176,265,124128,38,0,P|170:195|157:126,1,140,2|2,1:2|0:2,0:0:0:0:
78,67,125002,1,2,3:2:0:0:
11,138,125293,2,0,L|24:206,1,70,10|2,0:2|3:2,0:0:0:0:
91,278,125875,2,0,L|78:346,1,70,2|2,3:2|3:2,0:0:0:0:
168,383,126458,5,2,1:2:0:0:
485,152,127623,38,0,P|523:134|512:175,1,105,2|0,1:2|0:0,0:0:0:0:
248,11,128788,22,0,P|263:72|271:134,1,125.999996154785,2|2,1:2|3:2,0:0:0:0:
228,212,129421,2,0,P|173:186|122:218,1,125.999996154785,2|2,1:2|3:2,0:0:0:0:
179,285,130055,1,10,0:2:0:0:
352,252,130478,6,0,B|393:174|393:174|364:150,1,125.999996154785,2|2,1:2|3:2,0:0:0:0:
300,92,131111,2,0,B|205:75|205:75|190:92|167:95,1,125.999996154785,2|2,1:2|3:2,0:0:0:0:
96,68,131745,1,10,0:2:0:0:
96,68,131957,1,2,0:2:0:0:
18,167,132168,38,0,L|30:235,1,70,2|0,1:2|0:0,0:0:0:0:
69,325,132590,1,10,0:2:0:0:
69,325,132802,2,0,P|102:331|132:314,1,70,0|2,3:2|1:2,0:0:0:0:
184,232,133224,1,2,0:2:0:0:
280,256,133435,1,10,0:2:0:0:
280,256,133647,1,2,3:2:0:0:
403,229,133858,6,0,B|404:146|370:173|372:94,1,140,2|8,1:2|0:2,0:0:0:0:
288,52,134492,1,0,3:2:0:0:
288,52,134703,2,0,P|254:45|224:62,1,70,0|8,1:2|0:2,0:0:0:0:
160,136,135126,1,8,0:2:0:0:
144,144,135231,1,8,0:2:0:0:
128,144,135337,1,8,0:2:0:0:
112,136,135442,1,8,0:2:0:0:
100,124,135548,38,0,P|89:64|136:27,1,125.999996154785,2|2,1:2|3:2,0:0:0:0:
217,62,136182,2,0,P|281:54|345:42,1,125.999996154785,2|2,1:2|3:2,0:0:0:0:
427,23,136816,1,10,0:2:0:0:
427,23,137238,6,0,B|459:55|459:55|423:131,1,125.999996154785,2|2,1:2|3:2,0:0:0:0:
352,179,137872,2,0,B|320:211|320:211|356:287,1,125.999996154785,2|2,1:2|3:2,0:0:0:0:
417,346,138506,1,10,0:2:0:0:
224,368,138928,38,0,B|176:359|176:359|141:373|141:373|88:364,1,140,2|10,1:2|0:2,0:0:0:0:
16,308,139562,1,2,1:2:0:0:
16,308,139773,2,0,P|-2:278|4:245,1,70,2|2,1:2|0:2,0:0:0:0:
92,200,140196,2,0,P|98:166|80:137,1,70,10|2,0:2|1:2,0:0:0:0:
8,68,140618,5,2,1:2:0:0:
80,0,140830,1,8,0:2:0:0:
96,4,140935,1,8,0:2:0:0:
112,8,141041,2,0,L|180:20,1,70,0|8,1:2|0:2,0:0:0:0:
252,88,141464,37,2,1:2:0:0:
340,48,141675,1,8,0:2:0:0:
356,44,141780,1,8,0:2:0:0:
372,40,141886,2,0,L|440:27,1,70,0|8,1:2|0:2,0:0:0:0:
512,168,142309,6,0,B|450:113|306:168|409:251|258:240,2,280,2|2|2,1:2|0:2|0:2,0:0:0:0:
24,52,147379,6,0,B|59:30|59:30|102:34,1,83.9999974365235,6|2,1:2|0:2,0:0:0:0:
208,64,147801,1,10,0:2:0:0:
236,168,148013,1,2,1:2:0:0:
172,256,148224,1,2,0:2:0:0:
64,256,148435,1,2,1:2:0:0:
59,231,148541,1,0,1:2:0:0:
54,206,148646,1,10,0:2:0:0:
140,140,148858,1,2,3:2:0:0:
261,196,149069,6,0,B|302:186|302:186|306:189|306:189|343:181,1,83.9999974365235,2|2,1:2|0:2,0:0:0:0:
445,215,149491,1,10,0:2:0:0:
507,124,149703,1,2,1:2:0:0:
447,32,149914,2,0,B|405:80|405:80|434:186,1,167.999994873047,2|10,0:2|0:2,0:0:0:0:
503,264,150548,1,2,3:2:0:0:
425,374,150759,37,2,1:2:0:0:
425,374,150970,1,2,0:2:0:0:
321,366,151182,1,10,0:2:0:0:
321,366,151393,1,2,1:2:0:0:
213,350,151604,2,0,B|209:307|209:307|230:271,1,83.9999974365235,2|2,0:2|1:2,0:0:0:0:
310,197,152027,1,10,0:2:0:0:
294,89,152238,1,2,3:2:0:0:
270,83,152344,1,0,3:2:0:0:
246,79,152449,6,0,B|205:69|205:69|201:72|201:72|164:64,1,83.9999974365235,2|2,1:2|0:2,0:0:0:0:
64,16,152872,1,10,0:2:0:0:
8,108,153083,1,2,1:2:0:0:
52,208,153294,1,2,1:2:0:0:
73,223,153400,1,0,1:2:0:0:
98,225,153505,1,0,1:2:0:0:
121,214,153611,1,0,1:2:0:0:
136,194,153717,2,0,L|131:148,3,41.9999987182618,8|8|8|8,3:2|0:2|0:2|0:2,0:0:0:0:
153,201,154139,38,0,B|188:222|188:222|231:218,1,83.9999974365235,2|2,1:2|0:2,0:0:0:0:
321,156,154562,1,10,0:2:0:0:
429,170,154773,1,2,1:2:0:0:
484,264,154984,1,2,0:2:0:0:
444,368,155196,1,2,1:2:0:0:
419,363,155302,1,0,1:2:0:0:
394,358,155407,1,10,0:2:0:0:
288,380,155618,1,2,3:2:0:0:
179,301,155829,6,0,B|137:307|137:307|133:304|133:304|96:308,1,83.9999974365235,2|2,1:2|0:2,0:0:0:0:
21,228,156252,1,10,0:2:0:0:
90,143,156463,1,2,1:2:0:0:
184,196,156675,2,0,B|247:184|247:184|282:199|282:199|347:187,1,167.999994873047,2|10,0:2|0:2,0:0:0:0:
416,104,157308,1,2,3:2:0:0:
327,9,157520,37,2,1:2:0:0:
327,9,157731,1,2,0:2:0:0:
223,17,157942,1,10,0:2:0:0:
223,17,158153,1,2,1:2:0:0:
115,25,158365,2,0,L|73:17,2,41.9999987182618,2|0|2,0:2|0:0|1:2,0:0:0:0:
184,108,158787,1,10,0:2:0:0:
123,198,158998,1,2,3:2:0:0:
100,194,159104,1,0,3:2:0:0:
72,190,159210,6,0,P|27:226|43:290,1,125.999996154785,10|0,0:2|1:2,0:0:0:0:
53,304,159633,2,0,P|114:315|176:330,1,125.999996154785,8|0,0:2|1:2,0:0:0:0:
195,337,160055,1,8,0:2:0:0:
403,271,160478,2,0,L|437:264,3,35,10|10|10|10,0:2|0:2|0:2|0:2,0:0:0:0:
389,260,160900,37,6,1:2:0:0:
354,156,161111,1,2,1:2:0:0:
358,132,161217,1,2,1:2:0:0:
362,108,161323,2,0,L|369:66,3,41.9999987182618,10|2|2|2,0:2|0:2|1:2|1:2,0:0:0:0:
372,48,161745,6,0,B|335:44|335:44|331:47|331:47|289:41,1,83.9999974365235,2|2,1:2|1:2,0:0:0:0:
185,7,162168,1,10,0:2:0:0:
98,73,162379,1,2,1:2:0:0:
102,97,162484,1,2,1:2:0:0:
106,121,162590,38,0,B|115:162|115:162|112:166|112:166|120:203,1,83.9999974365235,2|2,1:2|1:2,0:0:0:0:
114,311,163013,1,10,0:2:0:0:
117,329,163118,2,0,P|151:351|192:347,1,83.9999974365235,2|2,0:2|1:2,0:0:0:0:
211,337,163435,2,0,L|219:295,2,41.9999987182618,2|2|2,1:2|0:2|1:2,0:0:0:0:
313,376,163858,1,10,0:2:0:0:
400,311,164069,1,2,1:2:0:0:
396,285,164175,1,0,1:2:0:0:
391,259,164280,6,0,B|382:218|382:218|385:214|385:214|377:177,1,83.9999974365235,2|2,1:2|1:2,0:0:0:0:
444,91,164703,1,10,0:2:0:0:
353,30,164914,1,2,1:2:0:0:
284,115,165125,1,2,1:2:0:0:
202,42,165336,1,2,1:2:0:0:
177,47,165442,1,0,1:2:0:0:
152,52,165547,1,10,0:2:0:0:
107,152,165759,1,2,1:2:0:0:
213,233,165970,38,0,B|255:227|255:227|259:230|259:230|296:226,1,83.9999974365235,2|2,1:2|1:2,0:0:0:0:
355,317,166393,1,10,0:2:0:0:
263,375,166604,1,2,1:2:0:0:
165,326,166815,1,2,1:2:0:0:
141,330,166921,1,0,1:2:0:0:
117,334,167027,1,0,1:2:0:0:
93,338,167133,1,0,1:2:0:0:
69,342,167238,2,0,L|74:383,3,41.9999987182618,8|8|10|10,0:2|0:2|0:2|0:2,0:0:0:0:
55,331,167661,6,0,B|58:293|58:293|55:289|55:289|60:247,1,83.9999974365235,6|2,1:2|1:2,0:0:0:0:
17,147,168083,1,10,0:2:0:0:
28,125,168189,2,0,P|61:100|102:93,1,83.9999974365235,2|2,0:2|1:2,0:0:0:0:
192,154,168611,1,2,0:2:0:0:
179,175,168717,2,0,L|184:217,2,41.9999987182618,2|2|10,1:2|1:2|0:2,0:0:0:0:
264,107,169139,1,2,1:2:0:0:
262,82,169245,1,2,1:2:0:0:
260,55,169351,38,0,P|274:41|295:36,3,41.9999987182618,2|2|2|2,1:2|0:2|1:2|1:2,0:0:0:0:
314,37,169773,2,0,P|334:42|348:57,3,41.9999987182618,10|2|2|2,0:2|0:2|1:2|1:2,0:0:0:0:
359,71,170196,2,0,L|353:113,2,41.9999987182618,2|2|2,1:2|0:2|1:2,0:0:0:0:
465,48,170618,1,10,0:2:0:0:
509,147,170829,1,2,1:2:0:0:
427,254,171041,6,0,B|385:261|385:261|347:244,1,83.9999974365235,2|2,1:2|1:2,0:0:0:0:
274,163,171463,1,10,0:2:0:0:
192,235,171675,1,2,1:2:0:0:
92,191,171886,1,2,1:2:0:0:
98,82,172097,1,2,1:2:0:0:
93,57,172203,1,0,1:2:0:0:
88,32,172308,1,10,0:2:0:0:
195,12,172520,37,2,1:2:0:0:
200,37,172625,1,2,1:2:0:0:
205,62,172731,2,0,P|213:124|225:186,1,125.999996154785,10|2,0:2|1:2,0:0:0:0:
232,206,173153,2,0,P|287:235|347:218,1,125.999996154785,10|2,0:2|1:2,0:0:0:0:
364,205,173576,1,10,0:2:0:0:
383,190,173682,1,10,0:2:0:0:
406,182,173787,1,10,0:2:0:0:
431,181,173893,1,10,0:2:0:0:
454,189,173999,6,0,L|468:271,1,83.9999974365235,10|10,0:2|0:2,0:0:0:0:
397,358,174421,6,0,P|367:375|333:369,1,70,4|2,1:2|3:2,0:0:0:0:
290,280,174844,1,10,0:2:0:0:
287,263,174949,1,2,0:0:0:0:
212,199,175160,2,0,L|143:211,2,70,2|2|2,0:0|3:2|3:2,0:0:0:0:
223,182,175689,1,10,0:2:0:0:
302,124,175900,1,2,3:2:0:0:
239,14,176111,6,0,P|208:-2|173:1,1,70,0|2,1:2|3:2,0:0:0:0:
131,89,176534,1,10,0:2:0:0:
128,106,176639,1,2,0:0:0:0:
33,77,176851,2,0,L|23:-2,2,70,2|2|2,0:0|3:2|3:2,0:0:0:0:
23,94,177379,1,10,0:2:0:0:
4,190,177590,1,2,3:2:0:0:
56,304,177801,38,0,L|126:295,1,70,0|2,1:2|3:2,0:0:0:0:
220,321,178224,1,10,0:2:0:0:
223,338,178329,1,2,0:0:0:0:
320,350,178541,2,0,L|329:280,2,70,2|2|2,3:2|3:2|3:2,0:0:0:0:
329,367,179069,1,10,0:2:0:0:
426,355,179280,1,2,3:2:0:0:
506,257,179491,5,0,1:2:0:0:
413,222,179703,2,0,P|397:191|400:156,1,70,2|8,3:2|0:2,0:0:0:0:
475,94,180126,1,2,3:2:0:0:
398,33,180336,2,0,L|402:-1,3,35,0|0|2|0,1:2|1:2|1:2|1:2,0:0:0:0:
382,53,180759,1,8,0:2:0:0:
362,65,180865,1,8,0:2:0:0:
342,69,180971,1,10,0:2:0:0:
322,65,181076,1,8,0:2:0:0:
302,49,181182,38,0,P|271:33|236:37,1,70,4|2,1:2|3:2,0:0:0:0:
199,127,181604,1,10,0:2:0:0:
196,144,181709,1,2,0:0:0:0:
100,119,181921,2,0,L|87:50,2,70,2|2|2,0:0|3:2|3:2,0:0:0:0:
91,135,182449,1,10,0:2:0:0:
21,204,182660,1,2,3:2:0:0:
58,324,182872,6,0,P|77:352|108:366,1,70,0|2,1:2|3:2,0:0:0:0:
184,303,183294,1,10,0:2:0:0:
187,286,183399,1,2,0:0:0:0:
257,217,183611,2,0,L|325:229,2,70,2|2|2,0:0|3:2|3:2,0:0:0:0:
247,203,184139,1,10,0:2:0:0:
191,121,184351,1,2,3:2:0:0:
279,32,184562,38,0,L|348:40,1,70,0|2,1:2|3:2,0:0:0:0:
383,131,184984,1,10,0:2:0:0:
400,128,185089,1,2,0:0:0:0:
498,122,185301,2,0,P|512:90|509:56,2,70,2|2|2,0:0|3:2|3:2,0:0:0:0:
500,142,185829,1,10,0:2:0:0:
488,158,185935,1,8,0:2:0:0:
484,178,186041,1,10,0:2:0:0:
488,198,186147,1,8,0:2:0:0:
500,214,186252,5,14,0:2:0:0:
121,317,187309,38,0,L|93:312,2,28,0|0|8,3:2|3:2|0:2,0:0:0:0:
218,194,187942,6,0,L|208:111,2,84,2|2|2,1:2|3:2|3:2,0:0:0:0:
255,263,188787,2,0,P|282:266|308:256,1,56,2|2,0:2|0:2,0:0:0:0:
323,246,189104,1,2,3:2:0:0:
408,165,189421,1,2,3:2:0:0:
417,154,189527,1,2,0:2:0:0:
426,143,189632,38,0,P|457:174|451:225,2,84,2|2|2,1:2|3:2|3:2,0:0:0:0:
308,153,190583,1,0,3:2:0:0:
265,86,190794,1,0,3:2:0:0:
268,73,190900,1,0,3:2:0:0:
122,15,191322,6,0,L|38:25,2,84,2|2|2,1:2|3:2|3:2,0:0:0:0:
177,71,192167,2,0,P|187:96|184:124,1,56,2|2,0:2|0:2,0:0:0:0:
177,141,192484,1,2,3:2:0:0:
62,166,192801,1,2,3:2:0:0:
11,226,193013,2,0,P|22:266|25:308,2,84,2|2|2,1:2|3:2|3:2,0:0:0:0:
62,166,193858,2,0,L|65:138,3,28,0|0|0|0,3:2|3:2|3:2|3:2,0:0:0:0:
70,119,194280,1,0,3:2:0:0:
118,57,194491,1,0,3:2:0:0:
217,112,194703,38,0,L|281:119,1,62.9999980773926,2|2,1:2|3:2,0:0:0:0:
290,130,195020,1,2,3:2:0:0:
300,141,195125,2,0,L|364:133,1,62.9999980773926,8|2,0:2|3:2,0:0:0:0:
435,183,195548,2,0,P|438:215|423:242,1,62.9999980773926,2|2,0:2|0:2,0:0:0:0:
413,254,195865,1,2,3:2:0:0:
306,332,196182,1,2,3:2:0:0:
217,335,196393,6,0,L|209:272,1,62.9999980773926,2|2,1:2|3:2,0:0:0:0:
208,254,196710,1,2,3:2:0:0:
112,162,197027,2,0,B|72:184|7:182,2,94.499997116089,2|0|8,3:2|3:2|0:2,0:0:0:0:
200,169,197872,1,2,0:2:0:0:
239,90,198083,37,2,1:2:0:0:
323,64,198295,2,0,L|328:32,2,31.4999990386963,0|2|10,3:2|3:2|0:2,0:0:0:0:
365,141,198717,1,2,3:2:0:0:
442,99,198928,2,0,P|456:126|453:157,1,62.9999980773926,2|2,0:2|0:2,0:0:0:0:
464,171,199245,2,0,P|451:224|446:273,1,94.499997116089,2|2,3:2|3:2,0:0:0:0:
481,351,199773,5,2,1:2:0:0:
