osu file format v14

[General]
AudioFilename: audio.mp3
AudioLeadIn: 0
PreviewTime:50627
Countdown: 0
SampleSet: Soft
StackLeniency: 0.4
Mode: 0
LetterboxInBreaks: 0
WidescreenStoryboard: 1

[Editor]
Bookmarks:7000,20521,34042,50944,77986,91507,110147,128788,147379,174421,187942,199773
DistanceSpacing: 1
BeatDivisor: 4
GridSize: 32
TimelineZoom: 1.2

[Metadata]
Title:God-ish
TitleUnicode:神っぽいな
Artist:philo
ArtistUnicode:フィロ
Creator:Basensorex
Version:Basen & Kirishima-'s Normal
Source:
Tags:kirishima- pincus alevi vanya2 ermi nymphe modding queue kiyoshi guarden gazimal brain exe kamippoi kami ppoi na godish japanese pop j-pop jpop vocaloid ボーカ utaite cover female strong vocals vocalist pinocchiop hatsune miku
BeatmapID:3527296
BeatmapSetID:1722410

[Difficulty]
HPDrainRate:3
CircleSize:3.5
OverallDifficulty:4
ApproachRate:5.5
SliderMultiplier:1.1
SliderTickRate:1

[Events]
//Background and Video events
0,0,"hot.png",0,0
//Break Periods
//Storyboard Layer 0 (Background)
//Storyboard Layer 1 (Fail)
//Storyboard Layer 2 (Pass)
//Storyboard Layer 3 (Foreground)
//Storyboard Layer 4 (Overlay)
//Storyboard Sound Samples

[TimingPoints]
240,422.535211267606,4,2,22,40,1,0
7000,-100,4,2,22,40,0,0
13761,-100,4,2,22,50,0,0
20521,-100,4,2,22,65,0,0
34042,-100,4,2,22,55,0,0
37423,-100,4,2,22,65,0,0
40803,-100,4,2,22,55,0,0
44184,-100,4,2,22,65,0,0
45873,-100,4,2,22,70,0,0
50944,-100,4,2,22,80,0,1
64042,-100,4,2,22,60,0,1
64465,-100,4,2,22,80,0,1
77986,-100,4,2,22,60,0,0
91507,582.52427184466,4,2,22,50,1,0
100827,-83.3333333333333,4,2,22,65,0,0
107817,-83.3333333333333,4,2,22,65,0,0
110147,-83.3333333333333,4,2,22,75,0,0
128788,422.535211267606,4,2,22,55,1,0
128788,-100,4,2,22,55,0,0
132168,-100,4,2,22,65,0,0
135548,-100,4,2,22,55,0,0
138928,-100,4,2,22,65,0,0
140618,-100,4,2,22,70,0,0
142309,-100,4,2,22,70,0,0
147379,-100,4,2,22,85,0,1
174421,-100,4,2,22,75,0,0
187942,-100,4,2,22,50,0,0
199773,-100,4,2,22,50,0,0

[Colours]
Combo1 : 169,177,5
Combo2 : 191,191,191
Combo3 : 75,74,74
Combo4 : 228,14,46

[HitObjects]
410,177,7000,6,0,P|451:172|488:190,2,82.5,2|2|2,1:2|3:2|3:2,0:0:0:0:
357,195,7845,2,0,L|344:277,1,82.5,2|2,0:2|3:2,0:0:0:0:
329,361,8479,1,2,3:2:0:0:
329,361,8690,2,0,P|292:379|251:376,1,82.5,2|2,1:2|3:2,0:0:0:0:
178,336,9324,2,0,P|152:289|162:236,1,110,2|0,3:2|0:0,0:0:0:0:
118,140,10169,1,2,0:2:0:0:
118,140,10380,6,0,L|36:155,2,82.5,2|2|2,1:2|3:2|3:2,0:0:0:0:
172,128,11225,2,0,P|190:91|188:50,1,82.5,2|2,0:2|3:2,0:0:0:0:
263,13,11859,1,2,3:2:0:0:
263,13,12070,2,0,L|345:28,1,82.5,2|2,1:2|3:2,0:0:0:0:
424,46,12704,2,0,L|443:154,1,110,2|0,3:2|3:2,0:0:0:0:
451,208,13338,1,0,3:2:0:0:
362,274,13761,38,0,P|322:276|285:258,1,82.5,2|2,1:2|3:2,0:0:0:0:
220,214,14394,1,2,3:2:0:0:
220,214,14606,2,0,L|234:133,1,82.5,2|2,0:2|3:2,0:0:0:0:
172,86,15240,1,2,3:2:0:0:
172,86,15451,2,0,P|132:83|95:101,1,82.5,2|2,1:2|3:2,0:0:0:0:
32,155,16085,2,0,P|22:207|49:254,1,110,2|0,3:2|0:0,0:0:0:0:
136,330,16930,1,2,0:2:0:0:
136,330,17141,6,0,L|216:316,1,82.5,2|2,1:2|3:2,0:0:0:0:
286,370,17774,1,2,3:2:0:0:
286,370,17986,2,0,L|366:384,1,82.5,2|2,0:2|3:2,0:0:0:0:
435,335,18620,1,2,3:2:0:0:
435,335,18831,1,2,1:2:0:0:
491,69,19887,1,2,3:2:0:0:
491,69,20099,1,10,0:2:0:0:
405,1,20521,38,0,L|350:10,1,55,4|2,1:2|0:2,0:0:0:0:
296,21,20944,1,2,1:2:0:0:
214,36,21261,2,0,P|176:90|193:154,1,137.5,2|2,0:2|1:2,0:0:0:0:
235,197,22000,1,10,0:2:0:0:
235,197,22211,2,0,L|290:207,1,55,0|2,1:2|0:2,0:0:0:0:
343,212,22634,1,2,1:2:0:0:
424,226,22951,2,0,P|442:290|404:344,1,137.5,2|2,0:2|1:2,0:0:0:0:
359,374,23690,1,10,0:2:0:0:
359,374,23901,6,0,L|304:365,1,55,0|2,1:2|0:2,0:0:0:0:
251,351,24324,1,2,1:2:0:0:
171,329,24641,2,0,L|147:194,1,137.5,2|2,0:2|1:2,0:0:0:0:
99,176,25380,1,10,0:2:0:0:
99,176,25592,2,0,L|108:121,1,55,0|2,1:2|0:2,0:0:0:0:
125,72,26014,1,0,1:2:0:0:
125,72,26225,2,0,L|233:53,1,110,2|2,0:2|0:2,0:0:0:0:
288,46,26859,1,0,1:2:0:0:
358,131,27282,38,0,L|349:186,1,55,0|2,1:2|0:2,0:0:0:0:
335,238,27705,1,2,1:2:0:0:
315,318,28022,2,0,P|261:356|197:338,1,137.5,2|2,0:2|1:2,0:0:0:0:
155,309,28761,1,10,0:2:0:0:
155,309,28972,2,0,L|146:254,1,55,0|2,1:2|0:2,0:0:0:0:
136,200,29395,1,2,1:2:0:0:
63,161,29712,2,0,P|46:96|84:42,1,137.5,2|2,0:2|1:2,0:0:0:0:
133,14,30451,1,10,0:2:0:0:
133,14,30662,6,0,L|188:23,1,55,0|2,1:2|0:2,0:0:0:0:
241,34,31085,1,2,1:2:0:0:
280,106,31402,2,0,L|304:241,1,137.5,2|2,0:2|1:2,0:0:0:0:
317,299,32141,1,10,0:2:0:0:
317,299,32353,38,0,L|398:313,1,82.5,2|2,1:2|0:2,0:0:0:0:
458,256,32986,2,0,L|439:148,1,110,2|0,3:2|1:2,0:0:0:0:
426,93,33620,1,8,0:2:0:0:
321,60,34042,6,0,L|330:5,2,55,2|2|2,1:2|3:2|3:2,0:0:0:0:
278,95,34676,2,0,P|231:121|178:111,1,110,2|2,1:2|3:2,0:0:0:0:
130,84,35310,1,10,0:2:0:0:
59,168,35732,2,0,L|4:159,2,55,2|2|2,1:2|3:2|3:2,0:0:0:0:
90,213,36366,2,0,P|117:260|106:313,1,110,2|2,1:2|3:2,0:0:0:0:
80,361,37000,1,10,0:2:0:0:
188,382,37423,38,0,L|297:363,1,110,2|10,1:2|0:2,0:0:0:0:
404,341,38268,2,0,L|413:286,1,55,2|2,1:2|0:2,0:0:0:0:
463,265,38690,2,0,L|454:210,1,55,10|2,0:2|3:2,0:0:0:0:
442,156,39113,2,0,L|333:137,1,110,2|8,1:2|0:2,0:0:0:0:
279,128,39747,1,0,3:2:0:0:
207,211,40169,1,8,0:2:0:0:
207,211,40380,2,0,L|198:266,1,55,8|8,0:2|0:2,0:0:0:0:
188,319,40803,6,0,P|141:346|88:335,1,110,2|2,1:2|3:2,0:0:0:0:
37,315,41437,2,0,L|18:206,1,110,2|2,1:2|3:2,0:0:0:0:
8,152,42070,1,10,0:2:0:0:
39,46,42493,2,0,P|85:19|138:29,1,110,2|2,1:2|3:2,0:0:0:0:
187,53,43127,2,0,L|196:107,1,55,2|2,1:2|3:2,0:0:0:0:
205,161,43549,1,2,3:2:0:0:
313,198,43972,1,2,0:2:0:0:
313,198,44183,38,0,L|294:307,1,110,2|10,1:2|0:2,0:0:0:0:
283,363,44817,1,2,1:2:0:0:
283,363,45028,2,0,L|229:372,1,55,2|2,1:2|0:2,0:0:0:0:
173,375,45451,1,10,0:2:0:0:
67,343,45873,6,0,L|48:234,1,110,2|0,1:2|1:2,0:0:0:0:
1,216,46508,1,8,0:2:0:0:
1,216,46718,2,0,L|10:162,1,55,2|8,1:2|0:2,0:0:0:0:
24,108,47141,2,0,L|78:99,1,55,0|8,1:2|0:2,0:0:0:0:
132,90,47563,38,0,B|240:-29|435:60|315:204|500:181,1,440,2|2,1:2|0:2,0:0:0:0:
500,181,50521,1,8,0:2:0:0:
469,286,50944,22,0,P|415:295|369:267,1,110,6|10,1:2|0:2,0:0:0:0:
337,229,51578,1,2,1:2:0:0:
337,229,51789,2,0,L|346:174,1,55,2|2,0:2|1:2,0:0:0:0:
397,155,52211,2,0,L|387:101,1,55,10|2,0:2|3:2,0:0:0:0:
377,46,52634,2,0,B|329:37|329:37|323:28|323:28|273:19,1,110,2|10,1:2|0:2,0:0:0:0:
223,9,53268,1,2,1:2:0:0:
223,9,53479,2,0,P|196:56|207:109,1,110,2|10,0:2|0:2,0:0:0:0:
301,164,54324,6,0,B|292:212|292:212|283:218|283:218|274:268,1,110,2|10,1:2|0:2,0:0:0:0:
267,325,54958,1,2,1:2:0:0:
267,325,55169,2,0,L|213:335,1,55,2|2,0:2|1:2,0:0:0:0:
188,384,55592,2,0,L|134:374,1,55,10|2,0:2|3:2,0:0:0:0:
82,355,56014,2,0,B|73:307|73:307|64:301|64:301|55:251,1,110,2|10,1:2|0:2,0:0:0:0:
9,230,56648,1,2,1:2:0:0:
9,230,56859,2,0,L|19:176,1,55,2|0,1:2|1:2,0:0:0:0:
35,123,57282,1,8,0:2:0:0:
135,78,57704,38,0,P|188:68|234:96,1,110,2|10,1:2|0:2,0:0:0:0:
273,142,58338,1,2,1:2:0:0:
273,142,58549,2,0,L|263:196,1,55,2|2,0:2|1:2,0:0:0:0:
213,217,58971,2,0,L|223:271,1,55,10|2,0:2|3:2,0:0:0:0:
232,325,59394,2,0,B|280:334|280:334|286:343|286:343|336:352,1,110,2|10,1:2|0:2,0:0:0:0:
393,364,60028,1,2,1:2:0:0:
393,364,60239,2,0,P|420:317|409:264,1,110,2|10,0:2|0:2,0:0:0:0:
508,216,61085,6,0,B|499:168|499:168|490:162|490:162|481:112,1,110,2|10,1:2|0:2,0:0:0:0:
469,63,61719,1,2,1:2:0:0:
469,63,61930,2,0,L|415:53,1,55,2|2,0:2|1:2,0:0:0:0:
395,2,62353,2,0,L|341:12,1,55,10|2,0:2|3:2,0:0:0:0:
287,24,62775,1,10,0:2:0:0:
262,131,63197,1,8,0:2:0:0:
240,238,63620,2,0,B|192:229|192:229|186:220|186:220|136:211,1,110,8|2,0:2|0:2,0:0:0:0:
86,204,64254,1,2,0:2:0:0:
86,204,64465,38,0,L|76:150,1,55,6|2,1:2|1:2,0:0:0:0:
24,130,64887,2,0,L|34:76,1,55,10|2,0:2|1:2,0:0:0:0:
67,32,65310,2,0,L|121:22,1,55,2|2,1:2|1:2,0:0:0:0:
151,67,65732,1,10,0:2:0:0:
239,1,66155,2,0,L|293:11,1,55,2|2,1:2|1:2,0:0:0:0:
314,61,66578,1,10,0:2:0:0:
419,90,67000,2,2,L|482:78,1,55,0|2,0:0|1:2,1:2:0:0:
512,119,67422,1,10,0:2:0:0:
446,207,67845,6,0,P|473:254|462:307,1,110,2|10,1:2|0:2,0:0:0:0:
440,359,68479,1,2,1:2:0:0:
440,359,68690,2,0,L|386:369,1,55,2|2,1:2|1:2,0:0:0:0:
342,335,69113,2,0,L|288:325,1,55,10|2,0:2|1:2,0:0:0:0:
241,353,69535,2,0,B|232:305|232:305|223:299|223:299|214:249,1,110,2|10,1:2|0:2,0:0:0:0:
205,199,70169,1,2,1:2:0:0:
205,199,70380,2,0,P|251:172|304:182,1,110,2|8,1:2|0:2,0:0:0:0:
408,216,71225,38,0,L|418:162,1,55,6|2,1:2|1:2,0:0:0:0:
469,143,71647,2,0,L|459:89,1,55,10|2,0:2|1:2,0:0:0:0:
444,35,72070,1,0,1:2:0:0:
338,3,72492,1,10,0:2:0:0:
258,79,72915,2,0,L|268:133,1,55,2|2,1:2|1:2,0:0:0:0:
317,157,73338,2,0,L|307:211,1,55,10|2,0:2|1:2,0:0:0:0:
261,242,73761,2,0,L|271:296,1,55,2|2,1:2|1:2,0:0:0:0:
223,323,74182,1,10,0:2:0:0:
114,305,74606,6,0,B|105:257|105:257|96:251|96:251|87:201,1,110,2|10,1:2|0:2,0:0:0:0:
41,180,75240,1,2,1:2:0:0:
41,180,75450,2,0,L|51:126,1,55,2|2,1:2|1:2,0:0:0:0:
57,71,75873,2,0,L|111:61,1,55,10|2,0:2|1:2,0:0:0:0:
165,52,76296,1,10,0:2:0:0:
261,0,76718,1,10,0:2:0:0:
344,71,77141,2,0,B|335:119|335:119|326:125|326:125|317:175,1,110,10|10,0:2|3:2,0:0:0:0:
218,223,77986,6,0,L|227:278,1,55,0|2,1:2|3:2,0:0:0:0:
237,331,78409,1,2,3:2:0:0:
312,364,78725,2,0,P|376:381|430:343,1,137.5,2|10,3:2|0:2,0:0:0:0:
462,299,79465,1,10,0:2:0:0:
462,299,79676,2,0,L|453:244,1,55,0|2,1:2|3:2,0:0:0:0:
444,190,80099,1,2,3:2:0:0:
369,154,80416,2,0,P|386:89|347:35,1,137.5,2|10,3:2|0:2,0:0:0:0:
301,16,81155,1,10,0:2:0:0:
301,16,81366,6,0,L|246:26,1,55,0|2,1:2|3:2,0:0:0:0:
194,43,81789,1,2,3:2:0:0:
115,67,82106,2,0,L|91:202,1,137.5,2|10,3:2|0:2,0:0:0:0:
84,260,82845,1,10,0:2:0:0:
84,260,83056,1,0,1:2:0:0:
393,373,84324,1,8,0:2:0:0:
467,292,84747,38,0,L|458:237,1,55,0|2,1:2|3:2,0:0:0:0:
452,187,85170,1,2,3:2:0:0:
385,138,85486,2,0,P|331:100|266:118,1,137.5,2|10,3:2|0:2,0:0:0:0:
222,149,86226,1,10,0:2:0:0:
222,149,86437,2,0,L|213:204,1,55,0|2,1:2|3:2,0:0:0:0:
207,258,86860,1,2,3:2:0:0:
199,339,87176,2,0,P|145:377|80:359,1,137.5,2|10,3:2|0:2,0:0:0:0:
39,330,87916,1,10,0:2:0:0:
39,330,88127,6,0,L|30:275,1,55,0|2,1:2|3:2,0:0:0:0:
24,220,88550,1,2,3:2:0:0:
101,190,88867,2,0,L|125:55,1,137.5,2|10,3:2|0:2,0:0:0:0:
139,4,89606,1,10,0:2:0:0:
139,4,89817,1,0,1:2:0:0:
338,95,90662,2,0,L|347:150,1,55,2|2,0:2|0:2,0:0:0:0:
400,167,91085,2,0,L|391:222,1,55,8|8,0:2|0:2,0:0:0:0:
382,268,91507,37,4,1:2:0:0:
98,226,93837,1,2,1:2:0:0:
338,95,96167,1,4,1:2:0:0:
54,53,98497,1,2,1:2:0:0:
54,53,100827,6,0,B|122:18|193:65|145:101|221:149|285:115,1,263.99999194336,6|10,1:2|0:2,0:0:0:0:
474,218,103157,38,0,B|488:228|496:244|496:244|503:255|503:255|505:267|505:267|510:292|501:316|501:316|492:326|492:326|488:337|488:337|467:362|434:367,1,197.99999395752,2|2,1:2|1:2,0:0:0:0:
354,361,104322,1,10,0:2:0:0:
97,127,105487,6,0,B|97:128|97:128|99:133|101:137|101:137|106:148|106:148|107:161|107:161|107:163|107:166|107:166|104:178|104:178|104:191|104:191|103:193|103:196|103:196|98:207|98:207|91:217|91:217|89:219|88:221|88:221|77:228|77:228|70:239|70:239|68:240|66:242|66:242|58:251|58:251|47:257|47:257|45:259|44:261|44:261|36:270|36:270|31:282|31:282|30:284|30:287|30:287|29:299|29:299|25:311|25:311|25:314|25:316|25:316|25:329|25:329|29:341|29:341|32:349|36:356,1,263.99999194336,2|10,1:2|0:2,0:0:0:0:
306,230,107817,38,0,P|321:167|285:114,1,131.99999597168,2|0,1:2|0:0,0:0:0:0:
285,114,109565,2,0,L|220:102,1,65.9999979858399,8|8,0:2|0:2,0:0:0:0:
160,154,110147,22,0,L|182:283,1,131.99999597168,6|2,1:2|0:2,0:0:0:0:
225,351,111021,1,2,3:2:0:0:
296,317,111312,2,0,L|360:328,1,65.9999979858399,10|2,0:2|3:2,0:0:0:0:
404,261,111895,2,0,L|468:249,1,65.9999979858399,2|2,3:2|3:2,0:0:0:0:
498,175,112477,2,0,P|513:112|478:59,1,131.99999597168,2|2,1:2|0:2,0:0:0:0:
409,19,113351,1,2,1:2:0:0:
350,72,113642,2,0,L|220:49,1,131.99999597168,10|2,0:2|3:2,0:0:0:0:
78,119,114807,6,0,P|42:172|57:234,1,131.99999597168,2|2,1:2|0:2,0:0:0:0:
103,298,115681,1,2,3:2:0:0:
181,306,115973,2,0,L|193:371,2,65.9999979858399,10|2|2,0:2|3:2|3:2,0:0:0:0:
234,247,116846,1,2,3:2:0:0:
223,168,117138,2,0,P|207:105|243:52,1,131.99999597168,2|2,1:2|0:2,0:0:0:0:
316,22,118011,1,2,1:2:0:0:
369,80,118303,2,0,L|434:92,1,65.9999979858399,10|0,0:2|3:2,0:0:0:0:
475,260,119468,38,0,L|345:283,1,131.99999597168,6|2,1:2|0:2,0:0:0:0:
299,348,120342,1,2,3:2:0:0:
221,333,120633,2,0,L|156:321,1,65.9999979858399,10|2,0:2|3:2,0:0:0:0:
79,301,121215,2,0,L|67:236,1,65.9999979858399,2|2,3:2|3:2,0:0:0:0:
10,179,121798,2,0,P|-5:116|30:63,1,131.99999597168,2|2,1:2|0:2,0:0:0:0:
100,25,122672,1,2,1:2:0:0:
155,80,122963,2,0,L|285:57,1,131.99999597168,10|2,0:2|3:2,0:0:0:0:
432,114,124128,6,0,P|468:168|453:230,1,131.99999597168,2|2,1:2|0:2,0:0:0:0:
412,297,125002,1,2,3:2:0:0:
333,310,125293,2,0,L|321:375,2,65.9999979858399,10|2|2,0:2|3:2|3:2,0:0:0:0:
286,245,126167,1,2,3:2:0:0:
213,275,126458,1,2,1:2:0:0:
506,156,127623,1,2,1:2:0:0:
152,67,128788,6,0,L|142:12,2,55,2|2|2,1:2|3:2|3:2,0:0:0:0:
112,105,129421,2,0,L|93:213,1,110,2|2,1:2|3:2,0:0:0:0:
82,267,130056,1,10,0:2:0:0:
171,330,130478,2,0,L|181:385,2,55,2|2|2,1:2|3:2|3:2,0:0:0:0:
212,294,131111,2,0,L|320:313,1,110,2|2,1:2|3:2,0:0:0:0:
375,321,131746,1,10,0:2:0:0:
481,292,132168,6,0,P|491:239|464:192,1,110,2|10,1:2|0:2,0:0:0:0:
419,160,132802,2,0,L|364:170,1,55,0|2,3:2|1:2,0:0:0:0:
340,220,133224,1,2,0:2:0:0:
340,220,133435,2,0,L|285:210,1,55,10|2,0:2|3:2,0:0:0:0:
232,198,133858,2,0,P|205:151|215:98,1,110,2|8,1:2|0:2,0:0:0:0:
239,49,134492,1,0,3:2:0:0:
142,7,134914,1,8,0:2:0:0:
142,7,135125,2,0,L|87:16,1,55,8|8,0:2|0:2,0:0:0:0:
62,65,135548,38,0,L|7:55,2,55,2|2|2,1:2|3:2|3:2,0:0:0:0:
83,115,136181,2,0,L|102:223,1,110,2|2,1:2|3:2,0:0:0:0:
113,277,136816,1,10,0:2:0:0:
209,329,137238,2,0,L|199:384,2,55,2|2|2,1:2|3:2|3:2,0:0:0:0:
259,307,137871,2,0,L|367:288,1,110,2|2,1:2|3:2,0:0:0:0:
422,280,138506,1,10,0:2:0:0:
474,183,138928,6,0,P|484:130|457:83,1,110,2|10,1:2|0:2,0:0:0:0:
418,52,139563,1,2,1:2:0:0:
418,52,139773,2,0,L|363:61,1,55,2|2,1:2|0:2,0:0:0:0:
309,71,140197,1,10,0:2:0:0:
203,44,140618,38,0,P|156:17|103:27,1,110,2|0,1:2|1:2,0:0:0:0:
61,61,141252,1,8,0:2:0:0:
61,61,141464,2,0,L|52:116,1,55,2|8,1:2|0:2,0:0:0:0:
6,145,141886,2,0,L|15:200,1,55,0|8,1:2|0:2,0:0:0:0:
23,254,142309,6,0,B|35:241|49:231|49:231|69:215|69:215|94:209|94:209|99:207|104:206|104:206|129:210|129:210|153:204|153:204|158:205|163:206|163:206|188:212|188:212|208:226|208:226|213:229|216:232|216:232|230:254|230:254|250:269|250:269|253:273|256:277|256:277|274:295|274:295|285:318|285:318|288:322|292:325|292:325|312:340|312:340|336:346|336:346|341:346|346:347|346:347|372:342|372:342|386:343,2,440,2|2|2,1:2|0:2|0:2,0:0:0:0:
23,254,146957,1,0,3:2:0:0:
122,208,147379,6,0,B|131:160|131:160|140:154|140:154|149:104,1,110,6|10,1:2|0:2,0:0:0:0:
167,55,148013,1,2,1:2:0:0:
167,55,148224,2,0,L|221:45,1,55,2|2,0:2|1:2,0:0:0:0:
250,0,148647,2,0,L|304:10,1,55,10|2,0:2|3:2,0:0:0:0:
358,17,149069,2,0,P|385:64|374:117,1,110,2|10,1:2|0:2,0:0:0:0:
352,169,149703,1,2,1:2:0:0:
352,169,149914,2,0,B|304:178|304:178|298:187|298:187|248:196,1,110,2|10,0:2|0:2,0:0:0:0:
141,222,150759,6,0,P|130:274|157:321,1,110,2|10,1:2|0:2,0:0:0:0:
200,363,151393,1,2,1:2:0:0:
200,363,151604,2,0,L|254:353,1,55,2|2,0:2|1:2,0:0:0:0:
284,306,152027,2,0,L|338:316,1,55,10|2,0:2|3:2,0:0:0:0:
392,325,152449,2,0,P|419:278|408:225,1,110,2|10,1:2|0:2,0:0:0:0:
388,179,153083,1,2,1:2:0:0:
388,179,153294,2,0,L|334:169,1,55,2|0,1:2|1:2,0:0:0:0:
280,155,153717,1,8,3:2:0:0:
230,56,154140,38,0,B|180:65|180:65|174:74|174:74|126:83,1,110,2|10,1:2|0:2,0:0:0:0:
76,100,154774,1,2,1:2:0:0:
76,100,154985,2,0,L|66:154,1,55,2|2,0:2|1:2,0:0:0:0:
17,180,155408,2,0,L|27:234,1,55,10|2,0:2|3:2,0:0:0:0:
38,287,155830,2,0,P|85:314|138:303,1,110,2|10,1:2|0:2,0:0:0:0:
190,282,156464,1,2,1:2:0:0:
190,282,156675,2,0,B|199:234|199:234|208:228|208:228|217:178,1,110,2|10,0:2|0:2,0:0:0:0:
242,71,157520,6,0,P|289:44|342:55,1,110,2|10,1:2|0:2,0:0:0:0:
396,80,158154,1,2,1:2:0:0:
396,80,158365,2,0,L|406:134,1,55,2|2,0:2|1:2,0:0:0:0:
457,154,158788,2,0,L|447:208,1,55,10|2,0:2|3:2,0:0:0:0:
433,261,159210,1,10,0:2:0:0:
334,309,159632,1,8,0:2:0:0:
232,352,160055,2,0,P|179:362|132:335,1,110,8|10,0:2|0:2,0:0:0:0:
95,302,160689,1,10,0:2:0:0:
95,302,160900,38,0,L|105:248,1,55,6|2,1:2|1:2,0:0:0:0:
153,221,161322,2,0,L|143:167,1,55,10|2,0:2|1:2,0:0:0:0:
102,129,161745,2,0,L|112:75,1,55,2|2,1:2|1:2,0:0:0:0:
155,41,162167,1,10,0:2:0:0:
264,53,162590,2,0,L|318:43,1,55,2|2,1:2|1:2,0:0:0:0:
342,4,163013,1,10,0:0:0:0:
445,41,163435,2,0,L|499:51,1,55,2|2,1:2|1:2,0:0:0:0:
511,105,163857,1,10,0:2:0:0:
415,160,164280,6,0,B|406:208|406:208|397:214|397:214|388:264,1,110,2|10,1:2|0:2,0:0:0:0:
378,320,164914,1,2,1:2:0:0:
378,320,165125,2,0,L|324:330,1,55,2|2,1:2|1:2,0:0:0:0:
303,381,165548,2,0,L|249:371,1,55,10|2,0:2|1:2,0:0:0:0:
195,355,165971,2,0,P|168:308|179:255,1,110,2|10,1:2|0:2,0:0:0:0:
206,210,166604,1,2,1:2:0:0:
206,210,166816,2,0,B|254:201|254:201|260:192|260:192|310:183,1,110,2|8,1:2|0:2,0:0:0:0:
312,73,167660,38,0,L|258:63,1,55,6|2,1:2|1:2,0:0:0:0:
237,11,168082,2,0,L|183:21,1,55,10|2,0:2|1:2,0:0:0:0:
128,32,168505,1,0,1:2:0:0:
30,83,168927,1,10,0:2:0:0:
98,169,169350,2,0,L|88:223,1,55,2|2,1:2|1:2,0:0:0:0:
35,241,169773,2,0,L|45:295,1,55,10|2,0:2|1:2,0:0:0:0:
85,332,170196,2,0,L|139:342,1,55,2|2,1:2|1:2,0:0:0:0:
174,383,170617,1,10,0:2:0:0:
245,298,171041,6,0,P|292:325|345:314,1,110,2|10,1:2|0:2,0:0:0:0:
395,289,171675,1,2,1:2:0:0:
395,289,171885,2,0,L|405:235,1,55,2|2,1:2|1:2,0:0:0:0:
457,217,172308,2,0,L|447:163,1,55,10|2,0:2|1:2,0:0:0:0:
424,113,172731,1,10,0:2:0:0:
348,33,173153,1,10,0:2:0:0:
249,81,173576,2,0,P|196:70|149:97,1,110,10|10,0:2|0:2,0:0:0:0:
112,138,174210,1,10,0:2:0:0:
112,138,174421,6,0,L|121:193,1,55,4|2,1:2|3:2,0:0:0:0:
133,246,174844,1,10,0:2:0:0:
155,325,175161,2,0,L|289:349,1,137.5,2|10,0:0|0:2,0:0:0:0:
333,314,175900,1,2,3:2:0:0:
333,314,176111,2,0,L|388:305,1,55,0|2,1:2|3:2,0:0:0:0:
441,297,176534,1,10,0:2:0:0:
489,230,176851,2,0,L|465:95,1,137.5,2|10,0:0|0:2,0:0:0:0:
456,45,177590,1,2,3:2:0:0:
456,45,177802,6,0,L|401:36,1,55,0|2,1:2|3:2,0:0:0:0:
347,26,178224,1,10,0:2:0:0:
265,15,178541,2,0,P|226:69|244:133,1,137.5,2|10,3:2|0:2,0:0:0:0:
282,179,179280,1,2,3:2:0:0:
282,179,179492,2,0,L|337:188,1,55,0|2,1:2|3:2,0:0:0:0:
394,198,179914,1,8,0:2:0:0:
394,198,180126,2,0,P|421:245|410:298,1,110,2|2,3:2|1:2,0:0:0:0:
381,344,180759,1,8,0:2:0:0:
276,379,181182,38,0,L|221:370,1,55,4|2,1:2|3:2,0:0:0:0:
167,358,181605,1,10,0:2:0:0:
96,314,181922,2,0,L|72:180,1,137.5,2|10,0:0|0:2,0:0:0:0:
28,153,182661,1,2,3:2:0:0:
28,153,182872,2,0,L|37:98,1,55,0|2,1:2|3:2,0:0:0:0:
50,45,183295,1,10,0:2:0:0:
131,31,183612,2,0,L|266:7,1,137.5,2|10,0:0|0:2,0:0:0:0:
307,50,184351,1,2,3:2:0:0:
307,50,184562,6,0,L|362:59,1,55,0|2,1:2|3:2,0:0:0:0:
416,65,184985,1,10,0:2:0:0:
469,127,185302,2,0,P|486:191|448:245,1,137.5,2|10,0:0|0:2,0:0:0:0:
405,278,186041,1,10,0:2:0:0:
405,278,186253,38,0,L|324:264,1,82.5,14|2,0:2|0:0,0:0:0:0:
243,243,186886,2,0,P|216:196|226:143,1,110,2|0,0:0|3:2,0:0:0:0:
255,96,187520,1,8,0:2:0:0:
146,80,187942,6,0,L|131:-2,2,82.5,2|2|2,1:2|3:2|3:2,0:0:0:0:
111,122,188787,2,0,P|74:140|33:137,1,82.5,2|2,0:2|3:2,0:0:0:0:
17,221,189421,1,2,3:2:0:0:
17,221,189632,2,0,L|2:303,1,82.5,2|2,1:2|3:2,0:0:0:0:
64,357,190266,2,0,L|172:338,1,110,2|0,3:2|0:0,0:0:0:0:
246,256,191111,1,2,0:2:0:0:
246,256,191323,38,0,P|228:219|231:178,2,82.5,2|2|2,1:2|3:2|3:2,0:0:0:0:
299,269,192167,2,0,L|380:283,1,82.5,2|2,0:2|3:2,0:0:0:0:
455,244,192801,1,2,3:2:0:0:
455,244,193013,2,0,P|473:207|470:166,1,82.5,2|2,1:2|3:2,0:0:0:0:
434,92,193647,2,0,P|387:65|334:76,1,110,2|0,3:2|3:2,0:0:0:0:
287,104,194280,1,0,3:2:0:0:
211,183,194703,6,0,L|226:265,1,82.5,2|2,1:2|3:2,0:0:0:0:
171,326,195336,1,2,3:2:0:0:
171,326,195548,2,0,P|130:328|93:310,1,82.5,2|2,0:2|3:2,0:0:0:0:
38,256,196182,1,2,3:2:0:0:
38,256,196393,2,0,L|53:174,1,82.5,2|2,1:2|3:2,0:0:0:0:
76,95,197027,2,0,L|184:76,1,110,2|0,3:2|0:0,0:0:0:0:
286,128,197872,1,2,0:2:0:0:
286,128,198083,38,0,P|288:168|270:205,1,82.5,2|2,1:2|3:2,0:0:0:0:
350,242,198716,1,2,3:2:0:0:
350,242,198928,2,0,P|347:282|365:319,1,82.5,2|2,0:2|3:2,0:0:0:0:
437,369,199562,1,2,3:2:0:0:
437,369,199773,1,2,1:2:0:0:
