osu file format v14

[General]
AudioFilename: audio.mp3
AudioLeadIn: 0
PreviewTime: 50627
Countdown: 0
SampleSet: Soft
StackLeniency: 0.5
Mode: 0
LetterboxInBreaks: 0
WidescreenStoryboard: 1

[Editor]
DistanceSpacing: 1.7
BeatDivisor: 8
GridSize: 16
TimelineZoom: 2.3

[Metadata]
Title:God-ish
TitleUnicode:神っぽいな
Artist:philo
ArtistUnicode:フィロ
Creator:Basensorex
Version:Advanced
Source:
Tags:kirishima- pincus alevi vanya2 ermi nymphe modding queue kiyoshi guarden gazimal brain exe kamippoi kami ppoi na godish japanese pop j-pop jpop vocaloid ボーカ utaite cover female strong vocals vocalist pinocchiop hatsune miku
BeatmapID:3845727
BeatmapSetID:1722410

[Difficulty]
HPDrainRate:3.5
CircleSize:3.5
OverallDifficulty:5
ApproachRate:6.5
SliderMultiplier:1.2
SliderTickRate:1

[Events]
//Background and Video events
0,0,"hot.png",0,0
//Break Periods
//Storyboard Layer 0 (Background)
//Storyboard Layer 1 (Fail)
//Storyboard Layer 2 (Pass)
//Storyboard Layer 3 (Foreground)
//Storyboard Layer 4 (Overlay)
//Storyboard Sound Samples

[TimingPoints]
240,422.535211267606,4,2,22,40,1,0
7000,-125,4,2,22,40,0,0
13761,-111.111111111111,4,2,22,50,0,0
20521,-100,4,2,22,65,0,0
32775,-111.111111111111,4,2,22,65,0,0
34042,-111.111111111111,4,2,22,55,0,0
37423,-100,4,2,22,65,0,0
40803,-111.111111111111,4,2,22,55,0,0
44183,-100,4,2,22,65,0,0
45873,-100,4,2,22,70,0,0
47563,-200,4,2,22,70,0,0
50944,-83.3333333333333,4,2,22,80,0,1
64042,-100,4,2,22,60,0,0
64465,-83.3333333333333,4,2,22,80,0,1
77986,-100,4,2,22,60,0,0
91507,582.52427184466,4,2,22,50,1,0
100827,-100,4,2,22,65,0,0
103157,-90.9090909090909,4,2,22,65,0,0
105487,-83.3333333333333,4,2,22,65,0,0
108982,-100,4,2,22,65,0,0
110147,-100,4,2,22,75,0,0
128788,422.535211267606,4,2,22,55,1,0
128788,-111.111111111111,4,2,22,55,0,0
132168,-99.9999999999999,4,2,22,65,0,0
135548,-111.111111111111,4,2,22,55,0,0
138928,-99.9999999999999,4,2,22,65,0,0
140618,-99.9999999999999,4,2,22,70,0,0
142309,-200,4,2,22,70,0,0
145689,-200,4,2,22,70,0,0
147379,-83.3333333333333,4,2,22,85,0,1
160478,-100,4,2,22,85,0,0
160900,-83.3333333333333,4,2,22,85,0,1
174421,-100,4,2,22,75,0,0
187309,-125,4,2,22,75,0,0
187942,-125,4,2,22,50,0,0
194703,-111.111111111111,4,2,22,50,0,0

[Colours]
Combo1 : 169,177,5
Combo2 : 191,191,191
Combo3 : 75,74,74
Combo4 : 228,14,46

[HitObjects]
116,15,7000,6,0,L|37:24,2,72,2|2|2,1:2|3:2|3:2,0:0:0:0:
168,78,7845,2,0,P|181:113|185:156,1,72,2|2,0:2|3:2,0:0:0:0:
94,228,8479,1,2,3:2:0:0:
52,297,8690,6,0,P|39:332|35:375,2,72,2|2|2,1:2|3:2|3:2,0:0:0:0:
170,265,9641,1,0,3:2:0:0:
287,298,9958,1,0,3:2:0:0:
401,181,10380,38,0,L|480:190,2,72,2|2|2,1:2|3:2|3:2,0:0:0:0:
358,111,11225,2,0,P|323:98|280:94,1,72,2|2,0:2|3:2,0:0:0:0:
189,21,11859,1,2,3:2:0:0:
116,59,12070,6,0,P|81:72|38:76,2,72,2|2|2,1:2|3:2|3:2,0:0:0:0:
185,103,12916,2,0,L|179:150,1,48,0|0,3:2|3:2,0:0:0:0:
122,209,13338,1,0,3:2:0:0:
54,163,13549,1,0,3:2:0:0:
0,237,13761,38,0,L|6:290,1,53.9999983520508,2|2,1:2|3:2,0:0:0:0:
13,336,14078,2,0,P|49:355|91:355,1,80.9999975280763,2|2,3:2|3:2,0:0:0:0:
158,297,14606,2,0,P|181:281|207:277,1,53.9999983520508,2|2,0:2|0:2,0:0:0:0:
253,284,14923,1,2,3:2:0:0:
363,366,15240,1,2,3:2:0:0:
448,332,15451,6,0,P|472:301|469:261,1,80.9999975280763,2|2,1:2|3:2,0:0:0:0:
347,195,16085,2,0,L|358:99,2,80.9999975280763,2|0|8,3:2|3:2|0:2,0:0:0:0:
272,248,16930,1,2,0:2:0:0:
206,183,17141,38,0,P|175:159|135:162,1,80.9999975280763,2|2,1:2|3:2,0:0:0:0:
95,185,17563,1,10,0:2:0:0:
13,20,17986,2,0,P|36:4|62:0,1,53.9999983520508,2|2,0:2|0:2,0:0:0:0:
105,13,18303,2,0,L|200:1,1,80.9999975280763,2|2,3:2|3:2,0:0:0:0:
256,61,18831,5,2,1:2:0:0:
256,61,19887,2,0,L|252:87,2,26.9999991760254,2|0|10,3:2|3:2|0:2,0:0:0:0:
453,8,20521,38,0,L|460:67,1,60,4|2,1:2|0:2,0:0:0:0:
475,168,20944,1,2,1:2:0:0:
351,259,21261,2,0,P|326:241|297:243,2,60,2|2|2,0:2|0:2|0:2,0:0:0:0:
382,299,21789,1,2,1:2:0:0:
303,363,22000,1,10,0:2:0:0:
217,308,22211,6,0,P|187:306|163:323,1,60,0|2,1:2|0:2,0:0:0:0:
77,379,22634,1,2,1:2:0:0:
60,226,22951,2,0,L|0:218,2,60,2|2|2,0:2|0:2|0:2,0:0:0:0:
102,197,23479,1,2,1:2:0:0:
51,108,23690,1,10,0:2:0:0:
126,39,23901,38,0,L|185:31,1,60,0|2,1:2|0:2,0:0:0:0:
286,13,24324,1,2,1:2:0:0:
407,106,24641,2,0,P|389:130|391:159,2,60,2|2|2,0:2|0:2|0:2,0:0:0:0:
452,82,25169,1,2,1:2:0:0:
511,164,25380,1,10,0:2:0:0:
464,255,25592,5,0,1:2:0:0:
362,255,25803,2,0,B|295:262|314:220|237:231,1,120,2|2,0:2|0:2,0:0:0:0:
48,184,26648,2,0,P|6:224|6:282,1,120,2|10,0:2|0:2,0:0:0:0:
69,363,27282,38,0,P|93:380|122:378,1,60,0|2,1:2|0:2,0:0:0:0:
203,316,27704,1,2,1:2:0:0:
349,361,28021,2,0,L|356:301,2,60,2|2|2,0:2|0:2|0:2,0:0:0:0:
394,383,28549,1,2,1:2:0:0:
484,334,28761,1,10,0:2:0:0:
477,232,28972,6,0,L|469:172,1,60,0|2,1:2|0:2,0:0:0:0:
457,71,29394,1,2,1:2:0:0:
312,120,29711,2,0,P|329:144|327:173,2,60,2|2|2,0:2|0:2|0:2,0:0:0:0:
272,86,30240,1,2,1:2:0:0:
194,20,30451,1,10,0:2:0:0:
95,45,30662,38,0,P|77:69|79:98,1,60,0|2,1:2|0:2,0:0:0:0:
115,194,31085,1,2,1:2:0:0:
58,336,31401,2,0,L|-1:343,2,60,2|2|2,0:2|0:2|0:2,0:0:0:0:
95,371,31930,1,2,1:2:0:0:
183,321,32141,1,10,0:2:0:0:
264,382,32352,5,2,1:2:0:0:
193,212,32775,2,0,L|219:215,4,26.9999991760254,0|0|2|0|0,3:2|3:2|3:2|3:2|3:2,0:0:0:0:
112,256,33409,2,0,L|85:259,1,26.9999991760254,0|0,1:2|1:2,0:0:0:0:
39,265,33620,1,8,0:2:0:0:
2,85,34042,38,0,P|47:58|97:72,1,107.999996704102,2|2,1:2|3:2,0:0:0:0:
162,137,34676,2,0,B|228:143|207:105|284:113,1,107.999996704102,2|2,1:2|3:2,0:0:0:0:
295,25,35310,1,10,0:2:0:0:
327,205,35732,6,0,B|393:199|372:237|449:229,1,107.999996704102,2|2,1:2|3:2,0:0:0:0:
503,285,36366,2,0,P|517:336|490:381,1,107.999996704102,2|2,1:2|3:2,0:0:0:0:
398,372,37000,1,10,0:2:0:0:
293,196,37423,38,0,L|213:205,1,60,2|0,1:2|0:0,0:0:0:0:
218,303,37845,2,0,L|138:293,1,60,10|0,0:2|3:2,0:0:0:0:
60,326,38268,2,0,P|44:351|40:380,2,60,2|2|10,1:2|0:2|0:2,0:0:0:0:
0,243,38901,1,2,3:2:0:0:
59,159,39113,6,0,P|48:102|92:65,1,120,2|8,1:2|0:2,0:0:0:0:
179,120,39747,1,0,3:2:0:0:
264,64,39958,2,0,P|292:55|321:58,1,60,0|8,1:2|0:2,0:0:0:0:
410,109,40380,2,0,L|439:105,3,30,8|8|8|8,0:2|0:2|0:2|0:2,0:0:0:0:
480,127,40803,38,0,B|474:193|512:172|504:249,1,107.999996704102,2|2,1:2|3:2,0:0:0:0:
440,295,41437,2,0,P|389:309|344:282,1,107.999996704102,2|2,1:2|3:2,0:0:0:0:
311,196,42070,1,10,0:2:0:0:
154,99,42493,6,0,P|103:85|58:112,1,107.999996704102,2|2,1:2|3:2,0:0:0:0:
28,199,43127,2,0,B|34:265|-4:244|4:321,1,107.999996704102,2|2,1:2|3:2,0:0:0:0:
68,366,43761,1,10,0:2:0:0:
235,250,44183,38,0,L|354:264,1,120,2|10,1:2|0:2,0:0:0:0:
420,342,44817,1,2,1:2:0:0:
501,281,45028,2,0,P|510:253|507:224,1,60,2|2,1:2|0:2,0:0:0:0:
415,176,45451,2,0,P|406:148|409:119,1,60,10|2,0:2|1:2,0:0:0:0:
353,32,45873,6,0,L|263:42,1,90,2|8,1:2|0:2,0:0:0:0:
212,49,46296,1,0,1:2:0:0:
148,128,46507,1,8,0:2:0:0:
226,193,46718,38,0,L|315:182,1,90,2|8,1:2|0:2,0:0:0:0:
366,178,47141,1,0,1:2:0:0:
430,257,47352,1,8,0:2:0:0:
350,323,47563,6,0,B|298:277|179:323|264:391|139:382,1,240,2|2,1:2|0:2,0:0:0:0:
142,383,50521,1,8,0:2:0:0:
26,166,50944,6,0,B|16:132|16:132|30:99,1,71.9999978027344,6|2,1:2|0:2,0:0:0:0:
112,28,51366,2,0,L|191:37,1,71.9999978027344,10|2,0:2|1:2,0:0:0:0:
243,126,51789,1,2,0:2:0:0:
321,51,52000,1,2,1:2:0:0:
389,134,52211,2,0,L|468:124,1,71.9999978027344,10|2,0:2|3:2,0:0:0:0:
507,222,52634,6,0,B|521:255|521:255|511:289,1,71.9999978027344,2|2,1:2|0:2,0:0:0:0:
442,373,53056,1,10,0:2:0:0:
370,291,53268,1,2,1:2:0:0:
294,368,53479,2,0,B|217:377|239:324|151:340,1,143.999995605469,2|10,0:2|0:2,0:0:0:0:
16,174,54324,38,0,L|26:95,1,71.9999978027344,2|2,1:2|0:2,0:0:0:0:
113,39,54747,2,0,L|122:110,1,71.9999978027344,10|2,0:2|1:2,0:0:0:0:
198,186,55169,1,2,0:2:0:0:
267,103,55380,1,2,1:2:0:0:
338,184,55592,2,0,B|371:198|371:198|405:188,1,71.9999978027344,10|2,0:2|3:2,0:0:0:0:
494,249,56014,6,0,B|508:282|508:282|498:316,1,71.9999978027344,2|2,1:2|0:2,0:0:0:0:
412,383,56437,1,10,0:2:0:0:
331,311,56648,1,2,1:2:0:0:
243,374,56859,2,0,L|207:369,3,35.9999989013672,2|0|0|0,1:2|1:2|1:2|1:2,0:0:0:0:
168,330,57282,2,0,L|132:334,3,35.9999989013672,8|8|8|8,0:2|0:2|0:2|0:2,0:0:0:0:
98,376,57704,38,0,B|64:386|64:386|31:372,1,71.9999978027344,2|2,1:2|0:2,0:0:0:0:
4,266,58127,2,0,L|13:187,1,71.9999978027344,10|2,0:2|1:2,0:0:0:0:
26,87,58549,1,2,0:2:0:0:
124,41,58761,1,2,1:2:0:0:
212,102,58972,2,0,L|221:181,1,71.9999978027344,10|2,0:2|3:2,0:0:0:0:
231,280,59394,6,0,B|265:290|265:290|298:276,1,71.9999978027344,2|2,1:2|0:2,0:0:0:0:
379,348,59817,1,10,0:2:0:0:
480,310,60028,1,2,1:2:0:0:
496,202,60240,2,0,B|512:114|512:114|478:68,1,143.999995605469,2|10,0:2|0:2,0:0:0:0:
269,17,61085,38,0,L|259:96,1,71.9999978027344,2|2,1:2|0:2,0:0:0:0:
168,144,61507,2,0,L|158:65,1,71.9999978027344,10|2,0:2|1:2,0:0:0:0:
72,7,61930,1,2,0:2:0:0:
0,87,62141,1,2,1:2:0:0:
63,173,62352,2,0,B|77:206|77:206|67:240,1,71.9999978027344,10|2,0:2|3:2,0:0:0:0:
28,341,62775,5,10,0:2:0:0:
241,318,63197,1,8,0:2:0:0:
454,293,63620,2,0,P|493:236|473:169,1,143.999995605469,8|2,0:2|0:2,0:0:0:0:
489,80,64254,1,2,0:2:0:0:
395,26,64465,38,0,B|361:16|361:16|328:30,1,71.9999978027344,6|2,1:2|1:2,0:0:0:0:
264,118,64887,2,0,B|230:128|230:128|197:114,1,71.9999978027344,10|2,0:2|1:2,0:0:0:0:
140,21,65310,1,2,1:2:0:0:
32,32,65521,1,2,1:2:0:0:
0,139,65732,2,0,L|9:218,1,71.9999978027344,10|2,0:2|1:2,0:0:0:0:
96,272,66155,6,0,L|86:351,2,71.9999978027344,2|2|10,1:2|1:2|0:2,0:0:0:0:
139,239,66683,1,2,0:2:0:0:
250,356,67000,1,2,1:2:0:0:
333,287,67211,1,2,1:2:0:0:
412,360,67423,2,0,L|491:350,1,71.9999978027344,10|2,0:2|1:2,0:0:0:0:
510,246,67845,38,0,B|520:212|520:212|506:179,1,71.9999978027344,2|2,1:2|1:2,0:0:0:0:
404,139,68268,2,0,L|414:60,1,71.9999978027344,10|2,0:2|1:2,0:0:0:0:
323,6,68690,1,2,1:2:0:0:
251,86,68901,1,2,1:2:0:0:
160,25,69113,2,0,L|88:34,1,71.9999978027344,10|2,0:2|1:2,0:0:0:0:
18,116,69535,6,0,B|8:150|8:150|22:183,1,71.9999978027344,2|2,1:2|1:2,0:0:0:0:
106,251,69958,1,10,0:2:0:0:
178,171,70169,1,2,1:2:0:0:
258,242,70380,2,0,L|294:237,3,35.9999989013672,2|0|0|0,1:2|1:2|1:2|1:2,0:0:0:0:
333,198,70803,2,0,L|369:202,3,35.9999989013672,8|8|10|10,0:2|0:2|0:2|0:2,0:0:0:0:
400,158,71225,38,0,B|433:144|433:144|467:154,1,71.9999978027344,6|2,1:2|1:2,0:0:0:0:
509,254,71648,2,0,L|499:333,1,71.9999978027344,10|2,0:2|1:2,0:0:0:0:
456,357,71965,1,2,1:2:0:0:
306,295,72282,1,2,1:2:0:0:
237,378,72493,2,0,L|165:369,1,71.9999978027344,10|2,0:2|1:2,0:0:0:0:
58,353,72916,6,0,B|44:320|44:320|54:286,1,71.9999978027344,2|2,1:2|1:2,0:0:0:0:
12,185,73338,2,0,B|26:152|26:152|16:118,1,71.9999978027344,10|2,0:2|1:2,0:0:0:0:
82,31,73761,1,2,1:2:0:0:
163,101,73972,1,2,1:2:0:0:
231,17,74183,2,0,L|302:25,1,71.9999978027344,10|2,0:2|1:2,0:0:0:0:
409,43,74606,38,0,B|423:76|423:76|413:110,1,71.9999978027344,2|2,1:2|1:2,0:0:0:0:
370,209,75028,1,10,0:2:0:0:
453,278,75240,1,2,1:2:0:0:
417,379,75451,2,0,L|345:370,1,71.9999978027344,2|2,1:2|1:2,0:0:0:0:
287,279,75873,2,0,L|215:287,1,71.9999978027344,10|2,0:2|1:2,0:0:0:0:
159,379,76296,5,10,0:2:0:0:
5,227,76718,1,10,0:2:0:0:
152,69,77141,2,0,L|148:33,3,35.9999989013672,10|10|10|10,0:2|0:2|0:2|0:2,0:0:0:0:
102,4,77563,1,10,3:2:0:0:
238,155,77986,6,0,L|357:140,1,120,0|2,1:2|3:2,0:0:0:0:
493,210,78726,2,0,P|511:185|509:156,2,60,2|2|2,3:2|3:2|0:2,0:0:0:0:
512,250,79254,1,10,0:2:0:0:
503,351,79465,1,10,0:2:0:0:
403,374,79676,6,0,P|344:374|304:332,1,120,0|2,1:2|3:2,0:0:0:0:
219,204,80416,2,0,L|227:144,2,60,2|2|2,3:2|3:2|0:2,0:0:0:0:
180,228,80944,1,10,0:2:0:0:
105,297,81155,1,10,0:2:0:0:
19,241,81366,38,0,L|4:121,1,120,0|2,1:2|3:2,0:0:0:0:
141,52,82106,2,0,P|142:22|124:0,2,60,2|2|2,3:2|3:2|0:2,0:0:0:0:
177,78,82634,1,10,0:2:0:0:
260,19,82845,1,10,0:2:0:0:
298,113,83057,5,0,1:2:0:0:
381,54,83268,2,0,B|448:47|429:89|506:78,1,120,2|2,0:2|0:2,0:0:0:0:
507,283,84113,2,0,P|467:326|409:325,1,120,2|2,0:2|1:2,0:0:0:0:
347,243,84747,38,0,L|227:257,1,120,0|2,1:2|3:2,0:0:0:0:
153,123,85486,2,0,L|93:115,2,60,2|2|2,3:2|3:2|0:2,0:0:0:0:
194,93,86014,1,10,0:2:0:0:
139,6,86226,1,10,0:2:0:0:
43,41,86437,6,0,P|1:81|2:139,1,120,0|2,1:2|3:2,0:0:0:0:
53,284,87176,2,0,P|29:301|0:299,2,60,2|2|2,3:2|3:2|0:2,0:0:0:0:
97,310,87705,1,10,0:2:0:0:
169,381,87916,1,10,0:2:0:0:
244,312,88127,38,0,P|284:269|342:270,1,120,0|2,1:2|3:2,0:0:0:0:
484,324,88866,2,0,L|491:383,2,60,2|2|2,3:2|3:2|0:2,0:0:0:0:
507,278,89395,1,10,0:2:0:0:
433,207,89606,1,10,0:2:0:0:
498,128,89817,5,0,1:2:0:0:
498,128,90662,2,0,P|515:104|513:75,1,60,2|2,0:2|0:2,0:0:0:0:
425,21,91085,2,0,L|395:17,3,30,8|8|8|8,0:2|0:2|0:2|0:2,0:0:0:0:
364,37,91507,37,4,1:2:0:0:
286,96,93837,1,2,1:2:0:0:
217,28,96167,1,4,1:2:0:0:
138,82,98497,1,2,1:2:0:0:
69,14,100827,6,0,B|20:36|11:93|11:93|15:91|15:91|15:139|62:163,1,180,6|2,1:2|3:2,0:0:0:0:
130,212,101992,1,10,0:2:0:0:
130,212,103157,38,0,B|156:180|201:173|201:173|197:165|197:165|241:139|300:158,1,198.000006042481,2|2,1:2|1:2,0:0:0:0:
396,201,104322,1,10,0:2:0:0:
396,201,105487,6,0,B|394:263|437:290|437:290|445:283|445:283|490:321|486:372,1,215.999993408203,2|2,1:2|3:2,0:0:0:0:
378,379,106652,1,10,0:2:0:0:
378,379,107817,38,0,B|320:364|284:364|284:364|281:357|281:357|258:351|240:351,1,143.999995605469,2|0,1:2|0:0,0:0:0:0:
136,380,108982,6,0,P|98:357|85:314,1,90,2|0,0:2|0:0,0:0:0:0:
91,264,109565,1,8,0:2:0:0:
10,201,109856,1,8,0:2:0:0:
47,106,110147,6,0,B|114:116|100:75|161:85,1,120,6|2,1:2|0:2,0:0:0:0:
243,23,111021,1,2,3:2:0:0:
314,95,111312,2,0,L|377:87,1,60,10|2,0:2|3:2,0:0:0:0:
411,182,111895,2,0,L|474:189,1,60,2|2,3:2|3:2,0:0:0:0:
510,283,112477,6,0,P|500:339|446:360,1,120,2|2,1:2|0:2,0:0:0:0:
364,300,113351,1,2,1:2:0:0:
284,363,113642,2,0,L|164:377,1,120,10|2,0:2|3:2,0:0:0:0:
5,249,114807,38,0,B|-12:179|-12:179|21:144,1,120,2|2,1:2|0:2,0:0:0:0:
108,198,115681,1,2,3:2:0:0:
197,147,115973,2,0,P|225:137|254:143,1,60,10|2,0:2|3:2,0:0:0:0:
344,191,116555,2,0,P|372:200|401:194,1,60,2|2,3:2|3:2,0:0:0:0:
465,115,117138,6,0,P|455:59|401:38,1,120,2|2,1:2|0:2,0:0:0:0:
305,1,118011,1,2,1:2:0:0:
249,86,118303,2,0,L|219:82,3,30,10|0|0|0,0:2|3:2|3:2|3:2,0:0:0:0:
87,4,119176,1,2,1:2:0:0:
13,74,119468,38,0,B|-4:144|-4:144|29:179,1,120,6|2,1:2|0:2,0:0:0:0:
1,277,120341,1,2,3:2:0:0:
78,343,120633,2,0,L|141:336,1,60,10|2,0:2|3:2,0:0:0:0:
205,259,121215,2,0,L|268:266,1,60,2|2,3:2|3:2,0:0:0:0:
320,351,121798,6,0,L|440:337,1,120,2|2,1:2|0:2,0:0:0:0:
509,263,122672,1,2,1:2:0:0:
437,190,122963,2,0,P|413:137|446:90,1,120,10|2,0:2|3:2,0:0:0:0:
250,33,124128,38,0,B|183:23|197:64|136:54,1,120,2|2,1:2|0:2,0:0:0:0:
46,2,125002,1,2,3:2:0:0:
2,94,125293,2,0,P|-7:122|-1:151,1,60,10|2,0:2|3:2,0:0:0:0:
69,225,125875,2,0,P|78:253|72:282,1,60,2|2,3:2|3:2,0:0:0:0:
6,360,126458,5,2,1:2:0:0:
6,360,127623,2,0,P|28:322|71:316,1,90,2|0,1:2|0:0,0:0:0:0:
385,354,128788,6,0,P|430:380|480:366,1,107.999996704102,2|2,1:2|3:2,0:0:0:0:
510,279,129422,2,0,B|516:216|483:237|490:170,1,107.999996704102,2|2,1:2|3:2,0:0:0:0:
511,85,130056,1,10,0:2:0:0:
345,5,130478,6,0,P|294:-9|249:17,1,107.999996704102,2|2,1:2|3:2,0:0:0:0:
210,101,131112,2,0,B|216:164|183:143|190:210,1,107.999996704102,2|2,1:2|3:2,0:0:0:0:
236,283,131746,1,10,0:2:0:0:
35,244,132169,38,0,L|21:124,1,120,2|10,1:2|0:2,0:0:0:0:
67,34,132802,2,0,P|92:17|121:14,1,60,0|2,3:2|1:2,0:0:0:0:
209,65,133224,1,2,0:2:0:0:
296,12,133435,2,0,P|325:15|350:31,1,60,10|2,0:2|3:2,0:0:0:0:
453,29,133859,6,0,P|496:66|484:122,1,120,2|8,1:2|0:2,0:0:0:0:
415,198,134493,1,0,3:2:0:0:
483,273,134704,2,0,P|492:301|489:330,1,60,0|8,1:2|0:2,0:0:0:0:
400,381,135126,2,0,L|371:377,3,30,8|8|8|8,0:2|0:2|0:2|0:2,0:0:0:0:
336,346,135548,38,0,B|270:340|291:378|214:370,1,107.999996704102,2|2,1:2|3:2,0:0:0:0:
145,342,136183,2,0,P|94:356|49:329,1,107.999996704102,2|2,1:2|3:2,0:0:0:0:
4,249,136816,1,10,0:2:0:0:
30,67,137238,6,0,P|75:40|125:54,1,107.999996704102,2|2,1:2|3:2,0:0:0:0:
197,112,137872,2,0,B|263:118|242:80|319:88,1,107.999996704102,2|2,1:2|3:2,0:0:0:0:
391,99,138507,1,10,0:2:0:0:
511,263,138929,38,0,L|497:382,1,120,2|10,1:2|0:2,0:0:0:0:
404,338,139563,1,2,1:2:0:0:
311,380,139774,2,0,P|281:383|253:374,1,60,2|2,1:2|0:2,0:0:0:0:
185,297,140197,2,0,P|181:267|190:239,1,60,10|2,0:2|1:2,0:0:0:0:
282,194,140619,6,0,L|272:104,1,90,2|8,1:2|0:2,0:0:0:0:
265,53,141042,1,0,1:2:0:0:
172,11,141253,1,8,0:2:0:0:
78,56,141464,38,0,L|89:145,1,90,2|8,1:2|0:2,0:0:0:0:
97,195,141886,1,0,1:2:0:0:
190,239,142097,1,8,0:2:0:0:
286,204,142309,6,0,B|338:158|457:204|372:272|497:263,2,240,2|2|2,1:2|0:2|0:2,0:0:0:0:
286,204,147379,6,0,B|272:237|272:237|282:271,1,71.9999978027344,6|2,1:2|0:2,0:0:0:0:
230,366,147801,2,0,L|158:374,1,71.9999978027344,10|2,0:2|1:2,0:0:0:0:
78,300,148224,1,2,0:2:0:0:
143,214,148435,1,2,1:2:0:0:
60,144,148646,2,0,L|70:65,1,71.9999978027344,10|2,0:2|3:2,0:0:0:0:
162,17,149069,6,0,B|195:3|195:3|229:13,1,71.9999978027344,2|2,1:2|0:2,0:0:0:0:
323,66,149491,1,10,0:2:0:0:
410,2,149703,1,2,1:2:0:0:
501,58,149914,2,0,B|514:141|459:117|478:203,1,143.999995605469,2|10,0:2|0:2,0:0:0:0:
326,351,150759,38,0,L|316:272,1,71.9999978027344,2|2,1:2|0:2,0:0:0:0:
231,212,151182,2,0,L|241:133,1,71.9999978027344,10|2,0:2|1:2,0:0:0:0:
185,47,151604,1,2,0:2:0:0:
77,38,151815,1,2,1:2:0:0:
12,125,152027,2,0,B|-2:158|-2:158|8:192,1,71.9999978027344,10|2,0:2|3:2,0:0:0:0:
78,274,152449,6,0,B|111:288|111:288|145:278,1,71.9999978027344,2|2,1:2|0:2,0:0:0:0:
231,212,152872,1,10,0:2:0:0:
285,305,153083,1,2,1:2:0:0:
379,253,153294,2,0,L|415:258,3,35.9999989013672,2|0|0|0,1:2|1:2|1:2|1:2,0:0:0:0:
445,213,153717,2,0,L|481:208,3,35.9999989013672,8|8|8|8,3:2|0:2|0:2|0:2,0:0:0:0:
508,161,154139,38,0,B|518:127|518:127|504:94,1,71.9999978027344,2|2,1:2|0:2,0:0:0:0:
447,0,154562,2,0,L|368:9,1,71.9999978027344,10|2,0:2|1:2,0:0:0:0:
293,78,154984,1,2,0:2:0:0:
203,16,155196,1,2,1:2:0:0:
113,75,155407,2,0,L|104:154,1,71.9999978027344,10|2,0:2|3:2,0:0:0:0:
20,213,155829,6,0,B|10:247|10:247|24:280,1,71.9999978027344,2|2,1:2|0:2,0:0:0:0:
107,349,156252,1,10,0:2:0:0:
190,281,156463,1,2,1:2:0:0:
273,350,156675,2,0,B|361:366|361:366|407:332,1,143.999995605469,2|10,0:2|0:2,0:0:0:0:
506,142,157520,38,0,L|427:132,1,71.9999978027344,2|2,1:2|0:2,0:0:0:0:
375,42,157942,2,0,L|296:52,1,71.9999978027344,10|2,0:2|1:2,0:0:0:0:
237,136,158365,1,2,0:2:0:0:
308,216,158576,1,2,1:2:0:0:
243,302,158787,2,0,B|210:316|210:316|176:306,1,71.9999978027344,10|2,0:2|3:2,0:0:0:0:
87,369,159210,5,10,0:2:0:0:
6,168,159632,1,8,0:2:0:0:
161,17,160055,2,0,P|218:56|285:35,1,143.999995605469,8|10,0:2|0:2,0:0:0:0:
368,0,160689,1,10,0:2:0:0:
456,61,160900,38,0,B|442:94|442:94|452:128,1,71.9999978027344,6|2,1:2|1:2,0:0:0:0:
411,228,161322,2,0,B|421:262|421:262|407:295,1,71.9999978027344,10|2,0:2|1:2,0:0:0:0:
336,378,161745,1,2,1:2:0:0:
256,305,161956,1,2,1:2:0:0:
174,375,162167,2,0,L|95:366,1,71.9999978027344,10|2,0:2|1:2,0:0:0:0:
70,263,162590,6,0,L|-9:273,2,71.9999978027344,2|2|10,1:2|1:2|0:2,0:0:0:0:
98,216,163118,1,2,0:2:0:0:
141,59,163435,1,2,1:2:0:0:
232,2,163646,1,2,1:2:0:0:
318,67,163858,2,0,L|397:57,1,71.9999978027344,10|2,0:2|1:2,0:0:0:0:
476,121,164280,38,0,B|490:154|490:154|480:188,1,71.9999978027344,2|2,1:2|1:2,0:0:0:0:
442,290,164703,2,0,L|363:280,1,71.9999978027344,10|2,0:2|1:2,0:0:0:0:
289,351,165125,1,2,1:2:0:0:
208,278,165336,1,2,1:2:0:0:
124,346,165548,2,0,L|52:355,1,71.9999978027344,10|2,0:2|1:2,0:0:0:0:
2,259,165970,6,0,B|-8:225|-8:225|6:192,1,71.9999978027344,2|2,1:2|1:2,0:0:0:0:
1,83,166393,1,10,0:2:0:0:
88,20,166604,1,2,1:2:0:0:
191,48,166815,2,0,L|196:84,3,35.9999989013672,2|0|0|0,1:2|1:2|1:2|1:2,0:0:0:0:
241,114,167238,2,0,L|236:150,3,35.9999989013672,8|8|10|10,0:2|0:2|0:2|0:2,0:0:0:0:
270,191,167660,38,0,B|256:224|256:224|266:258,1,71.9999978027344,6|2,1:2|1:2,0:0:0:0:
305,359,168083,2,0,L|384:369,1,71.9999978027344,10|2,0:2|1:2,0:0:0:0:
429,378,168400,1,2,1:2:0:0:
503,234,168717,1,2,1:2:0:0:
440,146,168928,2,0,L|449:74,1,71.9999978027344,10|2,0:2|1:2,0:0:0:0:
366,4,169351,6,0,B|333:18|333:18|299:8,1,71.9999978027344,2|2,1:2|1:2,0:0:0:0:
197,45,169773,2,0,B|164:31|164:31|130:41,1,71.9999978027344,10|2,0:2|1:2,0:0:0:0:
27,78,170196,1,2,1:2:0:0:
0,181,170407,1,2,1:2:0:0:
86,245,170618,2,0,L|78:316,1,71.9999978027344,10|2,0:2|1:2,0:0:0:0:
175,362,171041,38,0,B|208:376|208:376|242:366,1,71.9999978027344,2|2,1:2|1:2,0:0:0:0:
337,313,171463,1,10,0:2:0:0:
418,384,171675,1,2,1:2:0:0:
508,325,171886,2,0,L|499:253,1,71.9999978027344,2|2,1:2|1:2,0:0:0:0:
416,184,172308,2,0,L|424:112,1,71.9999978027344,10|2,0:2|1:2,0:0:0:0:
504,39,172731,5,10,0:2:0:0:
291,74,173153,1,10,0:2:0:0:
78,109,173576,2,0,L|82:145,3,35.9999989013672,10|10|10|10,0:2|0:2|0:2|0:2,0:0:0:0:
37,175,173998,1,10,0:2:0:0:
0,266,174210,1,10,0:2:0:0:
70,339,174421,6,0,L|129:332,1,60,4|2,1:2|3:2,0:0:0:0:
192,250,174844,1,10,0:2:0:0:
321,331,175161,2,0,P|303:356|305:385,2,60,2|2|2,0:0|3:2|3:2,0:0:0:0:
360,298,175689,1,10,0:2:0:0:
429,372,175900,1,2,3:2:0:0:
511,312,176111,6,0,P|513:282|496:258,1,60,0|2,1:2|3:2,0:0:0:0:
421,188,176534,1,10,0:2:0:0:
310,82,176851,2,0,L|318:22,2,60,2|2|2,0:0|3:2|3:2,0:0:0:0:
260,96,177379,1,10,0:2:0:0:
196,175,177590,1,2,3:2:0:0:
269,245,177801,38,0,L|277:304,1,60,0|2,1:2|3:2,0:0:0:0:
206,378,178224,1,10,0:2:0:0:
64,320,178541,2,0,P|46:344|48:373,2,60,2|2|2,3:2|3:2|3:2,0:0:0:0:
36,276,179069,1,10,0:2:0:0:
89,189,179280,1,2,3:2:0:0:
26,108,179492,5,0,1:2:0:0:
89,28,179703,2,0,B|156:21|137:63|214:52,1,120,2|2,3:2|3:2,0:0:0:0:
401,3,180548,2,0,P|443:43|443:101,1,120,2|10,1:2|0:2,0:0:0:0:
471,200,181182,38,0,P|454:224|456:253,1,60,4|2,1:2|3:2,0:0:0:0:
510,339,181604,1,10,0:2:0:0:
358,357,181921,2,0,L|351:297,2,60,2|2|2,0:0|3:2|3:2,0:0:0:0:
314,384,182449,1,10,0:2:0:0:
235,318,182661,1,2,3:2:0:0:
154,380,182872,6,0,L|94:372,1,60,0|2,1:2|3:2,0:0:0:0:
15,307,183294,1,10,0:2:0:0:
72,165,183611,2,0,P|96:148|125:150,2,60,2|2|2,0:0|3:2|3:2,0:0:0:0:
31,132,184140,1,10,0:2:0:0:
88,48,184351,1,2,3:2:0:0:
186,73,184562,38,0,P|209:90|238:89,1,60,0|2,1:2|3:2,0:0:0:0:
321,28,184985,1,10,0:2:0:0:
466,74,185301,2,0,L|473:15,2,60,2|2|2,0:0|3:2|3:2,0:0:0:0:
501,111,185830,1,10,0:2:0:0:
490,212,186041,1,10,0:2:0:0:
391,238,186252,5,14,0:2:0:0:
391,238,187309,2,0,L|388:214,2,24,0|0|8,3:2|3:2|0:2,0:0:0:0:
246,312,187942,38,0,L|255:391,2,72,2|2|2,1:2|3:2|3:2,0:0:0:0:
172,275,188787,2,0,P|138:287|102:292,1,72,2|2,0:2|3:2,0:0:0:0:
5,217,189421,1,2,3:2:0:0:
31,139,189632,6,0,P|18:104|14:61,2,72,2|2|2,1:2|3:2|3:2,0:0:0:0:
137,77,190583,1,0,3:2:0:0:
251,133,190900,1,0,3:2:0:0:
401,71,191322,38,0,L|392:-8,2,72,2|2|2,1:2|3:2|3:2,0:0:0:0:
473,108,192167,2,0,P|486:143|490:186,1,72,2|2,0:2|3:2,0:0:0:0:
396,256,192801,1,2,3:2:0:0:
323,217,193012,6,0,P|288:204|245:200,2,72,2|2|2,1:2|3:2|3:2,0:0:0:0:
322,299,193858,2,0,L|316:346,1,48,0|0,3:2|3:2,0:0:0:0:
240,378,194280,1,0,3:2:0:0:
176,327,194491,1,0,3:2:0:0:
98,376,194703,38,0,L|45:382,1,53.9999983520508,2|2,1:2|3:2,0:0:0:0:
9,354,195020,2,0,P|9:313|28:278,1,80.9999975280763,2|2,3:2|3:2,0:0:0:0:
116,256,195548,2,0,P|132:233|136:207,1,53.9999983520508,2|2,0:2|0:2,0:0:0:0:
129,161,195865,1,2,3:2:0:0:
210,49,196182,1,2,3:2:0:0:
299,70,196393,6,0,P|330:46|370:49,1,80.9999975280763,2|2,1:2|3:2,0:0:0:0:
494,109,197027,2,0,L|505:205,2,80.9999975280763,2|0|8,3:2|3:2|0:2,0:0:0:0:
404,129,197872,1,2,0:2:0:0:
356,207,198083,38,0,P|317:210|286:185,1,80.9999975280763,2|2,1:2|3:2,0:0:0:0:
222,61,198717,1,2,3:2:0:0:
132,79,198928,2,0,P|116:102|112:128,1,53.9999983520508,2|2,0:2|0:2,0:0:0:0:
139,165,199245,2,0,L|127:260,1,80.9999975280763,2|2,3:2|3:2,0:0:0:0:
63,311,199773,5,2,1:2:0:0:
