osu file format v14

[General]
AudioFilename: audio.mp3
AudioLeadIn: 0
PreviewTime: 10531
Countdown: 0
SampleSet: Soft
StackLeniency: 0.3
Mode: 0
LetterboxInBreaks: 0
WidescreenStoryboard: 0

[Editor]
DistanceSpacing: 1
BeatDivisor: 4
GridSize: 32
TimelineZoom: 3.999998

[Metadata]
Title:Seishun wa Tabemono desu
TitleUnicode:青春は食べ物です
Artist:petit milady
ArtistUnicode:petit milady
Creator:yShadowXOP_
Version:Marianna's Insane
Source:パンでPeace!
Tags:悠木碧 竹達彩奈 yuuki aoi taketatsu ayana プチミレディ opening CALENDAR GIRL short pan de peace _MasterTSP ShogunMoon Ataraxia Marianna
BeatmapID:1432556
BeatmapSetID:663138

[Difficulty]
HPDrainRate:6.2
CircleSize:4
OverallDifficulty:8.4
ApproachRate:9
SliderMultiplier:1.8
SliderTickRate:1

[Events]
//Background and Video events
0,0,"BG.jpg",0,0
//Break Periods
//Storyboard Layer 0 (Background)
//Storyboard Layer 1 (Fail)
//Storyboard Layer 2 (Pass)
//Storyboard Layer 3 (Foreground)
//Storyboard Sound Samples

[TimingPoints]
1274,324.324324324324,4,2,1,70,1,0
3868,-166.666666666667,4,2,1,60,0,0
6463,-125,4,2,1,70,0,0
11165,-100,4,2,1,72,0,0
11327,-100,4,2,1,74,0,0
11490,-100,4,2,1,76,0,0
11652,-90.9090909090909,4,2,1,80,0,1
13030,-90.9090909090909,4,2,1,20,0,1
13111,-90.9090909090909,4,2,1,80,0,1
14490,-90.9090909090909,4,2,1,20,0,1
14571,-90.9090909090909,4,2,1,80,0,1
15625,-90.9090909090909,4,2,1,20,0,1
15706,-90.9090909090909,4,2,1,80,0,1
16273,-90.9090909090909,4,2,1,20,0,1
16354,-90.9090909090909,4,2,1,80,0,1
17084,-90.9090909090909,4,2,1,20,0,1
17165,-90.9090909090909,4,2,1,80,0,1
18219,-90.9090909090909,4,2,1,20,0,1
18300,-90.9090909090909,4,2,1,80,0,1
18868,-90.9090909090909,4,2,1,20,0,1
18949,-90.9090909090909,4,2,1,80,0,1
19679,-90.9090909090909,4,2,1,20,0,1
19760,-90.9090909090909,4,2,1,80,0,1
20165,-90.9090909090909,4,2,1,20,0,1
20246,-90.9090909090909,4,2,1,80,0,1
20976,-90.9090909090909,4,2,1,20,0,1
21057,-90.9090909090909,4,2,1,80,0,1
21462,-90.9090909090909,4,2,1,20,0,1
21544,-90.9090909090909,4,2,1,80,0,1
22030,-100,4,2,1,70,0,1
22273,-100,4,2,1,5,0,1
22354,-100,4,2,1,70,0,1
23571,-100,4,2,1,20,0,1
23652,-100,4,2,1,70,0,1
24625,-100,4,2,1,68,0,1
25354,-100,4,2,1,20,0,1
25435,-100,4,2,1,68,0,1
25679,-100,4,2,1,20,0,1
25760,-100,4,2,1,68,0,1
26003,-100,4,2,1,20,0,1
26084,-100,4,2,1,68,0,1
27219,-100,4,2,1,70,0,1
27462,-100,4,2,1,20,0,1
27544,-100,4,2,1,70,0,1
28760,-100,4,2,1,20,0,1
28841,-100,4,2,1,70,0,1
29814,-90.9090909090909,4,2,1,73,0,0
30300,-90.9090909090909,4,2,1,76,0,0
30787,-90.9090909090909,4,2,1,80,0,0
31111,-90.9090909090909,4,2,1,70,0,0
32246,-133.333333333333,4,2,1,70,0,0

[Colours]
Combo1 : 255,255,191
Combo2 : 255,193,255
Combo3 : 185,233,255

[HitObjects]
208,104,1274,6,0,P|112:88|132:224,1,270,4|0,0:0|0:0,0:0:0:0:
236,188,1922,1,0,0:0:0:0:
152,152,2084,1,0,0:0:0:0:
196,268,2246,1,0,0:0:0:0:
320,136,2409,6,0,B|344:92|408:100|424:128|428:180|376:204|376:204|324:228|332:288|376:320|444:276,1,360,4|8,0:0|0:0,0:0:0:0:
248,216,3382,1,2,0:0:0:0:
340,372,3706,1,2,0:0:0:0:
422,287,3868,6,0,B|413:265|429:233|429:233|413:193|413:193|469:201|496:148|469:89|409:101,1,269.999991760254,4|2,0:0|0:0,0:0:0:0:
258,116,5165,6,0,B|344:144|330:76|431:104,1,161.999995056153,4|8,0:0|0:0,0:0:0:0:
296,44,5976,1,2,0:0:0:0:
288,28,6301,1,2,0:0:0:0:
388,180,6463,6,0,L|384:324,1,144,4|0,0:0|0:0,0:0:0:0:
448,380,6949,1,2,0:0:0:0:
308,284,7111,2,0,P|272:276|236:284,1,72,0|2,0:0|0:0,0:0:0:0:
272,364,7436,1,8,0:0:0:0:
312,196,7598,6,0,L|308:52,1,144,4|2,0:0|0:0,0:0:0:0:
400,128,8084,1,0,0:0:0:0:
216,200,8246,1,2,0:0:0:0:
228,224,8571,5,0,0:0:0:0:
164,96,8733,1,8,0:0:0:0:
152,284,9057,5,2,0:0:0:0:
164,300,9219,1,2,0:0:0:0:
292,124,9382,5,2,0:0:0:0:
236,136,9544,1,2,0:0:0:0:
368,308,9706,5,2,0:0:0:0:
384,220,9868,1,2,0:0:0:0:
212,272,10030,5,2,0:0:0:0:
304,264,10192,1,2,0:0:0:0:
148,164,10355,5,4,0:0:0:0:
212,272,10517,1,4,0:0:0:0:
268,116,10679,2,0,L|260:24,1,72,2|0,0:0|0:0,0:0:0:0:
352,156,11003,1,2,0:0:0:0:
200,176,11165,5,2,0:0:0:0:
251,201,11246,1,2,0:0:0:0:
307,192,11328,1,2,0:0:0:0:
352,156,11409,1,2,0:0:0:0:
398,120,11490,1,2,0:0:0:0:
455,111,11571,1,2,0:0:0:0:
509,133,11652,6,0,L|492:232,1,99.0000030212403,4|0,0:0|0:0,0:0:0:0:
398,120,11976,2,0,L|381:21,1,99.0000030212403,8|0,0:0|0:0,0:0:0:0:
509,133,12301,1,2,0:0:0:0:
292,96,12463,1,2,0:0:0:0:
381,22,12625,1,8,0:0:0:0:
300,192,12787,6,0,B|308:300|308:300|336:268,1,148.50000453186,2|0,0:0|0:0,0:0:0:0:
396,200,13111,1,0,0:0:0:0:
212,244,13273,1,8,0:0:0:0:
412,196,13436,2,0,L|512:200,1,99.0000030212403,2|0,0:0|0:0,0:0:0:0:
452,280,13760,1,2,0:0:0:0:
496,112,13922,2,0,L|492:8,1,99.0000030212403,8|0,0:0|0:0,0:0:0:0:
272,116,14246,6,0,B|344:96|336:144|420:120,1,148.50000453186,2|0,0:0|0:0,0:0:0:0:
496,112,14571,1,8,0:0:0:0:
432,40,14733,1,0,0:0:0:0:
308,192,14895,2,0,P|292:240|308:284,1,99.0000030212403,2|0,0:0|0:0,0:0:0:0:
376,356,15219,1,8,0:0:0:0:
200,272,15382,6,0,B|100:260|100:260|132:304,1,148.50000453186,4|0,0:0|0:0,0:0:0:0:
176,376,15706,1,0,0:0:0:0:
148,164,15868,1,8,0:0:0:0:
256,332,16030,6,0,B|332:352|324:296|400:316,1,148.50000453186,2|0,0:0|0:0,0:0:0:0:
472,356,16355,1,0,0:0:0:0:
376,228,16517,2,0,L|384:124,1,99.0000030212403,8|0,0:0|0:0,0:0:0:0:
399,315,16841,6,0,P|339:315|287:239,1,148.50000453186,2|0,0:0|0:0,0:0:0:0:
376,228,17165,1,8,0:0:0:0:
252,364,17328,1,0,0:0:0:0:
184,288,17490,2,0,L|188:184,1,99.0000030212403,2|0,0:0|0:0,0:0:0:0:
196,92,17814,1,8,0:0:0:0:
272,200,17976,6,0,B|332:216|380:200|380:200|356:164,1,148.50000453186,4|0,0:0|0:0,0:0:0:0:
300,96,18301,1,2,0:0:0:0:
320,300,18463,1,2,0:0:0:0:
292,80,18625,6,0,B|288:-12|288:-12|344:28,1,148.50000453186,2|0,0:0|0:0,0:0:0:0:
412,72,18949,1,0,0:0:0:0:
256,164,19111,1,8,0:0:0:0:
292,80,19273,1,0,0:0:0:0:
348,224,19436,6,0,B|372:296|324:288|340:368,1,148.50000453186,4|0,0:0|0:0,0:0:0:0:
420,336,19760,1,8,0:0:0:0:
272,260,19922,2,0,B|172:264|172:264|208:296,1,148.50000453186
264,356,20246,1,0,0:0:0:0:
212,180,20409,1,8,0:0:0:0:
172,264,20571,1,0,0:0:0:0:
224,160,20733,6,0,B|200:116|228:56|228:56|184:56,1,148.50000453186,4|0,0:0|0:0,0:0:0:0:
100,56,21057,1,8,0:0:0:0:
292,112,21219,2,0,B|368:132|368:80|440:104,1,148.50000453186
404,176,21544,1,0,0:0:0:0:
328,40,21706,1,8,0:0:0:0:
320,216,21868,1,8,0:0:0:0:
324,204,21949,1,8,0:0:0:0:
328,192,22030,6,0,B|328:296|328:296|292:280,1,135,4|0,0:0|0:0,0:0:0:0:
228,248,22355,1,8,0:0:0:0:
416,272,22517,2,0,L|508:268,1,90,2|0,0:0|0:0,0:0:0:0:
452,196,22841,1,0,0:0:0:0:
404,288,23003,2,0,P|392:332|404:380,1,90,8|0,0:0|0:0,0:0:0:0:
456,184,23328,6,0,B|456:88|456:88|420:120,1,135,2|0,0:0|0:0,0:0:0:0:
352,168,23652,1,8,0:0:0:0:
505,268,23814,1,0,0:0:0:0:
336,156,23976,2,0,P|292:144|248:156,1,90,2|0,0:0|0:0,0:0:0:0:
248,244,24301,2,0,P|292:256|336:244,1,90,8|0,0:0|0:0,0:0:0:0:
428,76,24625,5,4,0:0:0:0:
333,245,24787,1,8,0:0:0:0:
336,256,24868,1,0,0:0:0:0:
340,268,24949,1,2,0:0:0:0:
450,149,25111,6,0,B|450:49|450:49|420:85,1,135,8|0,0:0|0:0,0:0:0:0:
390,191,25436,2,0,P|454:223|506:195,1,135,8|0,0:0|0:0,0:0:0:0:
356,124,25760,6,0,B|288:108|300:152|220:136,1,135,4|0,0:0|0:0,0:0:0:0:
164,88,26084,1,2,0:0:0:0:
248,228,26246,1,8,0:0:0:0:
152,68,26409,1,0,0:0:0:0:
356,124,26571,1,8,0:0:0:0:
356,124,26652,1,0,0:0:0:0:
356,124,26733,2,0,L|404:116,1,45
448,52,26895,5,8,0:0:0:0:
476,88,26976,1,8,0:0:0:0:
480,130,27057,1,8,0:0:0:0:
459,169,27138,1,0,0:0:0:0:
420,191,27219,6,0,L|284:212,1,135,4|0,0:0|0:0,0:0:0:0:
212,180,27544,1,8,0:0:0:0:
324,288,27706,1,0,0:0:0:0:
188,152,27868,2,0,P|176:112|188:64,1,90,2|0,0:0|0:0,0:0:0:0:
260,16,28192,2,0,P|272:56|260:104,1,90,8|0,0:0|0:0,0:0:0:0:
55,71,28517,6,0,B|119:95|119:47|191:67,1,135,4|0,0:0|0:0,0:0:0:0:
261,101,28841,1,8,0:0:0:0:
112,192,29003,1,2,0:0:0:0:
186,65,29165,1,0,0:0:0:0:
100,208,29328,1,2,0:0:0:0:
112,20,29490,1,8,0:0:0:0:
204,192,29652,1,8,0:0:0:0:
200,200,29733,1,8,0:0:0:0:
196,208,29814,5,4,0:0:0:0:
192,84,29976,1,2,0:0:0:0:
186,65,30138,1,2,0:0:0:0:
272,260,30301,5,8,0:0:0:0:
270,75,30463,1,2,0:0:0:0:
264,56,30625,1,2,0:0:0:0:
350,251,30787,5,8,0:0:0:0:
204,192,30949,1,2,0:0:0:0:
355,147,31111,6,0,L|463:155,1,99.0000030212403,8|0,0:0|0:0,0:0:0:0:
350,251,31436,1,2,0:0:0:0:
400,60,31598,2,0,L|508:68,1,99.0000030212403,8|0,0:0|0:0,0:0:0:0:
355,147,31922,1,0,0:0:0:0:
300,16,32084,5,12,0:0:0:0:
498,67,32246,6,0,B|464:116|496:160|496:160|464:144|464:144|496:212|480:248|448:296|368:300|332:264|312:208|328:156|380:128,1,472.500018024445,12|2,0:0|0:0,0:0:0:0:
368,156,33463,1,2,0:0:0:0:
368,156,33544,1,2,0:0:0:0:
368,156,33625,1,2,0:0:0:0:
