osu file format v14

[General]
AudioFilename: audio.mp3
AudioLeadIn: 0
PreviewTime: 10531
Countdown: 0
SampleSet: Soft
StackLeniency: 0.7
Mode: 0
LetterboxInBreaks: 0
WidescreenStoryboard: 0

[Editor]
DistanceSpacing: 1
BeatDivisor: 4
GridSize: 32
TimelineZoom: 3.999998

[Metadata]
Title:Seishun wa Tabemono desu
TitleUnicode:青春は食べ物です
Artist:petit milady
ArtistUnicode:petit milady
Creator:yShadowXOP_
Version:Bread Paradise
Source:パンでPeace!
Tags:悠木碧 竹達彩奈 yuuki aoi taketatsu ayana プチミレディ opening CALENDAR GIRL short pan de peace _MasterTSP ShogunMoon Ataraxia Marianna
BeatmapID:1403678
BeatmapSetID:663138

[Difficulty]
HPDrainRate:6.5
CircleSize:3.8
OverallDifficulty:8.5
ApproachRate:9
SliderMultiplier:1.8
SliderTickRate:1

[Events]
//Background and Video events
0,0,"BG.jpg",0,0
//Break Periods
//Storyboard Layer 0 (Background)
//Storyboard Layer 1 (Fail)
//Storyboard Layer 2 (Pass)
//Storyboard Layer 3 (Foreground)
//Storyboard Sound Samples

[TimingPoints]
1274,324.324324324324,4,2,1,70,1,0
3868,-166.666666666667,4,2,1,60,0,0
6463,-100,4,2,1,70,0,0
9381,-100,4,2,1,40,0,0
9706,-100,4,2,1,55,0,0
10030,-100,4,2,1,70,0,0
11165,-100,4,2,1,72,0,0
11327,-100,4,2,1,74,0,0
11490,-100,4,2,1,76,0,0
11652,-90.9090909090909,4,2,1,80,0,1
22030,-100,4,2,1,70,0,1
24625,-100,4,2,1,68,0,1
27219,-100,4,2,1,70,0,1
29814,-90.9090909090909,4,2,1,73,0,0
30300,-90.9090909090909,4,2,1,76,0,0
30787,-90.9090909090909,4,2,1,80,0,0
31111,-90.9090909090909,4,2,1,70,0,0
32246,-100,4,2,1,70,0,0
33625,-100,4,2,1,25,0,0

[Colours]
Combo1 : 255,255,191
Combo2 : 255,193,255
Combo3 : 185,233,255

[HitObjects]
4,336,1274,6,0,B|32:264|-8:204|-8:204|40:256|132:212,1,270,4|0,0:0|0:0,0:0:0:0:
136,120,1922,2,0,P|140:72|132:24,2,90
384,172,2409,6,0,B|300:132|300:212|208:180,1,180,6|2,0:0|0:0,0:0:0:0:
344,344,2895,2,0,L|340:240,1,90,0|2,0:0|0:0,0:0:0:0:
336,132,3219,1,0,0:0:0:0:
244,240,3382,1,2,0:0:0:0:
224,76,3544,1,2,0:0:0:0:
240,224,3706,1,2,0:0:0:0:
444,80,3868,6,0,B|480:152|440:212|440:212|400:272|428:344,1,269.999991760254,4|2,0:0|0:0,0:0:0:0:
376,144,5165,2,0,P|312:128|212:156,1,161.999995056153,2|8,0:0|0:0,0:0:0:0:
128,272,5976,1,2,0:0:0:0:
208,72,6301,1,2,0:0:0:0:
32,28,6463,6,0,P|20:116|40:216,1,180,4|0,0:0|0:0,0:0:0:0:
128,272,6949,2,0,P|107:315|98:363,2,90,2|0|2,0:0|0:0|0:0,0:0:0:0:
184,196,7436,1,8,0:0:0:0:
416,240,7598,6,0,B|327:203|327:283|240:256,1,180,2|2,0:0|0:0,0:0:0:0:
116,136,8084,2,0,P|177:110|271:175,1,180,2|2,0:0|0:0,0:0:0:0:
35,205,8571,1,2,0:0:0:0:
119,46,8733,1,8,0:0:0:0:
119,46,9057,6,0,P|112:90|115:135,1,90,4|0,0:0|0:0,0:0:0:0:
192,272,9382,5,8,0:0:0:0:
280,184,9544,1,8,0:0:0:0:
312,312,9706,5,8,0:0:0:0:
176,136,9868,1,8,0:0:0:0:
232,352,10030,5,8,0:0:0:0:
376,168,10192,1,8,0:0:0:0:
148,104,10355,6,0,L|38:94,1,90,4|0,0:0|0:0,0:0:0:0:
286,174,10679,2,0,B|400:166,1,90,2|2,0:0|0:0,0:0:0:0:
151,310,11003,1,2,0:0:0:0:
416,292,11165,5,2,0:0:0:0:
374,318,11246,1,2,0:0:0:0:
326,326,11328,1,2,0:0:0:0:
278,316,11409,1,2,0:0:0:0:
238,288,11490,1,2,0:0:0:0:
211,247,11571,1,2,0:0:0:0:
196,200,11652,6,0,P|192:144|204:100,1,99.0000030212403,4|0,0:0|0:0,0:0:0:0:
72,48,11976,1,8,0:0:0:0:
96,212,12138,2,0,P|109:266|105:311,1,99.0000030212403,0|2,0:0|0:0,0:0:0:0:
202,102,12463,2,0,L|310:98,1,99.0000030212403,2|8,0:0|0:0,0:0:0:0:
504,268,12787,6,0,B|408:216|408:316|300:264,1,198.000006042481,2|2,0:0|0:0,0:0:0:0:
197,205,13273,1,8,0:0:0:0:
296,348,13436,2,0,P|364:360|408:348,1,99.0000030212403,2|0,0:0|0:0,0:0:0:0:
197,205,13760,2,0,P|128:202|85:218,1,99.0000030212403,2|8,0:0|0:0,0:0:0:0:
20,320,14084,1,2,0:0:0:0:
195,302,14246,6,0,P|202:233|190:189,1,99.0000030212403,2|0,0:0|0:0,0:0:0:0:
264,80,14571,1,8,0:0:0:0:
308,236,14733,2,0,L|315:334,1,99.0000030212403,0|2,0:0|0:0,0:0:0:0:
424,128,15057,2,0,L|432:24,1,99.0000030212403,2|8,0:0|0:0,0:0:0:0:
416,268,15382,1,0,0:0:0:0:
320,136,15544,6,0,B|268:124|268:124|208:156|208:156|120:140,1,198.000006042481,4|8,0:0|0:0,0:0:0:0:
276,216,16030,1,2,0:0:0:0:
136,328,16192,2,0,L|124:224,1,99.0000030212403,0|2,0:0|0:0,0:0:0:0:
168,80,16517,1,8,0:0:0:0:
224,224,16679,1,2,0:0:0:0:
320,136,16841,6,0,P|420:117|480:220,1,198.000006042481,2|8,0:0|0:0,0:0:0:0:
412,332,17328,2,0,P|392:276|392:232,1,99.0000030212403,2|2,0:0|0:0,0:0:0:0:
299,40,17652,2,0,P|319:96|319:140,1,99.0000030212403,2|8,0:0|0:0,0:0:0:0:
144,208,17976,6,0,L|36:204,1,99.0000030212403,6|0,0:0|0:0,0:0:0:0:
240,120,18301,1,10,0:0:0:0:
160,316,18463,1,10,0:0:0:0:
132,88,18625,2,0,L|242:83,1,99.0000030212403,10|0,0:0|0:0,0:0:0:0:
388,144,18949,2,0,P|397:205|390:251,1,99.0000030212403,2|8,0:0|0:0,0:0:0:0:
328,348,19273,1,2,0:0:0:0:
207,231,19436,6,0,P|249:205|298:201,1,99.0000030212403,4|0,0:0|0:0,0:0:0:0:
136,332,19760,1,8,0:0:0:0:
99,223,19922,2,0,L|-17:227,1,99.0000030212403,2|0,0:0|0:0,0:0:0:0:
136,332,20246,2,0,L|252:336,1,99.0000030212403,2|8,0:0|0:0,0:0:0:0:
332,364,20571,1,2,0:0:0:0:
400,296,20733,6,0,B|408:88,1,198.000006042481,4|8,0:0|0:0,0:0:0:0:
312,36,21219,2,0,P|252:16|156:116,1,198.000006042481,2|2,0:0|0:0,0:0:0:0:
168,232,21706,2,0,P|227:240|275:232,1,99.0000030212403,8|2,0:0|0:0,0:0:0:0:
288,220,21949,1,2,0:0:0:0:
308,208,22030,6,0,B|396:176|396:252|496:208,1,180,4|8,0:0|0:0,0:0:0:0:
432,44,22517,2,0,L|439:133,1,90,2|0,0:0|0:0,0:0:0:0:
344,360,22841,2,0,L|351:271,1,90,0|8,0:0|0:0,0:0:0:0:
352,104,23165,1,0,0:0:0:0:
264,192,23328,6,0,B|176:160|176:236|76:192,1,180,2|8,0:0|0:0,0:0:0:0:
0,116,23814,2,0,L|16:300,1,180,2|2,0:0|0:0,0:0:0:0:
128,352,24301,1,8,0:0:0:0:
208,152,24463,1,2,0:0:0:0:
208,152,24544,1,0,0:0:0:0:
208,152,24625,6,0,L|312:156,1,90,6|2,0:0|0:0,0:0:0:0:
448,196,24949,1,2,0:0:0:0:
308,260,25111,1,10,0:0:0:0:
384,36,25436,1,10,0:0:0:0:
308,260,25760,6,0,B|248:252|248:252|200:284|200:284|116:272,1,180,6|2,0:0|0:0,0:0:0:0:
36,204,26246,2,0,L|40:108,1,90,2|0,0:0|0:0,0:0:0:0:
148,24,26571,1,2,0:0:0:0:
148,24,26652,1,2,0:0:0:0:
148,24,26733,1,2,0:0:0:0:
171,298,26895,5,2,0:0:0:0:
213,312,26976,1,2,0:0:0:0:
257,310,27057,1,2,0:0:0:0:
297,290,27138,1,2,0:0:0:0:
331,266,27219,6,0,L|439:262,1,90,4|0,0:0|0:0,0:0:0:0:
503,202,27544,1,8,0:0:0:0:
358,149,27706,2,0,P|278:145|216:224,1,180,2|2,0:0|0:0,0:0:0:0:
128,304,28192,1,8,0:0:0:0:
57,119,28355,1,2,0:0:0:0:
57,119,28436,1,0,0:0:0:0:
57,119,28517,6,0,B|140:80|144:160|240:120,1,180,4|8,0:0|0:0,0:0:0:0:
272,12,29003,2,0,P|221:22|192:60,1,90,2|0,0:0|0:0,0:0:0:0:
360,96,29328,2,0,L|368:-4,1,90,2|8,0:0|0:0,0:0:0:0:
296,240,29652,1,2,0:0:0:0:
296,240,29733,1,2,0:0:0:0:
296,240,29814,5,14,0:0:0:0:
417,175,29976,1,2,0:0:0:0:
403,320,30138,1,2,0:0:0:0:
249,143,30301,5,8,0:0:0:0:
304,365,30463,1,2,0:0:0:0:
417,175,30625,1,2,0:0:0:0:
186,244,30787,5,8,0:0:0:0:
403,320,30949,1,2,0:0:0:0:
268,120,31111,6,0,L|272:12,2,99.0000030212403,8|2|2,0:0|0:0|0:0,0:0:0:0:
264,300,31598,1,8,0:0:0:0:
376,96,31760,1,2,0:0:0:0:
376,96,31841,1,2,0:0:0:0:
376,96,31922,1,2,0:0:0:0:
408,356,32084,5,8,0:0:0:0:
256,192,32246,1,12,0:0:0:0:
256,192,32328,12,2,33625,0:0:0:0:
