osu file format v14

[General]
AudioFilename: audio.mp3
AudioLeadIn: 0
PreviewTime: 10531
Countdown: 0
SampleSet: Soft
StackLeniency: 0.7
Mode: 0
LetterboxInBreaks: 0
WidescreenStoryboard: 0

[Editor]
DistanceSpacing: 1
BeatDivisor: 4
GridSize: 32
TimelineZoom: 4.099998

[Metadata]
Title:Seishun wa Tabemono desu
TitleUnicode:青春は食べ物です
Artist:petit milady
ArtistUnicode:petit milady
Creator:yShadowXOP_
Version:Light Insane
Source:パンでPeace!
Tags:悠木碧 竹達彩奈 yuuki aoi taketatsu ayana プチミレディ opening CALENDAR GIRL short pan de peace _MasterTSP ShogunMoon Ataraxia Marianna
BeatmapID:1404052
BeatmapSetID:663138

[Difficulty]
HPDrainRate:6
CircleSize:3.6
OverallDifficulty:7
ApproachRate:8.5
SliderMultiplier:1.6
SliderTickRate:1

[Events]
//Background and Video events
0,0,"BG.jpg",0,0
//Break Periods
//Storyboard Layer 0 (Background)
//Storyboard Layer 1 (Fail)
//Storyboard Layer 2 (Pass)
//Storyboard Layer 3 (Foreground)
//Storyboard Sound Samples

[TimingPoints]
1274,324.324324324324,4,2,1,70,1,0
3868,-166.666666666667,4,2,1,60,0,0
6463,-100,4,2,1,70,0,0
9381,-100,4,2,1,40,0,0
9706,-100,4,2,1,55,0,0
10030,-100,4,2,1,70,0,0
11165,-100,4,2,1,72,0,0
11327,-100,4,2,1,74,0,0
11490,-100,4,2,1,76,0,0
11652,-95.2380952380952,4,2,1,80,0,1
22030,-95.2380952380952,4,2,1,70,0,1
24625,-95.2380952380952,4,2,1,68,0,1
27219,-95.2380952380952,4,2,1,70,0,1
29814,-95.2380952380952,4,2,1,73,0,0
30300,-95.2380952380952,4,2,1,76,0,0
30787,-95.2380952380952,4,2,1,80,0,0
31111,-95.2380952380952,4,2,1,70,0,0
32246,-95.2380952380952,4,2,1,70,0,0
33625,-95.2380952380952,4,2,1,25,0,0

[Colours]
Combo1 : 255,255,191
Combo2 : 255,193,255
Combo3 : 185,233,255

[HitObjects]
56,32,1274,6,0,B|88:81|61:139|61:139|26:203|60:272,1,240,4|0,0:0|0:0,0:0:0:0:
156,292,1922,2,0,P|160:340|152:380,2,80
188,172,2409,6,0,B|264:136|264:204|368:164,1,160,4|2,0:0|0:0,0:0:0:0:
440,160,2895,2,0,L|444:80,1,80,0|2,0:0|0:0,0:0:0:0:
300,20,3219,2,0,L|304:100,1,80,0|2,0:0|0:0,0:0:0:0:
316,228,3544,1,2,0:0:0:0:
316,228,3706,1,2,0:0:0:0:
188,296,3868,6,0,P|144:312|56:176,1,239.999992675781,4|2,0:0|0:0,0:0:0:0:
53,181,5165,2,0,P|97:161|209:181,1,143.999995605469,2|8,0:0|0:0,0:0:0:0:
296,224,5976,1,2,0:0:0:0:
308,25,6301,1,2,0:0:0:0:
384,76,6463,6,0,P|408:160|400:244,1,160,4|0,0:0|0:0,0:0:0:0:
320,292,6949,2,0,P|316:340|324:380,2,80,2|0|2,0:0|0:0|0:0,0:0:0:0:
280,196,7436,1,8,0:0:0:0:
228,289,7598,6,0,P|160:326|85:303,1,160,2|2,0:0|0:0,0:0:0:0:
151,232,8084,2,0,P|162:154|144:76,1,160,2|2,0:0|0:0,0:0:0:0:
32,16,8571,1,2,0:0:0:0:
44,132,8733,1,8,0:0:0:0:
144,76,9057,6,0,P|196:68|240:84,1,80,4|0,0:0|0:0,0:0:0:0:
324,112,9382,1,8,0:0:0:0:
344,4,9544,1,8,0:0:0:0:
244,152,9706,5,8,2:0:0:0:
361,196,9868,1,8,2:0:0:0:
188,80,10030,5,8,2:0:0:0:
197,230,10192,1,8,2:0:0:0:
80,152,10355,6,0,L|-16:156,1,80,4|0,0:0|0:0,0:0:0:0:
200,248,10679,2,0,L|296:252,1,80,2|2,0:0|0:0,0:0:0:0:
384,260,11003,1,2,0:0:0:0:
472,192,11165,1,2,0:0:0:0:
472,192,11246,1,2,0:0:0:0:
472,192,11328,2,0,L|544:196,3,40,2|2|2|2,0:0|0:0|0:0|0:0,0:0:0:0:
464,96,11652,6,0,P|396:64|304:100,1,167.999994873047,4|8,0:0|0:0,0:0:0:0:
252,160,12138,2,0,P|290:175|331:171,1,83.9999974365235,0|2,0:0|0:0,0:0:0:0:
208,68,12463,2,0,P|154:61|112:80,1,83.9999974365235,2|8,0:0|0:0,0:0:0:0:
4,44,12787,6,0,B|-24:132|52:132|0:240,1,167.999994873047,2|2,0:0|0:0,0:0:0:0:
32,320,13273,1,8,0:0:0:0:
212,240,13436,2,0,L|129:244,1,83.9999974365235,2|0,0:0|0:0,0:0:0:0:
272,320,13760,2,0,L|355:323,1,83.9999974365235,2|8,0:0|0:0,0:0:0:0:
464,324,14084,1,2,0:0:0:0:
396,192,14246,6,0,P|399:143|391:100,1,83.9999974365235,2|0,0:0|0:0,0:0:0:0:
372,0,14571,1,8,0:0:0:0:
492,52,14733,2,0,P|483:99|488:143,1,83.9999974365235,0|2,0:0|0:0,0:0:0:0:
396,192,15057,2,0,P|348:183|304:188,1,83.9999974365235,2|8,0:0|0:0,0:0:0:0:
216,212,15382,1,0,0:0:0:0:
108,296,15544,6,0,B|160:285|160:285|212:301|212:301|272:293,1,167.999994873047,4|8,0:0|0:0,0:0:0:0:
392,275,16030,2,0,L|396:182,2,83.9999974365235,2|0|2,0:0|0:0|0:0,0:0:0:0:
272,294,16517,2,0,L|280:386,1,83.9999974365235,8|2,0:0|0:0,0:0:0:0:
472,352,16841,6,0,L|480:180,1,167.999994873047,2|8,0:0|0:0,0:0:0:0:
352,75,17328,2,0,P|304:71|272:83,1,83.9999974365235,2|2,0:0|0:0,0:0:0:0:
398,185,17652,2,0,P|445:193|478:184,1,83.9999974365235,2|8,0:0|0:0,0:0:0:0:
271,83,17976,6,0,L|274:166,1,83.9999974365235,6|0,0:0|0:0,0:0:0:0:
280,272,18301,1,8,0:0:0:0:
160,316,18463,1,8,0:0:0:0:
191,174,18625,2,0,L|279:166,1,83.9999974365235,10|0,0:0|0:0,0:0:0:0:
104,252,18949,2,0,L|16:244,2,83.9999974365235,2|8|2,0:0|0:0|0:0,0:0:0:0:
196,308,19436,6,0,P|240:296|296:304,1,83.9999974365235,4|0,0:0|0:0,0:0:0:0:
368,344,19760,1,8,0:0:0:0:
472,292,19922,2,0,P|480:340|468:380,1,83.9999974365235,2|0,0:0|0:0,0:0:0:0:
384,252,20246,2,0,P|380:203|395:164,1,83.9999974365235,2|8,0:0|0:0,0:0:0:0:
444,96,20571,1,2,0:0:0:0:
444,96,20733,6,0,B|364:52|364:140|268:88,1,167.999994873047,4|8,0:0|0:0,0:0:0:0:
200,44,21219,2,0,P|132:27|46:95,1,167.999994873047,2|2,0:0|0:0,0:0:0:0:
16,180,21706,2,0,L|20:263,1,83.9999974365235,8|2,0:0|0:0,0:0:0:0:
28,284,21949,1,2,0:0:0:0:
40,304,22030,6,0,B|96:296|96:296|139:316|139:316|212:311,1,167.999994873047,4|8,0:0|0:0,0:0:0:0:
252,196,22517,2,0,L|168:200,1,83.9999974365235,2|0,0:0|0:0,0:0:0:0:
300,304,22841,2,0,L|384:296,1,83.9999974365235,0|8,0:0|0:0,0:0:0:0:
496,280,23165,1,0,0:0:0:0:
496,280,23328,6,0,P|504:200|488:104,1,167.999994873047,2|8,0:0|0:0,0:0:0:0:
380,52,23814,2,0,B|300:16|300:96|200:52,1,167.999994873047,2|2,0:0|0:0,0:0:0:0:
108,100,24301,2,0,P|96:152|108:196,1,83.9999974365235,8|2,0:0|0:0,0:0:0:0:
112,200,24544,1,2,0:0:0:0:
128,216,24625,6,0,L|224:212,1,83.9999974365235,6|0,0:0|0:0,0:0:0:0:
316,204,24949,1,2,0:0:0:0:
224,320,25111,1,10,0:0:0:0:
264,100,25436,1,10,0:0:0:0:
20,48,25760,6,0,B|77:54|77:54|117:30|117:30|184:36,1,167.999994873047,6|2,0:0|0:0,0:0:0:0:
264,100,26246,2,0,L|347:94,1,83.9999974365235,2|0,0:0|0:0,0:0:0:0:
444,48,26571,2,0,L|448:-12,2,41.9999987182618,2|2|2,0:0|0:0|0:0,0:0:0:0:
496,156,26895,1,2,0:0:0:0:
496,156,26976,1,2,0:0:0:0:
496,156,27057,2,0,L|492:204,1,41.9999987182618,2|2,0:0|0:0,0:0:0:0:
448,288,27219,6,0,P|395:295|352:280,1,83.9999974365235,4|0,0:0|0:0,0:0:0:0:
292,196,27544,1,8,0:0:0:0:
292,196,27706,2,0,P|217:173|148:228,1,167.999994873047,2|2,0:0|0:0,0:0:0:0:
92,304,28192,1,8,0:0:0:0:
44,168,28355,1,2,0:0:0:0:
212,96,28517,6,0,B|257:167|178:174|234:286,1,167.999994873047,4|8,0:0|0:0,0:0:0:0:
305,334,29003,2,0,P|313:286|309:250,1,83.9999974365235,2|0,0:0|0:0,0:0:0:0:
141,270,29328,2,0,P|133:222|137:182,1,83.9999974365235,2|8,0:0|0:0,0:0:0:0:
212,96,29652,1,0,0:0:0:0:
212,96,29733,1,0,0:0:0:0:
212,96,29814,5,12,0:0:0:0:
296,144,29976,1,0,0:0:0:0:
280,36,30138,1,2,0:0:0:0:
203,176,30301,5,8,0:0:0:0:
352,80,30463,1,2,0:0:0:0:
196,16,30625,1,2,0:0:0:0:
272,232,30787,5,8,0:0:0:0:
280,36,30949,1,2,0:0:0:0:
448,52,31111,6,0,L|444:237,1,167.999994873047,8|2,0:0|0:0,0:0:0:0:
442,361,31598,1,8,0:0:0:0:
360,233,31760,1,2,0:0:0:0:
360,233,31841,1,0,0:0:0:0:
360,233,31922,1,2,0:0:0:0:
278,360,32084,5,8,0:0:0:0:
210,192,32246,1,12,0:0:0:0:
256,192,32328,12,2,33625,0:0:0:0:
