osu file format v14

[General]
AudioFilename: audio.mp3
AudioLeadIn: 0
PreviewTime: 10531
Countdown: 0
SampleSet: Soft
StackLeniency: 0.7
Mode: 0
LetterboxInBreaks: 0
WidescreenStoryboard: 0

[Editor]
DistanceSpacing: 1.3
BeatDivisor: 4
GridSize: 32
TimelineZoom: 4.099998

[Metadata]
Title:Seishun wa Tabemono desu
TitleUnicode:青春は食べ物です
Artist:petit milady
ArtistUnicode:petit milady
Creator:yShadowXOP_
Version:Hard
Source:パンでPeace!
Tags:悠木碧 竹達彩奈 yuuki aoi taketatsu ayana プチミレディ opening CALENDAR GIRL short pan de peace _MasterTSP ShogunMoon Ataraxia Marianna
BeatmapID:1403752
BeatmapSetID:663138

[Difficulty]
HPDrainRate:5.5
CircleSize:3.5
OverallDifficulty:6
ApproachRate:7.5
SliderMultiplier:1.35
SliderTickRate:1

[Events]
//Background and Video events
0,0,"BG.jpg",0,0
//Break Periods
//Storyboard Layer 0 (Background)
//Storyboard Layer 1 (Fail)
//Storyboard Layer 2 (Pass)
//Storyboard Layer 3 (Foreground)
//Storyboard Sound Samples

[TimingPoints]
1274,324.324324324324,4,2,1,70,1,0
3868,-142.857142857143,4,2,1,60,0,0
6463,-100,4,2,1,70,0,0
11165,-100,4,2,1,72,0,0
11327,-100,4,2,1,74,0,0
11490,-100,4,2,1,76,0,0
11652,-100,4,2,1,80,0,1
22030,-100,4,2,1,70,0,1
24625,-100,4,2,1,68,0,1
27219,-100,4,2,1,70,0,1
29814,-100,4,2,1,73,0,0
30300,-100,4,2,1,76,0,0
30787,-100,4,2,1,80,0,0
31111,-100,4,2,1,70,0,0
32246,-100,4,2,1,70,0,0
33625,-100,4,2,1,25,0,0

[Colours]
Combo1 : 255,255,191
Combo2 : 255,193,255
Combo3 : 185,233,255

[HitObjects]
0,60,1274,6,0,B|60:64|80:112|80:112|44:160|68:220,1,202.5,4|0,0:0|0:0,0:0:0:0:
148,260,1922,2,0,P|156:220|148:180,2,67.5
200,336,2409,6,0,P|272:352|356:332,1,135,4|2,0:0|0:0,0:0:0:0:
404,296,2895,2,0,P|407:253|404:223,1,67.5,0|2,0:0|0:0,0:0:0:0:
320,212,3219,2,0,P|316:169|320:139,1,67.5,0|2,0:0|0:0,0:0:0:0:
404,128,3544,2,0,P|404:84|397:55,1,67.5,2|2,0:0|0:0,0:0:0:0:
312,24,3868,6,0,B|192:-24|204:80|68:32,1,236.249992790222,4|2,0:0|0:0,0:0:0:0:
84,37,5165,2,0,P|69:103|84:185,1,141.749995674133,2|8,0:0|0:0,0:0:0:0:
160,248,5976,1,2,0:0:0:0:
48,288,6301,1,2,0:0:0:0:
48,288,6463,6,0,P|33:222|48:140,1,135,4|0,0:0|0:0,0:0:0:0:
124,100,6949,2,0,P|135:139|130:179,2,67.5,2|0|2,0:0|0:0|0:0,0:0:0:0:
192,36,7436,1,8,0:0:0:0:
192,36,7598,6,0,P|264:20|348:40,1,135,2|2,0:0|0:0,0:0:0:0:
404,72,8084,2,0,P|426:142|413:227,1,135,2|2,0:0|0:0,0:0:0:0:
400,300,8571,1,2,0:0:0:0:
400,300,8733,1,8,0:0:0:0:
316,184,9057,6,0,L|312:268,1,67.5,4|0,0:0|0:0,0:0:0:0:
312,352,9382,1,8,0:0:0:0:
312,352,9544,1,8,0:0:0:0:
232,288,9706,2,0,P|183:285|140:297,1,67.5,8|8,0:0|0:0,0:0:0:0:
44,236,10030,2,0,P|77:235|109:225,1,67.5,8|8,0:0|0:0,0:0:0:0:
188,172,10355,6,0,L|184:104,1,67.5,4|0,0:0|0:0,0:0:0:0:
92,24,10679,2,0,L|96:92,1,67.5,2|2,0:0|0:0,0:0:0:0:
104,188,11003,1,2,0:0:0:0:
36,268,11165,2,0,L|-8:276,5,33.75,2|2|2|2|2|2,0:0|0:0|0:0|0:0|0:0|0:0,0:0:0:0:
72,288,11652,6,0,P|144:312|224:280,1,135,4|8,0:0|0:0,0:0:0:0:
248,224,12138,2,0,P|208:212|168:220,2,67.5,0|2|2,0:0|0:0|0:0,0:0:0:0:
304,294,12625,2,0,P|337:299|369:291,1,67.5,8|2,0:0|0:0,0:0:0:0:
447,231,12949,6,0,P|459:155|450:91,1,135,2|8,0:0|0:0,0:0:0:0:
363,0,13436,2,0,P|357:32|363:66,1,67.5,2|0,0:0|0:0,0:0:0:0:
289,181,13760,2,0,P|292:147|285:115,1,67.5,2|8,0:0|0:0,0:0:0:0:
272,24,14084,1,2,0:0:0:0:
184,72,14246,6,0,B|154:136|207:136|183:205,1,135,2|8,0:0|0:0,0:0:0:0:
100,256,14733,2,0,P|62:262|28:256,2,67.5,0|2|2,0:0|0:0|0:0,0:0:0:0:
192,300,15219,2,0,P|230:297|263:306,1,67.5,8|0,0:0|0:0,0:0:0:0:
336,356,15544,6,0,P|383:363|443:284,1,135,4|8,0:0|0:0,0:0:0:0:
368,216,16030,2,0,P|363:253|368:286,2,67.5,2|0|2,0:0|0:0|0:0,0:0:0:0:
460,166,16517,2,0,P|464:128|459:95,1,67.5,8|2,0:0|0:0,0:0:0:0:
363,51,16841,6,0,P|305:35|226:53,1,135,2|8,0:0|0:0,0:0:0:0:
139,89,17328,2,0,P|132:43|135:14,1,67.5,2|2,0:0|0:0,0:0:0:0:
62,152,17652,2,0,P|72:197|72:226,1,67.5,2|8,0:0|0:0,0:0:0:0:
152,328,17976,6,0,L|154:253,1,67.5,6|0,0:0|0:0,0:0:0:0:
236,144,18301,2,0,L|237:211,1,67.5,8|8,0:0|0:0,0:0:0:0:
240,332,18625,1,10,0:0:0:0:
344,224,18949,2,0,L|347:89,1,135,2|2,0:0|0:0,0:0:0:0:
472,32,19436,6,0,L|477:99,1,67.5,4|0,0:0|0:0,0:0:0:0:
440,192,19760,1,8,0:0:0:0:
440,192,19922,2,0,L|436:260,1,67.5,2|0,0:0|0:0,0:0:0:0:
356,312,20246,2,0,P|319:308|286:313,1,67.5,2|8,0:0|0:0,0:0:0:0:
208,360,20571,1,2,0:0:0:0:
208,360,20733,6,0,P|161:367|101:288,1,135,4|8,0:0|0:0,0:0:0:0:
176,220,21219,2,0,P|181:257|176:290,2,67.5,2|0|2,0:0|0:0|0:0,0:0:0:0:
96,168,21706,2,0,P|88:124|96:88,1,67.5,8|2,0:0|0:0,0:0:0:0:
101,77,21949,1,2,0:0:0:0:
101,77,22030,6,0,B|154:70|154:70|190:86|190:86|239:81,1,135,4|8,0:0|0:0,0:0:0:0:
328,68,22517,2,0,L|326:0,1,67.5,2|0,0:0|0:0,0:0:0:0:
427,97,22841,2,0,L|425:165,1,67.5,0|8,0:0|0:0,0:0:0:0:
340,228,23165,1,0,0:0:0:0:
340,228,23328,6,0,P|273:209|206:234,1,135,2|8,0:0|0:0,0:0:0:0:
128,308,23814,2,0,P|135:238|98:177,1,135,2|2,0:0|0:0,0:0:0:0:
8,160,24301,2,0,L|0:84,1,67.5,8|2,0:0|0:0,0:0:0:0:
108,48,24625,6,0,L|104:188,1,135,6|2,0:0|0:0,0:0:0:0:
44,272,25111,1,10,0:0:0:0:
0,92,25436,1,10,0:0:0:0:
200,100,25760,6,0,P|264:81|334:102,1,135,6|2,0:0|0:0,0:0:0:0:
404,155,26246,2,0,L|400:243,1,67.5,2|0,0:0|0:0,0:0:0:0:
320,255,26571,2,0,L|317:221,2,33.75,2|2|2,0:0|0:0|0:0,0:0:0:0:
398,306,26895,2,0,L|395:339,2,33.75,2|2|2,0:0|0:0|0:0,0:0:0:0:
316,352,27219,6,0,P|244:371|185:350,1,135,4|8,0:0|0:0,0:0:0:0:
116,300,27706,2,0,P|99:235|128:176,1,135,2|2,0:0|0:0,0:0:0:0:
217,205,28192,2,0,P|222:171|217:138,1,67.5,8|2,0:0|0:0,0:0:0:0:
176,56,28517,6,0,B|244:28|243:91|320:48,1,135,4|8,0:0|0:0,0:0:0:0:
396,31,29003,2,0,L|388:167,1,135
312,240,29490,1,8,0:0:0:0:
400,292,29652,1,0,0:0:0:0:
400,292,29733,1,0,0:0:0:0:
400,292,29814,6,0,L|404:359,2,67.5,12|2|2,0:0|0:0|0:0,0:0:0:0:
312,240,30301,2,0,L|316:172,2,67.5,8|2|2,0:0|0:0|0:0,0:0:0:0:
252,340,30787,1,8,0:0:0:0:
252,340,30949,1,2,0:0:0:0:
220,224,31111,6,0,P|145:205|92:236,1,135,8|2,0:0|0:0,0:0:0:0:
44,312,31598,1,8,0:0:0:0:
12,176,31760,2,0,L|8:140,2,33.75,2|0|0,0:0|0:0|0:0,0:0:0:0:
97,230,32084,1,8,0:0:0:0:
112,92,32246,1,12,0:0:0:0:
256,192,32328,12,2,33625,0:0:0:0:
