osu file format v14

[General]
AudioFilename: audio.mp3
AudioLeadIn: 0
PreviewTime: 10612
Countdown: 0
SampleSet: Soft
StackLeniency: 0.7
Mode: 0
LetterboxInBreaks: 0
WidescreenStoryboard: 1

[Editor]
DistanceSpacing: 0.9
BeatDivisor: 4
GridSize: 32
TimelineZoom: 1

[Metadata]
Title:Seishun wa Tabemono desu
TitleUnicode:青春は食べ物です
Artist:petit milady
ArtistUnicode:petit milady
Creator:Naotoshi
Version:Hard
Source:パンでPeace!
Tags:プチミレディ 悠木碧 竹達彩奈 yuuki ascendance aoi taketatsu ayana プチミレディ opening calendar girl short pan de peace
BeatmapID:1522653
BeatmapSetID:721039

[Difficulty]
HPDrainRate:5.3
CircleSize:3.7
OverallDifficulty:6.4
ApproachRate:7.4
SliderMultiplier:1.35
SliderTickRate:1

[Events]
//Background and Video events
0,0,"pan de peace bg.jpg",0,0
//Break Periods
//Storyboard Layer 0 (Background)
//Storyboard Layer 1 (Fail)
//Storyboard Layer 2 (Pass)
//Storyboard Layer 3 (Foreground)
//Storyboard Sound Samples

[TimingPoints]
1288,324.324324324324,4,2,0,65,1,0
3882,-133.333333333333,4,2,0,65,0,0
5179,-100,4,2,0,65,0,0
11666,-83.3333333333333,4,2,0,88,0,1
21233,-83.3333333333333,4,2,0,88,0,0
22044,-83.3333333333333,4,2,0,88,0,1
29828,-83.3333333333333,4,2,0,88,0,0
32260,-133.333333333333,4,2,0,65,0,1
33558,-133.333333333333,4,2,0,65,0,0

[Colours]
Combo1 : 206,196,162
Combo2 : 129,111,251
Combo3 : 205,173,114
Combo4 : 243,143,179

[HitObjects]
152,173,1288,6,0,P|231:205|406:154,1,270,4|2,1:2|0:2,0:0:0:0:
417,39,2098,1,0,0:2:0:0:
308,77,2260,1,2,0:2:0:0:
402,157,2423,6,0,L|415:369,1,202.5,4|0,1:2|0:2,0:0:0:0:
302,341,3071,2,0,L|297:191,2,135,0|8|0,1:2|0:3|0:2,0:0:0:0:
199,296,3882,6,0,P|164:336|22:248,1,253.125009655953,4|2,1:2|0:2,0:0:0:0:
138,107,5179,6,0,P|188:138|267:125,1,135,0|0,0:2|0:2,0:0:0:0:
341,39,5666,2,0,L|378:189,2,135,0|0|0,1:2|0:2|0:2,0:0:0:0:
455,65,6477,6,0,B|478:164|478:164|465:267,1,202.5,4|0,1:2|0:2,0:0:0:0:
312,351,7287,1,0,0:2:0:0:
312,351,7450,1,0,1:2:0:0:
240,302,7612,2,0,P|191:328|93:292,1,135,0|0,0:2|0:2,0:0:0:0:
46,366,8098,1,2,2:2:0:0:
46,366,8260,2,0,L|82:220,1,135,0|0,0:2|0:2,0:0:0:0:
112,130,8747,1,0,1:2:0:0:
345,216,9071,5,4,1:2:0:0:
238,33,9396,1,0,1:2:0:0:
238,33,9558,1,0,1:2:0:0:
354,53,9720,2,0,P|363:94|361:130,1,67.5,0|0,1:2|1:2,0:0:0:0:
233,196,10044,2,0,P|224:155|226:119,1,67.5,0|0,1:2|1:2,0:0:0:0:
341,230,10369,5,4,1:2:0:0:
341,230,10531,2,0,B|275:217|275:217|190:233,1,135,2|0,0:2|0:2,0:0:0:0:
107,191,11017,2,0,P|98:244|101:274,1,67.5,2|0,0:2|0:2,0:0:0:0:
170,326,11342,1,0,1:2:0:0:
84,379,11504,1,0,1:2:0:0:
11,279,11666,6,0,P|44:235|49:107,1,161.999995056153,4|0,1:2|0:2,0:0:0:0:
122,17,12152,2,0,P|163:61|213:80,1,80.9999975280763,2|0,0:2|0:2,0:0:0:0:
316,34,12477,2,0,L|405:30,1,80.9999975280763,2|0,0:2|1:2,0:0:0:0:
485,125,12801,1,2,0:2:0:0:
485,125,12963,6,0,P|509:207|474:292,1,161.999995056153,0|0,1:2|1:2,0:0:0:0:
355,245,13450,2,0,P|298:238|192:295,1,161.999995056153,2|0,0:2|0:2,0:0:0:0:
99,198,13936,2,0,P|105:140|96:92,1,80.9999975280763,0|0,1:2|0:0,0:0:0:0:
8,0,14260,6,0,P|-7:78|5:175,1,161.999995056153,4|0,1:2|1:2,0:0:0:0:
68,281,14747,2,0,P|122:281|171:270,1,80.9999975280763,2|0,0:2|0:2,0:0:0:0:
275,169,15071,2,0,P|221:169|172:180,1,80.9999975280763,2|0,0:2|1:2,0:0:0:0:
318,277,15396,1,2,0:2:0:0:
318,277,15558,6,0,B|380:250|380:250|402:203|385:140,1,161.999995056153,0|0,1:2|1:2,0:0:0:0:
247,188,16044,2,0,P|171:207|83:198,1,161.999995056153,2|0,0:2|0:2,0:0:0:0:
0,128,16531,1,0,1:2:0:0:
245,30,16855,6,0,P|261:92|246:189,1,161.999995056153,0|0,1:2|1:2,0:0:0:0:
138,265,17342,2,0,P|135:329|145:379,1,80.9999975280763,2|0,0:2|0:2,0:0:0:0:
130,161,17666,2,0,P|90:158|50:162,1,80.9999975280763,2|0,0:2|1:2,0:0:0:0:
152,41,17990,5,4,0:2:0:0:
349,127,18315,1,0,0:2:0:0:
365,9,18477,1,0,1:2:0:0:
273,63,18639,2,0,P|256:114|257:164,1,80.9999975280763,2|0,0:2|0:2,0:0:0:0:
344,225,18963,2,0,P|343:277|323:331,1,80.9999975280763,0|0,0:2|1:2,0:0:0:0:
221,345,19287,1,0,0:2:0:0:
163,223,19450,6,0,B|158:159|205:126|205:126|276:147,1,161.999995056153,4|0,1:2|1:2,0:0:0:0:
376,103,19936,2,0,P|381:45|367:2,1,80.9999975280763,2|0,0:2|0:2,0:0:0:0:
369,238,20260,2,0,P|364:296|378:339,1,80.9999975280763,2|0,0:2|1:2,0:0:0:0:
473,189,20585,1,2,0:2:0:0:
473,190,20747,6,0,P|423:211|310:190,1,161.999995056153,4|0,1:2|1:2,0:0:0:0:
217,82,21233,2,0,P|164:102|41:61,1,161.999995056153,2|0,0:2|0:2,0:0:0:0:
1,186,21720,1,2,1:2:0:0:
108,274,21882,1,0,0:0:0:0:
108,274,21963,1,0,1:2:0:0:
108,274,22044,6,0,B|187:242|185:311|286:271,1,161.999995056153,4|0,1:2|1:2,0:0:0:0:
260,108,22531,2,0,P|239:166|234:215,1,80.9999975280763,2|0,0:2|0:2,0:0:0:0:
385,229,22855,2,0,P|345:181|305:152,1,80.9999975280763,2|0,0:2|1:2,0:0:0:0:
345,325,23179,1,2,0:2:0:0:
345,325,23342,6,0,P|385:200|421:158,1,161.999995056153,4|0,1:2|1:2,0:0:0:0:
493,39,23828,2,0,P|439:65|317:65,1,161.999995056153,4|0,1:2|0:2,0:0:0:0:
248,8,24315,1,2,1:2:0:0:
193,102,24477,1,2,0:2:0:0:
321,182,24639,6,0,L|435:174,1,80.9999975280763,4|0,1:2|0:2,0:0:0:0:
313,292,24963,1,0,1:2:0:0:
222,226,25125,2,0,P|215:171|236:122,1,80.9999975280763,4|0,0:2|0:0,0:0:0:0:
136,281,25450,2,0,P|143:336|122:385,1,80.9999975280763,4|0,0:2|0:0,0:0:0:0:
76,189,25774,6,0,P|169:236|241:215,1,161.999995056153,4|0,0:2|1:2,0:0:0:0:
323,141,26260,2,0,L|336:55,1,80.9999975280763,4|2,1:3|0:2,0:0:0:0:
450,139,26585,2,0,L|440:90,2,40.4999987640381,4|0|4,0:3|0:2|0:3,0:0:0:0:
381,241,26909,2,0,L|369:290,2,40.4999987640381,4|0|8,1:3|0:2|0:3,0:0:0:0:
292,155,27233,6,0,P|252:178|118:156,1,161.999995056153,4|0,1:2|1:2,0:0:0:0:
47,96,27720,2,0,P|23:148|21:205,1,80.9999975280763,2|0,0:2|0:2,0:0:0:0:
91,272,28044,2,0,P|130:280|166:299,1,80.9999975280763,2|0,0:2|1:2,0:0:0:0:
285,253,28369,1,2,0:2:0:0:
285,253,28531,6,0,B|336:303|384:276|384:276|425:198,1,161.999995056153,0|0,1:2|1:2,0:0:0:0:
267,143,29017,2,0,P|205:183|180:283,1,161.999995056153,2|0,0:2|0:2,0:0:0:0:
265,360,29504,1,0,1:2:0:0:
384,286,29666,1,2,0:2:0:0:
384,286,29747,1,2,0:2:0:0:
384,286,29828,6,0,P|396:218|412:189,2,80.9999975280763,4|0|0,1:2|0:2|1:2,0:0:0:0:
262,227,30315,2,0,P|193:260|96:238,1,161.999995056153,4|0,1:2|0:2,0:0:0:0:
34,136,30801,2,0,L|57:33,1,80.9999975280763,0|0,1:2|0:2,0:0:0:0:
157,74,31125,6,0,L|174:165,2,80.9999975280763,4|2|2,1:2|0:2|1:2,0:0:0:0:
290,29,31612,2,0,L|284:118,1,80.9999975280763,4|2,1:2|0:2,0:0:0:0:
294,132,31855,1,2,0:2:0:0:
306,152,31936,1,2,1:2:0:0:
364,251,32098,1,4,0:2:0:0:
229,313,32260,6,0,B|154:330|154:330|4:292|32:149|69:106,1,354.375013518334,4|8,1:2|0:3,0:0:0:0:
205,78,33558,2,0,L|252:75,1,25.3125009655953,8|4,0:3|0:3,0:0:0:0:
