osu file format v14

[General]
AudioFilename: audio.mp3
AudioLeadIn: 0
PreviewTime: 10597
Countdown: 0
SampleSet: Soft
StackLeniency: 0.5
Mode: 0
LetterboxInBreaks: 0
WidescreenStoryboard: 0

[Editor]
DistanceSpacing: 1.8
BeatDivisor: 4
GridSize: 32
TimelineZoom: 2.6

[Metadata]
Title:Seishun wa Tabemono desu
TitleUnicode:青春は食べ物です
Artist:petit milady
ArtistUnicode:petit milady
Creator:Emychi
Version:Insane
Source:パンでPeace!
Tags:悠木碧 竹達彩奈 yuuki aoi taketatsu ayana プチミレディ opening CALENDAR GIRL short pan de peace shunao
BeatmapID:1820961
BeatmapSetID:871516

[Difficulty]
HPDrainRate:5
CircleSize:4
OverallDifficulty:8.7
ApproachRate:9
SliderMultiplier:1.7
SliderTickRate:1

[Events]
//Background and Video events
0,0,"724461.jpg",0,0
//Break Periods
//Storyboard Layer 0 (Background)
//Storyboard Layer 1 (Fail)
//Storyboard Layer 2 (Pass)
//Storyboard Layer 3 (Foreground)
//Storyboard Sound Samples

[TimingPoints]
1273,324.324324324324,4,2,0,60,1,0
1273,-125,4,2,0,60,0,0
9056,-111.111111111111,4,2,0,70,0,0
9300,-111.111111111111,4,2,0,5,0,0
9381,-111.111111111111,4,2,0,65,0,0
9705,-111.111111111111,4,2,0,70,0,0
10029,-111.111111111111,4,2,0,75,0,0
10354,-111.111111111111,4,2,0,80,0,0
10678,-111.111111111111,4,2,0,70,0,0
11651,-100,4,2,0,80,0,1
18218,-100,4,2,0,5,0,1
18300,-100,4,2,0,80,0,1
18867,-100,4,2,0,5,0,1
18948,-100,4,2,0,80,0,1
29813,-111.111111111111,4,2,0,80,0,0
33705,-111.111111111111,4,2,0,5,0,0

[Colours]
Combo1 : 255,64,255
Combo2 : 0,92,185
Combo3 : 230,0,0
Combo4 : 255,134,0

[HitObjects]
34,66,1273,6,0,B|144:57|115:135|238:121,1,204,4|0,0:0|0:0,0:0:0:0:
305,77,1921,2,2,P|311:41|306:10,2,68
304,170,2408,2,0,P|355:210|445:181,1,136,6|0,0:0|0:0,0:0:0:0:
443,112,2894,2,0,P|439:149|455:201,1,68,2|0,0:0|0:0,0:0:0:0:
496,257,3218,2,0,P|465:235|412:222,1,68,2|0,0:0|0:0,0:0:0:0:
349,252,3543,2,0,P|383:236|420:197,1,68,2|0,0:0|0:0,0:0:0:0:
443,112,3867,5,4,0:0:0:0:
219,215,4678,2,0,P|230:141|185:91,1,136,2|0,0:0|0:0,0:0:0:0:
280,145,5164,1,2,0:0:0:0:
122,279,5651,1,8,0:0:0:0:
122,279,5975,1,2,0:0:0:0:
154,166,6300,1,2,0:0:0:0:
212,265,6462,6,0,B|287:268|268:227|345:231,1,136,4|0,0:0|0:0,0:0:0:0:
447,315,6948,2,0,P|430:286|426:237,1,68,2|0,0:0|0:0,0:0:0:0:
433,159,7272,1,0,0:0:0:0:
512,257,7435,1,8,0:0:0:0:
445,130,7597,6,0,B|408:116|376:131|383:148|346:163|304:147,1,136,2|2,0:0|0:0,0:0:0:0:
242,101,8083,1,2,0:0:0:0:
224,192,8245,2,0,P|224:230|243:279,2,68,0|2|2,0:0|0:0|0:0,0:0:0:0:
263,79,8732,1,8,0:0:0:0:
263,79,9056,6,0,P|199:92|140:73,1,114.749996498108,4|0,0:0|0:0,0:0:0:0:
129,62,9381,5,8,0:0:0:0:
65,99,9543,1,10,0:0:0:0:
150,162,9705,5,8,0:0:0:0:
96,247,9867,1,10,0:0:0:0:
238,238,10029,5,8,0:0:0:0:
221,361,10191,1,10,0:0:0:0:
360,206,10354,5,4,0:0:0:0:
360,206,10678,5,2,0:0:0:0:
352,168,10759,1,2,0:0:0:0:
331,136,10840,1,2,0:0:0:0:
300,115,10921,1,2,0:0:0:0:
263,106,11002,2,0,P|237:111|222:120,3,38.2499988327027,2|2|2|2,0:0|0:0|0:0|0:0,0:0:0:0:
229,207,11327,2,0,P|248:205|265:198,3,38.2499988327027,2|2|2|2,0:0|0:0|0:0|0:0,0:0:0:0:
107,125,11651,6,0,B|84:170|84:170|92:304,1,170,4|8,0:0|0:0,0:0:0:0:
149,375,12137,1,0,0:0:0:0:
202,226,12300,1,2,0:0:0:0:
278,364,12462,2,0,P|284:320|274:256,1,85,2|8,0:0|0:0,0:0:0:0:
243,159,12786,1,2,0:0:0:0:
392,211,12948,5,0,0:0:0:0:
188,254,13110,1,0,0:0:0:0:
286,78,13272,1,8,0:0:0:0:
359,293,13435,2,0,P|405:298|460:269,1,85,2|0,0:0|0:0,0:0:0:0:
426,136,13759,2,0,P|398:173|396:235,1,85,2|8,0:0|0:0,0:0:0:0:
310,53,14083,1,2,0:0:0:0:
218,236,14245,6,0,P|141:255|79:170,1,170,2|8,0:0|0:0,0:0:0:0:
65,77,14732,1,0,0:0:0:0:
0,240,14894,1,0,0:0:0:0:
147,130,15056,2,0,P|162:91|155:32,1,85,2|8,0:0|0:0,0:0:0:0:
182,256,15381,1,0,0:0:0:0:
59,158,15543,5,4,0:0:0:0:
250,150,15705,1,0,0:0:0:0:
76,260,15867,1,0,0:0:0:0:
278,320,16029,2,0,P|319:323|386:303,2,85,2|0|2,0:0|0:0|0:0,0:0:0:0:
182,256,16516,1,8,0:0:0:0:
324,191,16678,1,2,0:0:0:0:
179,351,16840,6,0,P|106:314|89:234,1,170,2|8,0:0|0:0,0:0:0:0:
145,90,17327,2,0,P|156:141|148:200,1,85,2|2,0:0|0:0,0:0:0:0:
275,47,17651,2,0,P|264:98|272:157,1,85,2|8,0:0|0:0,0:0:0:0:
408,70,17975,6,0,P|420:132|411:228,1,127.5,6|0,0:0|0:0,0:0:0:0:
409,226,18300,1,10,0:0:0:0:
512,108,18462,1,10,0:0:0:0:
310,200,18624,2,0,P|246:203|184:191,1,127.5,10|0,0:0|0:0,0:0:0:0:
157,174,18948,1,2,0:0:0:0:
188,298,19110,1,0,0:0:0:0:
257,105,19272,1,2,0:0:0:0:
89,241,19435,6,0,B|68:186|68:186|80:68,1,170,4|8,0:0|0:0,0:0:0:0:
158,0,19921,1,2,0:0:0:0:
0,104,20083,1,0,0:0:0:0:
176,147,20245,2,0,P|223:149|282:135,1,85,2|8,0:0|0:0,0:0:0:0:
89,241,20570,1,2,0:0:0:0:
259,295,20732,5,4,0:0:0:0:
189,117,20894,1,0,0:0:0:0:
98,276,21056,1,8,0:0:0:0:
301,220,21218,2,0,P|343:215|388:229,2,85,2|0|2,0:0|0:0|0:0,0:0:0:0:
225,299,21705,1,8,0:0:0:0:
218,106,21867,1,0,0:0:0:0:
218,106,21948,1,2,0:0:0:0:
218,106,22029,6,0,B|126:97|145:158|58:149,1,170,4|8,0:0|0:0,0:0:0:0:
196,191,22516,1,2,0:0:0:0:
75,64,22678,1,0,0:0:0:0:
77,256,22840,2,0,P|83:303|105:355,1,85,0|8,0:0|0:0,0:0:0:0:
173,168,23164,1,0,0:0:0:0:
0,292,23327,5,2,0:0:0:0:
93,138,23489,1,0,0:0:0:0:
125,351,23651,1,8,0:0:0:0:
257,186,23813,2,0,P|293:157|353:135,2,85,2|0|2,0:0|0:0|0:0,0:0:0:0:
217,309,24300,1,8,0:0:0:0:
186,134,24462,1,2,0:0:0:0:
349,253,24624,6,0,B|443:263|416:199|525:210,1,170,6|2,0:0|0:0,0:0:0:0:
386,72,25110,2,0,P|371:111|369:172,1,85,10|0,0:0|0:0,0:0:0:0:
243,46,25435,2,0,P|258:85|260:146,1,85,10|0,0:0|0:0,0:0:0:0:
109,67,25759,6,0,P|88:149|95:251,1,170,6|2,0:0|0:0,0:0:0:0:
154,338,26245,1,2,0:0:0:0:
200,183,26408,1,2,0:0:0:0:
236,162,26489,1,2,0:0:0:0:
278,163,26570,1,2,0:0:0:0:
314,184,26651,1,2,0:0:0:0:
334,221,26732,2,0,P|338:272|323:317,1,85,2|2,0:0|0:0,0:0:0:0:
428,151,27056,1,2,0:0:0:0:
428,151,27137,1,2,0:0:0:0:
428,151,27218,6,0,P|434:238|463:318,1,170,4|8,0:0|0:0,0:0:0:0:
329,304,27705,1,2,0:0:0:0:
473,220,27867,1,0,0:0:0:0:
278,163,28029,2,0,P|226:163|173:180,1,85,0|8,0:0|0:0,0:0:0:0:
368,85,28354,1,2,0:0:0:0:
315,276,28516,5,4,0:0:0:0:
443,144,28678,1,0,0:0:0:0:
458,347,28840,1,8,0:0:0:0:
299,192,29002,2,0,B|210:184|219:252|122:230,1,170,2|2,0:0|0:0,0:0:0:0:
27,195,29489,1,0,0:0:0:0:
150,58,29651,1,2,0:0:0:0:
150,58,29732,1,2,0:0:0:0:
150,58,29813,5,14,0:0:0:0:
162,162,29975,1,2,0:0:0:0:
174,266,30137,1,2,0:0:0:0:
268,63,30300,5,8,0:0:0:0:
281,180,30462,1,2,0:0:0:0:
295,297,30624,1,2,0:0:0:0:
392,80,30786,5,8,0:0:0:0:
392,80,31110,5,8,0:0:0:0:
281,180,31272,1,0,0:0:0:0:
409,191,31435,5,10,0:0:0:0:
202,210,31597,1,2,0:0:0:0:
431,305,31759,5,2,0:0:0:0:
431,305,31840,1,2,0:0:0:0:
431,305,31921,1,2,0:0:0:0:
216,130,32083,5,8,0:0:0:0:
309,368,32245,1,12,0:0:0:0:
256,192,32408,12,0,33705,0:0:0:0:
