osu file format v14

[General]
AudioFilename: audio.mp3
AudioLeadIn: 0
PreviewTime: 51810
Countdown: 0
SampleSet: Soft
StackLeniency: 0.3
Mode: 0
LetterboxInBreaks: 0
WidescreenStoryboard: 0

[Editor]
DistanceSpacing: 0.8
BeatDivisor: 4
GridSize: 4
TimelineZoom: 1.9

[Metadata]
Title:Kuufuku Kara Yarinaose! (TV Size)
TitleUnicode:空腹からやりなおせ!
Artist:petit milady
ArtistUnicode:petit milady
Creator:terratropic
Version:Insane
Source:AKIBA'S STRIP -THE ANIMATION-
Tags:ed ending 竹達彩奈 taketatsu ayana 悠木碧 yuuki aoi
BeatmapID:1413680
BeatmapSetID:668176

[Difficulty]
HPDrainRate:6
CircleSize:4
OverallDifficulty:7.5
ApproachRate:9
SliderMultiplier:1.7
SliderTickRate:1

[Events]
//Background and Video events
Video,0,"ed10.avi"
0,0,"bg2.jpg",0,0
//Break Periods
//Storyboard Layer 0 (Background)
//Storyboard Layer 1 (Fail)
//Storyboard Layer 2 (Pass)
//Storyboard Layer 3 (Foreground)
//Storyboard Sound Samples

[TimingPoints]
285,338.983050847458,4,2,1,70,1,0
285,-125,4,2,1,70,0,0
9776,-125,4,2,1,80,0,0
11047,-125,4,2,1,30,0,0
11132,-100,4,2,1,90,0,0
21132,-100,4,2,3,90,0,0
21217,-100,4,2,3,40,0,0
21301,-100,4,2,3,90,0,0
21386,-100,4,2,3,40,0,0
21471,-100,4,2,3,90,0,0
21556,-100,4,2,3,40,0,0
21640,-100,4,2,3,90,0,0
21725,-100,4,2,3,40,0,0
21810,-100,4,2,3,90,0,0
21895,-100,4,2,3,40,0,0
21979,-100,4,2,1,90,0,0
32149,-100,4,2,2,90,0,0
32827,-100,4,2,1,90,0,0
43674,-125,4,2,1,80,0,0
46386,-125,4,2,3,80,0,0
48420,-125,4,2,2,80,0,0
51132,-100,4,2,2,90,0,0
51810,-100,4,2,1,90,0,1
61301,-83.3333333333333,4,2,1,90,0,0
61725,-83.3333333333333,4,2,1,40,0,0
61810,-83.3333333333333,4,2,1,90,0,0
62064,-83.3333333333333,4,2,1,40,0,0
62149,-83.3333333333333,4,2,1,90,0,0
62657,-100,4,2,1,90,0,1
72149,-83.3333333333333,4,2,1,90,0,0
72573,-83.3333333333333,4,2,1,40,0,0
72657,-83.3333333333333,4,2,1,90,0,0
72912,-83.3333333333333,4,2,1,40,0,0
72996,-83.3333333333333,4,2,1,90,0,0
73505,-100,4,2,1,90,0,0
74861,-100,4,2,2,90,0,0
76217,-100,4,2,1,90,0,0
86217,-100,4,2,2,90,0,0
87064,-125,4,2,1,70,0,0
87403,-125,4,2,1,60,0,0
87742,-125,4,2,1,50,0,0
88081,-125,4,2,1,40,0,0
88420,-125,4,2,1,30,0,0
88759,-125,4,2,1,20,0,0

[Colours]
Combo1 : 128,128,128
Combo2 : 215,0,0
Combo3 : 253,216,38
Combo4 : 12,6,230
Combo5 : 105,52,52

[HitObjects]
188,180,285,6,0,L|255:177,1,68
331,220,623,2,0,B|396:248|395:196|471:228,2,136
255,176,1471,6,0,L|247:80,1,68
179,300,1810,2,0,L|187:204,1,68
243,168,2149,2,0,L|235:72,1,68
171,292,2488,2,0,P|224:248|296:264,1,136
360,208,2996,6,0,P|420:192|448:120,2,136
244,84,3844,1,0,0:0:0:0:
324,60,4013,1,0,0:0:0:0:
304,144,4183,1,0,0:0:0:0:
220,168,4352,6,0,B|168:172|168:172|128:188|128:188|72:192,1,136
44,268,4861,2,0,P|80:280|120:300,1,68
248,156,5200,1,0,0:0:0:0:
172,120,5369,1,0,0:0:0:0:
96,84,5539,1,0,0:0:0:0:
244,68,5708,6,0,P|280:64|320:72,1,68
383,124,6047,2,0,P|447:132|512:76,2,136
227,44,6895,2,0,L|127:40,1,68
80,88,7234,2,0,L|12:85,1,68
239,60,7573,2,0,L|139:56,1,68
64,100,7912,2,0,B|-13:95|-13:95|43:67,1,136
134,148,8420,6,0,P|124:243|31:263,1,204
0,188,9098,2,0,P|40:184|76:196,1,68
171,57,9437,1,0,0:0:0:0:
99,100,9607,1,0,0:0:0:0:
163,248,9776,6,0,L|167:324,1,68,4|0,0:0|0:0,0:0:0:0:
247,200,10115,2,0,L|243:276,1,68,4|0,0:0|0:0,0:0:0:0:
323,308,10454,1,4,0:0:0:0:
135,296,10623,1,2,0:0:0:0:
254,369,10793,6,0,L|241:248,1,102,8|0,0:0|0:0,0:0:0:0:
224,252,11132,6,0,P|224:208|248:164,1,85,2|0,0:0|0:0,0:0:0:0:
124,120,11471,2,0,P|141:158|141:200,1,85,8|0,0:0|0:0,0:0:0:0:
308,228,11810,1,2,0:0:0:0:
228,136,11979,1,2,0:0:0:0:
400,168,12149,1,8,0:0:0:0:
336,244,12319,1,0,0:0:0:0:
280,68,12488,6,0,P|196:56|140:140,1,170,2|8,0:0|0:0,0:0:0:0:
64,156,12996,1,0,0:0:0:0:
228,204,13166,1,2,0:0:0:0:
172,92,13335,1,2,0:0:0:0:
40,240,13505,2,0,P|84:244|128:216,1,85,8|0,0:0|0:0,0:0:0:0:
172,92,13844,6,0,B|236:88|236:88|280:104|280:104|359:100,1,170,0|8,0:0|0:0,0:0:0:0:
408,36,14352,2,0,L|504:32,2,85,0|2|2,0:0|0:0|0:0,0:0:0:0:
172,92,14861,1,8,0:0:0:0:
276,20,15030,1,0,0:0:0:0:
416,136,15200,6,0,P|364:200|280:188,1,170,2|8,0:0|0:0,0:0:0:0:
196,208,15708,1,0,0:0:0:0:
300,48,15878,1,2,0:0:0:0:
404,104,16047,1,2,0:0:0:0:
196,68,16217,1,8,0:0:0:0:
276,20,16386,1,0,0:0:0:0:
172,152,16556,6,0,B|112:156|112:156|64:172|64:172|0:176,1,170,2|8,0:0|0:0,0:0:0:0:
56,80,17064,1,0,0:0:0:0:
172,227,17234,1,2,0:0:0:0:
20,272,17403,1,2,0:0:0:0:
224,308,17573,2,0,P|276:308|320:280,1,85,8|0,0:0|0:0,0:0:0:0:
20,272,17912,6,0,P|52:216|164:208,1,170,2|8,0:0|0:0,0:0:0:0:
304,292,18420,1,0,0:0:0:0:
224,152,18590,1,2,0:0:0:0:
172,228,18759,1,2,0:0:0:0:
388,256,18929,2,0,P|430:255|469:240,1,85,8|0,0:0|0:0,0:0:0:0:
512,172,19183,1,8,0:0:0:0:
508,168,19268,6,0,B|492:48|492:48|480:108,1,170,2|8,0:0|0:0,0:0:0:0:
312,136,19776,1,0,0:0:0:0:
392,84,19946,1,2,0:0:0:0:
244,30,20115,1,2,0:0:0:0:
335,164,20285,1,8,0:0:0:0:
338,4,20454,1,0,0:0:0:0:
241,128,20623,6,0,L|232:232,1,85,2|0,0:0|0:0,0:0:0:0:
192,296,20962,1,8,0:0:0:0:
1,250,21132,2,0,P|21:250|49:274,1,42.5,8|0,0:0|0:3,0:3:0:0:
120,328,21301,6,0,L|116:276,1,42.5,4|0,0:0|0:0,0:0:0:0:
80,152,21471,2,8,L|83:194,1,42.5,4|8,0:0|0:0,0:0:0:0:
44,304,21640,2,0,L|40:252,1,42.5,4|0,0:0|0:0,0:0:0:0:
152,108,21810,2,0,L|155:150,1,42.5,4|0,0:0|0:0,0:0:0:0:
116,285,21979,6,0,P|196:276|232:192,1,170,2|8,0:0|0:0,0:0:0:0:
155,150,22488,1,0,0:0:0:0:
336,124,22657,1,2,0:0:0:0:
268,184,22827,1,2,0:0:0:0:
316,36,22996,2,0,P|364:36|416:68,1,85,8|0,0:0|0:0,0:0:0:0:
248,96,23335,6,0,B|188:92|188:92|144:68|144:68|72:60,1,170,2|8,0:0|0:0,0:0:0:0:
4,108,23844,1,0,0:0:0:0:
140,192,24013,2,0,P|140:244|116:284,2,85,2|2|8,0:0|0:0|0:0,0:0:0:0:
48,220,24522,1,0,0:0:0:0:
188,116,24691,6,0,P|196:200|280:236,1,170,2|8,0:0|0:0,0:0:0:0:
408,124,25200,1,0,0:0:0:0:
323,85,25369,2,0,P|289:110|271:148,1,85,2|2,0:0|0:0,0:0:0:0:
400,256,25708,2,0,L|500:252,1,85,8|0,0:0|0:0,0:0:0:0:
481,88,26047,6,0,P|412:113|321:84,1,170,2|8,0:0|0:0,0:0:0:0:
228,124,26556,1,0,0:0:0:0:
416,284,26725,1,2,0:0:0:0:
268,308,26895,1,2,0:0:0:0:
392,128,27064,1,8,0:0:0:0:
244,152,27234,1,0,0:0:0:0:
176,312,27403,6,0,B|88:288|88:336|0:308,1,170,2|8,0:0|0:0,0:0:0:0:
72,120,27912,1,0,0:0:0:0:
0,180,28081,2,0,P|40:208|96:216,1,85,2|2,0:0|0:0,0:0:0:0:
232,60,28420,2,0,P|190:63|136:84,1,85,8|0,0:0|0:0,0:0:0:0:
176,268,28759,5,0,0:0:0:0:
288,152,28929,1,0,0:0:0:0:
136,112,29098,1,8,0:0:0:0:
332,244,29268,2,0,L|432:236,1,85,0|2,0:0|0:0,0:0:0:0:
228,352,29607,2,0,L|143:346,2,85,2|8|0,0:0|0:0|0:0,0:0:0:0:
408,276,30115,5,2,0:0:0:0:
484,168,30285,2,0,P|440:148|392:144,1,85,0|8,0:0|0:0,0:0:0:0:
252,44,30623,1,0,0:0:0:0:
272,136,30793,2,0,P|315:114|340:77,1,85,2|2,0:0|0:0,0:0:0:0:
128,112,31132,1,8,0:0:0:0:
252,44,31301,1,0,0:0:0:0:
416,236,31471,6,0,B|428:180|428:180|412:124|412:124|424:68,1,170,2|0,0:0|0:0,0:0:0:0:
344,12,31979,1,0,0:0:0:0:
189,48,32149,2,0,L|215:89,1,42.5,2|0,0:0|0:0,0:0:0:0:
392,144,32318,2,0,L|349:148,1,42.5,8|8,0:0|0:0,0:0:0:0:
245,196,32488,1,2,0:0:0:0:
260,166,32572,1,0,0:0:0:0:
275,136,32657,1,8,0:0:0:0:
290,106,32742,1,8,0:0:0:0:
305,75,32827,6,0,B|364:68|364:68|408:48|408:48|488:40,1,170,2|8,0:0|0:0,0:0:0:0:
212,84,33335,1,0,0:0:0:0:
424,128,33505,1,2,0:0:0:0:
288,40,33674,1,2,0:0:0:0:
124,100,33844,2,0,P|128:52|160:12,1,85,8|0,0:0|0:0,0:0:0:0:
357,89,34183,6,0,P|283:124|211:83,1,170,2|8,0:0|0:0,0:0:0:0:
147,22,34691,2,0,L|56:24,2,85,0|2|2,0:0|0:0|0:0,0:0:0:0:
80,200,35200,1,8,0:0:0:0:
8,108,35369,1,0,0:0:0:0:
160,236,35539,6,0,L|336:228,1,170,2|8,0:0|0:0,0:0:0:0:
412,264,36047,1,0,0:0:0:0:
480,96,36217,1,2,0:0:0:0:
352,196,36386,1,2,0:0:0:0:
440,284,36556,1,8,0:0:0:0:
392,116,36725,1,0,0:0:0:0:
355,313,36895,6,0,P|416:372|496:352,1,170,2|8,0:0|0:0,0:0:0:0:
288,256,37403,1,0,0:0:0:0:
440,284,37573,2,0,P|460:248|460:200,1,85,2|2,0:0|0:0,0:0:0:0:
260,280,37912,2,0,B|210:282|210:282|180:292|180:292|120:296,1,127.5,8|8,0:0|0:0,0:0:0:0:
104,316,38251,6,0,P|116:236|52:248,1,170,2|8,0:0|0:0,0:0:0:0:
8,164,38759,1,0,0:0:0:0:
196,84,38929,1,2,0:0:0:0:
28,52,39098,1,2,0:0:0:0:
84,120,39268,2,0,L|176:112,1,85,8|0,0:0|0:0,0:0:0:0:
368,116,39607,6,0,P|316:52|224:72,1,170,2|8,0:0|0:0,0:0:0:0:
168,112,40115,1,0,0:0:0:0:
352,212,40285,1,2,0:0:0:0:
328,96,40454,1,2,0:0:0:0:
280,268,40623,2,0,L|280:364,1,85,8|0,0:0|0:0,0:0:0:0:
442,150,40962,6,0,P|408:124|367:115,1,85,2|0,0:0|0:0,0:0:0:0:
280,268,41301,2,0,P|316:304|432:280,1,170,8|0,0:0|0:0,0:0:0:0:
204,212,41810,2,0,P|156:220|116:252,1,85,2|8,0:0|0:0,0:0:0:0:
196,304,42149,1,0,0:0:0:0:
166,127,42318,6,0,B|108:124|108:124|64:108|64:108|0:104,1,170,2|8,0:0|0:0,0:0:0:0:
16,16,42827,1,0,0:0:0:0:
44,200,42996,1,2,0:0:0:0:
93,69,43166,1,2,0:0:0:0:
44,200,43335,2,0,L|44:292,1,85,8|0,0:0|0:0,0:0:0:0:
116,348,43674,6,0,B|184:364|184:324|256:348,1,136,6|0,0:0|0:0,0:0:0:0:
256,192,44098,12,0,46047,0:0:0:0:
292,108,46386,6,0,L|156:116,1,136,2|4,0:0|0:0,0:0:0:0:
76,160,46895,2,0,P|136:156|208:212,1,136
12,96,47403,1,4,0:0:0:0:
12,96,47742,6,0,B|16:144|16:144|32:180|32:180|36:232,1,136,2|8,0:0|0:0,0:0:0:0:
84,308,48251,1,4,0:0:0:0:
187,198,48420,1,8,0:0:0:0:
219,206,48504,1,8,0:0:0:0:
252,214,48589,1,8,0:0:0:0:
285,223,48674,1,8,0:0:0:0:
318,231,48758,1,8,0:0:0:0:
404,200,48929,1,8,0:0:0:0:
408,200,49013,1,8,0:0:0:0:
412,200,49098,5,2,0:0:0:0:
336,136,49268,1,8,0:0:0:0:
332,136,49352,1,8,0:0:0:0:
328,136,49437,1,2,0:0:0:0:
476,16,49607,2,0,L|528:8,2,34,8|8|2,0:0|0:0|0:0,0:0:0:0:
448,108,49946,2,0,L|480:136,2,34,8|8|2,0:0|0:0|0:0,0:0:0:0:
300,48,50285,1,8,0:0:0:0:
300,52,50369,1,8,0:0:0:0:
300,56,50454,5,2,0:0:0:0:
216,28,50623,1,8,0:0:0:0:
216,24,50707,1,8,0:0:0:0:
216,20,50792,1,2,0:0:0:0:
132,56,50962,1,8,0:0:0:0:
132,60,51046,1,8,0:0:0:0:
132,64,51132,1,2,0:0:0:0:
165,60,51216,1,8,0:0:0:0:
198,69,51301,1,8,0:0:0:0:
225,88,51386,1,8,0:0:0:0:
244,116,51471,1,2,0:0:0:0:
284,131,51556,1,8,0:0:0:0:
324,136,51640,1,8,0:0:0:0:
363,133,51725,1,8,0:0:0:0:
402,117,51810,6,0,P|464:160|460:248,1,170,2|8,0:0|0:0,0:0:0:0:
488,336,52318,1,2,0:0:0:0:
280,260,52488,1,2,0:0:0:0:
388,200,52657,1,0,0:0:0:0:
324,336,52827,2,0,L|240:336,1,85,8|0,0:0|0:0,0:0:0:0:
180,204,53166,6,0,P|136:276|56:300,1,170,2|8,0:0|0:0,0:0:0:0:
8,220,53674,1,0,0:0:0:0:
196,340,53844,1,2,0:0:0:0:
57,300,54013,1,2,0:0:0:0:
264,240,54183,2,0,L|272:128,1,85,8|0,0:0|0:0,0:0:0:0:
208,92,54437,1,8,0:0:0:0:
204,88,54522,6,0,B|116:52|116:124|28:84,1,170,2|8,0:0|0:0,0:0:0:0:
296,68,55030,1,0,0:0:0:0:
270,155,55200,2,0,P|320:156|360:128,1,85,2|2,0:0|0:0,0:0:0:0:
512,48,55539,2,0,P|474:29|432:32,1,85,8|0,0:0|0:0,0:0:0:0:
360,172,55878,5,2,0:0:0:0:
512,200,56047,1,0,0:0:0:0:
280,256,56217,1,8,0:0:0:0:
424,128,56386,1,0,0:0:0:0:
512,296,56556,1,2,0:0:0:0:
312,240,56725,1,2,0:0:0:0:
500,72,56895,1,8,0:0:0:0:
348,24,57064,1,0,0:0:0:0:
344,28,57149,1,8,0:0:0:0:
340,32,57234,6,0,B|280:36|280:36|236:60|236:60|160:64,1,170,2|8,0:0|0:0,0:0:0:0:
104,120,57742,1,0,0:0:0:0:
264,176,57912,2,0,P|240:212|188:236,2,85,2|2|8,0:0|0:0|0:0,0:0:0:0:
332,108,58420,1,0,0:0:0:0:
104,120,58590,6,0,P|48:108|8:4,1,170,2|8,0:0|0:0,0:0:0:0:
96,28,59098,1,0,0:0:0:0:
8,192,59268,2,0,L|4:288,1,85,2|2,0:0|0:0,0:0:0:0:
184,352,59607,2,0,L|187:267,1,85,8|0,0:0|0:0,0:0:0:0:
232,192,59861,1,8,0:0:0:0:
236,188,59946,6,0,P|312:168|392:244,1,170,2|8,0:0|0:0,0:0:0:0:
508,132,60454,1,0,0:0:0:0:
512,356,60623,2,0,P|464:352|424:340,1,85,2|2,0:0|0:0,0:0:0:0:
280,268,60962,2,0,P|320:252|368:248,1,85,8|0,0:0|0:0,0:0:0:0:
508,128,61301,5,2,0:0:0:0:
436,68,61471,2,0,B|388:60|388:60|336:68|336:68|276:56,1,152.999995330811,4|0,0:0|0:0,0:0:0:0:
232,120,61810,2,0,P|208:160|260:132,1,152.999995330811,4|0,0:0|0:0,0:0:0:0:
204,44,62149,2,0,P|184:88|120:120,2,101.999996887207,4|2|0,0:0|0:0|0:0,0:0:0:0:
62,123,62657,6,0,L|242:119,1,170,2|8,0:0|0:0,0:0:0:0:
396,216,63166,1,0,0:0:0:0:
460,152,63335,1,2,0:0:0:0:
308,244,63505,2,0,P|332:284|376:308,2,85,2|8|0,0:0|0:0|0:0,0:0:0:0:
332,156,64013,6,0,P|296:208|184:204,1,170,2|8,0:0|0:0,0:0:0:0:
108,248,64522,1,0,0:0:0:0:
36,96,64691,2,0,L|36:12,1,85,2|2,0:0|0:0,0:0:0:0:
216,184,65030,2,0,L|216:269,1,85,8|0,0:0|0:0,0:0:0:0:
256,116,65285,1,8,0:0:0:0:
260,112,65369,6,0,B|320:108|320:108|368:124|368:124|452:116,1,170,2|8,0:0|0:0,0:0:0:0:
508,72,65878,1,0,0:0:0:0:
512,256,66047,1,2,0:0:0:0:
392,204,66217,1,2,0:0:0:0:
500,40,66386,2,0,P|460:20|408:12,1,85,8|0,0:0|0:0,0:0:0:0:
232,112,66725,5,2,0:0:0:0:
288,240,66895,1,2,0:0:0:0:
360,120,67064,1,8,0:0:0:0:
416,248,67234,1,0,0:0:0:0:
256,88,67403,1,2,0:0:0:0:
164,244,67573,1,2,0:0:0:0:
360,120,67742,1,8,0:0:0:0:
268,276,67912,1,2,0:0:0:0:
272,280,67996,1,8,0:0:0:0:
276,284,68081,6,0,L|96:288,1,170,2|8,0:0|0:0,0:0:0:0:
352,324,68590,2,0,P|392:344|440:344,2,85,0|2|2,0:0|0:0|0:0,0:0:0:0:
212,184,69098,1,8,0:0:0:0:
276,284,69268,1,0,0:0:0:0:
428,176,69437,6,0,P|408:104|320:60,1,170,2|8,0:0|0:0,0:0:0:0:
460,36,69946,1,0,0:0:0:0:
276,136,70115,2,0,L|272:248,1,85,2|2,0:0|0:0,0:0:0:0:
116,172,70454,2,0,L|112:60,1,85,8|0,0:0|0:0,0:0:0:0:
52,36,70708,1,8,0:0:0:0:
56,32,70793,6,0,B|116:44|116:44|164:32|164:32|244:32,1,170,2|8,0:0|0:0,0:0:0:0:
404,164,71301,1,0,0:0:0:0:
452,84,71471,1,2,0:0:0:0:
276,136,71640,1,2,0:0:0:0:
432,244,71810,2,0,P|412:284|352:308,1,85,8|0,0:0|0:0,0:0:0:0:
452,84,72149,5,2,0:0:0:0:
364,60,72318,2,0,B|328:76|287:62|287:62|270:102|230:114,1,152.999995330811,4|0,0:0|0:0,0:0:0:0:
184,176,72657,2,0,B|200:220|200:220|156:180|156:180|100:168,1,152.999995330811,4|0,0:0|0:0,0:0:0:0:
44,128,72996,2,0,P|96:128|144:88,2,101.999996887207,4|2|2,0:0|0:0|0:0,0:0:0:0:
72,48,73505,6,0,B|132:44|132:44|180:64|180:64|252:60,1,170,2|8,0:0|0:0,0:0:0:0:
324,20,74013,1,0,0:0:0:0:
432,212,74183,1,2,0:0:0:0:
288,152,74352,1,2,0:0:0:0:
432,16,74522,1,8,0:0:0:0:
400,108,74691,1,0,0:0:0:0:
220,40,74861,5,2,0:0:0:0:
100,176,75030,1,8,0:0:0:0:
116,188,75114,1,8,0:0:0:0:
136,197,75199,1,2,0:0:0:0:
157,199,75284,1,8,0:0:0:0:
178,197,75368,1,8,0:0:0:0:
198,189,75453,1,8,0:0:0:0:
215,177,75539,5,2,0:0:0:0:
236,140,75623,1,8,0:0:0:0:
269,115,75708,1,8,0:0:0:0:
310,104,75793,1,8,0:0:0:0:
352,111,75878,5,2,0:0:0:0:
373,147,75962,1,8,0:0:0:0:
406,172,76047,1,8,0:0:0:0:
447,183,76132,1,8,0:0:0:0:
489,176,76217,6,0,P|456:96|492:4,1,170,2|8,0:0|0:0,0:0:0:0:
304,192,76725,1,0,0:0:0:0:
304,280,76895,2,0,P|360:264|384:232,1,85,2|2,0:0|0:0,0:0:0:0:
304,108,77234,2,0,P|248:124|224:156,1,85,8|0,0:0|0:0,0:0:0:0:
328,308,77573,6,0,P|400:296|480:344,1,170,2|8,0:0|0:0,0:0:0:0:
252,360,78081,2,0,L|152:364,1,85,0|2,0:0|0:0,0:0:0:0:
48,212,78420,1,2,0:0:0:0:
236,276,78590,1,8,0:0:0:0:
160,328,78759,1,0,0:0:0:0:
200,164,78929,6,0,P|160:140|104:144,2,85,2|0|8,0:0|0:0|0:0,0:0:0:0:
280,204,79437,2,0,B|320:212|320:212|388:196,1,85,0|2,0:0|0:0,0:0:0:0:
484,48,79776,1,2,0:0:0:0:
324,120,79946,1,8,0:0:0:0:
392,184,80115,1,0,0:0:0:0:
340,32,80285,5,2,0:0:0:0:
252,64,80454,2,0,L|156:60,1,85,0|8,0:0|0:0,0:0:0:0:
96,200,80793,2,0,P|140:196|180:164,1,85,0|2,0:0|0:0,0:0:0:0:
340,32,81132,2,0,P|384:36|424:68,1,85,2|8,0:0|0:0,0:0:0:0:
108,116,81471,1,0,0:0:0:0:
104,112,81556,1,8,0:0:0:0:
100,108,81640,6,0,P|68:88|40:32,2,85,2|0|8,0:0|0:0|0:0,0:0:0:0:
240,216,82149,2,0,L|348:216,1,85,0|2,0:0|0:0,0:0:0:0:
404,344,82488,1,2,0:0:0:0:
440,160,82657,1,8,0:0:0:0:
484,300,82827,1,0,0:0:0:0:
320,248,82996,6,0,P|296:284|248:304,1,85,2|0,0:0|0:0,0:0:0:0:
240,216,83335,1,8,0:0:0:0:
368,324,83505,1,0,0:0:0:0:
152,352,83674,1,2,0:0:0:0:
224,296,83844,1,2,0:0:0:0:
392,344,84013,2,0,L|488:336,1,85,8|0,0:0|0:0,0:0:0:0:
512,268,84268,1,8,0:0:0:0:
508,264,84352,6,0,P|484:228|484:168,2,85,2|0|8,0:0|0:0|0:0,0:0:0:0:
504,112,84861,2,0,P|464:148|416:156,1,85,0|2,0:0|0:0,0:0:0:0:
220,96,85200,1,2,0:0:0:0:
400,232,85369,1,8,0:0:0:0:
348,108,85539,1,0,0:0:0:0:
168,212,85708,6,0,L|60:212,1,85,2|0,0:0|0:0,0:0:0:0:
8,164,86047,1,8,0:0:0:0:
220,96,86217,1,8,0:0:0:0:
223,116,86301,1,8,0:0:0:0:
226,137,86386,5,2,0:0:0:0:
185,130,86470,1,8,0:0:0:0:
150,106,86555,1,8,0:0:0:0:
127,71,86640,1,8,0:0:0:0:
119,29,86725,5,2,0:0:0:0:
77,33,86809,1,8,0:0:0:0:
40,54,86894,1,8,0:0:0:0:
16,88,86979,1,8,0:0:0:0:
7,129,87063,1,6,0:0:0:0:
256,192,87149,12,0,88759,0:0:0:0:
