osu file format v14

[General]
AudioFilename: audio.mp3
AudioLeadIn: 0
PreviewTime: 51810
Countdown: 0
SampleSet: Soft
StackLeniency: 0.3
Mode: 0
LetterboxInBreaks: 0
WidescreenStoryboard: 1

[Editor]
DistanceSpacing: 0.8
BeatDivisor: 4
GridSize: 4
TimelineZoom: 1.9

[Metadata]
Title:Kuufuku Kara Yarinaose! (TV Size)
TitleUnicode:空腹からやりなおせ!
Artist:petit milady
ArtistUnicode:petit milady
Creator:terratropic
Version:Hard
Source:AKIBA'S STRIP -THE ANIMATION-
Tags:ed ending 竹達彩奈 taketatsu ayana 悠木碧 yuuki aoi
BeatmapID:1413679
BeatmapSetID:668176

[Difficulty]
HPDrainRate:5
CircleSize:3.8
OverallDifficulty:6
ApproachRate:8
SliderMultiplier:1.3
SliderTickRate:1

[Events]
//Background and Video events
Video,-900,"ed10.avi"
0,0,"bg2.jpg",0,0
//Break Periods
//Storyboard Layer 0 (Background)
//Storyboard Layer 1 (Fail)
//Storyboard Layer 2 (Pass)
//Storyboard Layer 3 (Foreground)
//Storyboard Sound Samples

[TimingPoints]
285,338.983050847458,4,2,1,70,1,0
285,-125,4,2,1,70,0,0
9776,-125,4,2,1,80,0,0
11132,-100,4,2,1,90,0,0
21132,-100,4,2,3,90,0,0
21979,-100,4,2,1,90,0,0
32149,-100,4,2,2,90,0,0
32827,-100,4,2,1,90,0,0
43674,-125,4,2,1,80,0,0
46386,-125,4,2,3,80,0,0
48420,-125,4,2,2,80,0,0
51132,-100,4,2,2,90,0,0
51810,-100,4,2,1,90,0,1
61301,-83.3333333333333,4,2,1,90,0,0
61725,-83.3333333333333,4,2,1,40,0,0
61810,-83.3333333333333,4,2,1,90,0,0
62064,-83.3333333333333,4,2,1,40,0,0
62149,-83.3333333333333,4,2,1,90,0,0
62657,-100,4,2,1,90,0,1
72149,-83.3333333333333,4,2,1,90,0,0
72573,-83.3333333333333,4,2,1,40,0,0
72657,-83.3333333333333,4,2,1,90,0,0
72912,-83.3333333333333,4,2,1,40,0,0
72996,-83.3333333333333,4,2,1,90,0,0
73505,-100,4,2,1,90,0,0
74861,-100,4,2,2,90,0,0
76217,-100,4,2,1,90,0,0
86217,-100,4,2,2,90,0,0
87064,-125,4,2,1,70,0,0
87403,-125,4,2,1,60,0,0
87742,-125,4,2,1,50,0,0
88081,-125,4,2,1,40,0,0
88420,-125,4,2,1,30,0,0
88759,-125,4,2,1,20,0,0

[Colours]
Combo1 : 128,128,128
Combo2 : 215,0,0
Combo3 : 253,216,38
Combo4 : 12,6,230
Combo5 : 105,52,52

[HitObjects]
144,276,285,6,0,L|216:272,1,52
272,236,623,2,0,L|376:244,2,104
204,188,1471,6,0,P|216:156|240:136,1,52
303,107,1810,2,0,P|271:71|247:63,1,52
200,24,2149,2,0,L|124:28,1,52
303,107,2488,2,0,P|352:96|392:44,1,104
456,24,2996,6,0,B|404:32|404:32|353:24,2,104
508,88,3844,1,0,0:0:0:0:
472,160,4013,2,0,L|472:224,1,52
512,288,4352,6,0,P|468:316|408:320,1,104
336,344,4861,1,0,0:0:0:0:
272,288,5030,2,0,L|208:288,2,52
296,208,5539,1,0,0:0:0:0:
224,164,5708,6,0,L|152:168,1,52
296,208,6047,2,0,P|272:160|284:108,2,104
172,166,6895,6,0,L|100:170,1,52
4,224,7234,2,0,L|55:221,1,52
132,252,7573,2,0,P|119:274|96:292,1,52
120,168,7912,2,0,P|153:127|221:123,1,104
276,152,8420,6,0,B|352:172|352:172|440:152,1,156
508,176,9098,2,0,P|456:148|436:104,1,104
360,72,9607,1,0,0:0:0:0:
464,32,9776,6,0,L|464:108,1,52,4|0,0:0|0:0,0:0:0:0:
360,124,10115,2,0,L|360:72,1,52,4|0,0:0|0:0,0:0:0:0:
404,196,10454,2,0,L|404:272,1,52,4|2,0:0|0:0,0:0:0:0:
360,320,10793,1,8,0:0:0:0:
360,320,11132,6,0,P|368:264|296:212,1,130,2|8,0:0|0:0,0:0:0:0:
268,144,11640,1,0,0:0:0:0:
232,224,11810,2,0,L|228:304,1,65,2|2,0:0|0:0,0:0:0:0:
184,156,12149,2,0,L|176:84,1,65,8|0,0:0|0:0,0:0:0:0:
240,36,12488,6,0,B|303:13|303:53|367:33,1,130,2|8,0:0|0:0,0:0:0:0:
440,76,12996,1,0,0:0:0:0:
484,148,13166,1,2,0:0:0:0:
468,64,13335,1,2,0:0:0:0:
416,200,13505,2,0,P|380:192|348:168,1,65,8|0,0:0|0:0,0:0:0:0:
336,100,13844,6,0,B|296:120|296:120|272:156|272:156|224:176,1,130,2|8,0:0|0:0,0:0:0:0:
164,216,14352,2,0,L|80:216,2,65,0|2|2,0:0|0:0|0:0,0:0:0:0:
233,172,14861,2,0,P|208:144|176:136,1,65,8|0,0:0|0:0,0:0:0:0:
232,256,15200,6,0,P|272:300|348:300,1,130,2|8,0:0|0:0,0:0:0:0:
400,240,15708,1,0,0:0:0:0:
480,348,15878,2,0,L|420:320,1,65,2|2,0:0|0:0,0:0:0:0:
464,188,16217,2,0,L|464:108,1,65,8|0,0:0|0:0,0:0:0:0:
420,48,16556,6,0,P|360:36|300:80,1,130,2|8,0:0|0:0,0:0:0:0:
224,100,17064,2,0,P|248:136|292:152,1,65,0|2,0:0|0:0,0:0:0:0:
304,71,17403,1,2,0:0:0:0:
176,32,17573,2,0,L|108:36,1,65,8|0,0:0|0:0,0:0:0:0:
32,64,17912,6,0,P|92:84|120:140,1,130,2|8,0:0|0:0,0:0:0:0:
44,184,18420,1,0,0:0:0:0:
8,264,18590,2,0,L|8:340,2,65,2|2|8,0:0|0:0|0:0,0:0:0:0:
120,140,19098,1,0,0:0:0:0:
124,140,19183,1,8,0:0:0:0:
128,140,19268,6,0,B|176:148|176:148|220:140|220:140|280:148,1,130,2|8,0:0|0:0,0:0:0:0:
328,192,19776,1,0,0:0:0:0:
396,100,19946,2,0,P|360:100|324:116,1,65,2|2,0:0|0:0,0:0:0:0:
460,160,20285,2,0,P|478:128|482:89,1,65,8|0,0:0|0:0,0:0:0:0:
396,100,20623,6,0,P|372:164|404:224,1,130,2|8,0:0|0:0,0:0:0:0:
416,300,21132,1,8,0:0:0:0:
348,352,21301,1,8,0:0:0:0:
272,312,21471,1,4,0:0:0:0:
188,328,21640,1,4,0:0:0:0:
120,272,21810,1,4,0:0:0:0:
40,304,21979,6,0,B|32:264|32:264|48:224|48:224|48:172,1,130,2|8,0:0|0:0,0:0:0:0:
104,112,22488,1,0,0:0:0:0:
68,36,22657,2,0,P|104:28|152:44,1,65,2|2,0:0|0:0,0:0:0:0:
104,112,22996,2,0,P|136:129|160:175,1,65,8|0,0:0|0:0,0:0:0:0:
232,116,23335,6,0,P|280:120|340:60,1,130,2|8,0:0|0:0,0:0:0:0:
404,12,23844,1,0,0:0:0:0:
479,54,24013,1,2,0:0:0:0:
463,140,24183,1,2,0:0:0:0:
375,151,24352,2,0,L|368:232,1,65,8|0,0:0|0:0,0:0:0:0:
416,288,24691,6,0,P|360:248|296:256,1,130,2|8,0:0|0:0,0:0:0:0:
232,308,25200,2,0,L|160:304,2,65,0|2|2,0:0|0:0|0:0,0:0:0:0:
216,220,25708,2,0,P|192:196|180:152,1,65,8|0,0:0|0:0,0:0:0:0:
167,304,26047,6,0,B|120:300|120:300|80:312|80:312|24:308,1,130,2|8,0:0|0:0,0:0:0:0:
72,228,26556,1,0,0:0:0:0:
28,156,26725,1,2,0:0:0:0:
56,76,26895,1,2,0:0:0:0:
128,32,27064,2,0,L|216:32,1,65,8|0,0:0|0:0,0:0:0:0:
256,88,27403,6,0,P|316:72|352:16,1,130,2|8,0:0|0:0,0:0:0:0:
424,52,27912,1,0,0:0:0:0:
476,120,28081,2,0,P|444:136|412:136,1,65,2|2,0:0|0:0,0:0:0:0:
380,216,28420,2,0,P|350:196|334:168,1,65,8|0,0:0|0:0,0:0:0:0:
476,120,28759,6,0,L|476:48,2,65,2|0|8,0:0|0:0|0:0,0:0:0:0:
508,204,29268,2,0,L|508:296,1,65,0|2,0:0|0:0,0:0:0:0:
444,336,29607,1,2,0:0:0:0:
360,304,29776,1,8,0:0:0:0:
316,228,29946,1,0,0:0:0:0:
236,264,30115,6,0,P|200:248|152:248,2,65,2|0|8,0:0|0:0|0:0,0:0:0:0:
316,228,30623,2,0,P|352:212|400:212,2,65,0|2|2,0:0|0:0|0:0,0:0:0:0:
180,328,31132,2,0,L|104:328,1,65,8|0,0:0|0:0,0:0:0:0:
28,300,31471,5,2,0:0:0:0:
88,240,31640,1,0,0:0:0:0:
4,216,31810,2,0,P|64:216|112:160,1,130,8|2,0:0|0:0,0:0:0:0:
196,160,32318,2,0,L|200:200,2,32.5,8|8|2,0:0|0:0|0:0,0:0:0:0:
228,80,32657,1,8,0:0:0:0:
228,76,32742,1,8,0:0:0:0:
228,72,32827,6,0,P|312:44|360:80,1,130,2|8,0:0|0:0,0:0:0:0:
432,48,33335,1,0,0:0:0:0:
316,144,33505,2,0,P|344:160|392:160,1,65,2|2,0:0|0:0,0:0:0:0:
456,132,33844,2,0,L|464:52,1,65,8|0,0:0|0:0,0:0:0:0:
376,163,34183,6,0,B|380:200|380:200|396:240|396:240|392:296,1,130,2|8,0:0|0:0,0:0:0:0:
336,352,34691,1,0,0:0:0:0:
256,360,34861,2,0,P|224:340|204:304,1,65,2|2,0:0|0:0,0:0:0:0:
180,236,35200,2,0,P|148:256|128:292,1,65,8|0,0:0|0:0,0:0:0:0:
260,252,35539,6,0,P|212:216|212:144,1,130,2|8,0:0|0:0,0:0:0:0:
280,96,36047,1,0,0:0:0:0:
200,60,36217,1,2,0:0:0:0:
120,24,36386,1,2,0:0:0:0:
40,60,36556,2,0,L|32:136,1,65,8|0,0:0|0:0,0:0:0:0:
72,200,36895,6,0,B|100:264|48:264|80:332,1,130,2|8,0:0|0:0,0:0:0:0:
156,364,37403,2,0,P|164:324|156:284,2,65,0|2|2,0:0|0:0|0:0,0:0:0:0:
232,248,37912,2,0,B|272:256|272:256|348:248,1,97.5,8|8,0:0|0:0,0:0:0:0:
348,224,38251,6,0,P|320:168|244:144,1,130,2|8,0:0|0:0,0:0:0:0:
176,168,38759,1,0,0:0:0:0:
96,132,38929,1,2,0:0:0:0:
56,56,39098,1,2,0:0:0:0:
172,20,39268,2,0,L|260:16,1,65,8|0,0:0|0:0,0:0:0:0:
316,56,39607,6,0,L|468:64,1,130,2|8,0:0|0:0,0:0:0:0:
512,120,40115,1,0,0:0:0:0:
376,180,40285,2,0,P|400:216|436:232,1,65,2|2,0:0|0:0,0:0:0:0:
512,120,40623,2,0,P|479:128|450:162,1,65,8|0,0:0|0:0,0:0:0:0:
418,226,40962,6,0,P|388:280|320:304,2,130,2|8|2,0:0|0:0|0:0,0:0:0:0:
340,188,41810,2,0,L|248:188,1,65,2|8,0:0|0:0,0:0:0:0:
204,140,42149,1,0,0:0:0:0:
128,176,42318,6,0,B|84:172|84:172|44:184|44:184|-4:180,1,130,2|8,0:0|0:0,0:0:0:0:
204,140,42827,2,0,P|184:108|148:92,1,65,0|2,0:0|0:0,0:0:0:0:
128,176,43166,1,2,0:0:0:0:
196,220,43335,2,0,L|268:220,1,65,8|0,0:0|0:0,0:0:0:0:
336,188,43674,6,0,B|384:176|384:200|440:188,1,104,6|0,0:0|0:0,0:0:0:0:
256,192,44098,12,0,46047,0:0:0:0:
232,120,46386,6,0,L|108:124,1,104,2|4,0:0|0:0,0:0:0:0:
56,160,46895,2,0,P|108:168|140:220,1,104,2|8,0:0|0:0,0:0:0:0:
216,244,47403,1,4,0:0:0:0:
216,244,47742,6,0,B|268:256|268:256|324:244,1,104,2|8,0:0|0:0,0:0:0:0:
136,204,48251,1,4,0:0:0:0:
64,256,48420,2,0,L|8:296,2,52,8|8|8,0:0|0:0|0:0,0:0:0:0:
136,204,48929,6,0,L|148:172,2,26,8|8|2,0:0|0:0|0:0,0:0:0:0:
204,264,49268,2,0,L|216:296,2,26,8|8|2,0:0|0:0|0:0,0:0:0:0:
224,176,49607,2,0,L|236:144,2,26,8|8|2,0:0|0:0|0:0,0:0:0:0:
292,236,49946,2,0,L|304:268,2,26,8|8|2,0:0|0:0|0:0,0:0:0:0:
312,148,50285,2,0,L|324:116,2,26,8|8|2,0:0|0:0|0:0,0:0:0:0:
380,208,50624,2,0,L|392:240,2,26,8|8|2,0:0|0:0|0:0,0:0:0:0:
464,280,50962,5,8,0:0:0:0:
464,276,51047,1,8,0:0:0:0:
464,272,51132,2,0,L|464:220,3,32.5,2|8|8|8,0:0|0:0|0:0|0:0,0:0:0:0:
480,212,51471,2,0,L|480:160,3,32.5,2|8|8|8,0:0|0:0|0:0|0:0,0:0:0:0:
500,152,51810,6,0,P|432:132|404:72,1,130,2|8,0:0|0:0,0:0:0:0:
324,56,52318,1,0,0:0:0:0:
252,103,52488,2,0,P|287:135|320:140,1,65,2|2,0:0|0:0,0:0:0:0:
248,16,52827,2,0,L|177:21,1,65,8|0,0:0|0:0,0:0:0:0:
96,48,53166,6,0,P|52:88|56:168,1,130,2|8,0:0|0:0,0:0:0:0:
116,208,53674,1,0,0:0:0:0:
196,184,53844,2,0,L|272:188,1,65,2|2,0:0|0:0,0:0:0:0:
332,232,54183,2,0,L|408:228,1,65,8|0,0:0|0:0,0:0:0:0:
472,280,54522,6,0,B|428:304|428:304|396:328|396:328|348:348,2,130,2|8|2,0:0|0:0|0:0,0:0:0:0:
396,228,55369,1,2,0:0:0:0:
472,188,55539,2,0,P|488:156|488:112,1,65,8|0,0:0|0:0,0:0:0:0:
456,48,55878,5,2,0:0:0:0:
388,100,56047,1,0,0:0:0:0:
308,64,56217,1,8,0:0:0:0:
260,136,56386,1,0,0:0:0:0:
208,36,56556,6,0,L|132:32,1,65,2|2,0:0|0:0,0:0:0:0:
64,72,56895,1,8,0:0:0:0:
20,148,57064,1,0,0:0:0:0:
24,152,57149,1,8,0:0:0:0:
28,156,57234,6,0,P|84:164|144:116,1,130,2|8,0:0|0:0,0:0:0:0:
284,164,57742,1,0,0:0:0:0:
240,236,57912,2,0,P|212:216|200:176,1,65,2|2,0:0|0:0,0:0:0:0:
284,164,58251,1,8,0:0:0:0:
364,196,58420,1,0,0:0:0:0:
448,180,58590,6,0,L|440:316,1,130,2|8,0:0|0:0,0:0:0:0:
368,356,59098,2,0,L|360:272,2,65,0|2|2,0:0|0:0|0:0,0:0:0:0:
284,256,59607,2,0,P|348:264|388:236,1,97.5,8|8,0:0|0:0,0:0:0:0:
361,291,59946,6,0,B|316:296|316:296|280:312|280:312|224:320,1,130,2|8,0:0|0:0,0:0:0:0:
152,348,60454,1,0,0:0:0:0:
96,276,60623,1,2,0:0:0:0:
64,360,60793,1,2,0:0:0:0:
8,288,60962,2,0,P|52:252|68:180,1,130,8|2,0:0|0:0,0:0:0:0:
20,96,61471,6,0,B|76:108|76:108|140:92,1,116.999996429443,4|0,0:0|0:0,0:0:0:0:
124,124,61810,2,0,P|168:136|228:192,1,116.999996429443,4|0,0:0|0:0,0:0:0:0:
252,180,62149,2,0,P|224:128|244:32,1,155.999995239258,4|2,0:0|0:0,0:0:0:0:
328,16,62657,6,0,L|476:24,1,130,2|8,0:0|0:0,0:0:0:0:
488,108,63166,1,0,0:0:0:0:
416,164,63335,2,0,P|391:142|371:117,1,65,2|2,0:0|0:0,0:0:0:0:
500,204,63674,2,0,P|468:240|444:252,1,65,8|0,0:0|0:0,0:0:0:0:
364,236,64013,6,0,P|300:252|248:304,1,130,2|8,0:0|0:0,0:0:0:0:
164,304,64522,1,0,0:0:0:0:
80,276,64691,2,0,L|8:272,1,65,2|2,0:0|0:0,0:0:0:0:
148,216,65030,1,8,0:0:0:0:
92,144,65200,1,0,0:0:0:0:
88,140,65285,1,8,0:0:0:0:
84,136,65369,6,0,B|128:132|128:132|168:136|168:136|224:128,2,130,2|8|2,0:0|0:0|0:0,0:0:0:0:
272,56,66217,1,2,0:0:0:0:
300,148,66386,2,0,P|340:124|356:88,1,65,8|0,0:0|0:0,0:0:0:0:
432,72,66725,5,2,0:0:0:0:
492,140,66895,1,0,0:0:0:0:
448,212,67064,1,8,0:0:0:0:
472,296,67234,1,0,0:0:0:0:
404,352,67403,6,0,L|320:352,1,65,2|2,0:0|0:0,0:0:0:0:
260,316,67742,1,8,0:0:0:0:
224,236,67912,1,0,0:0:0:0:
224,232,67996,1,8,0:0:0:0:
224,228,68081,6,0,B|288:244|288:244|368:228,1,130,2|8,0:0|0:0,0:0:0:0:
424,184,68590,1,0,0:0:0:0:
292,156,68759,2,0,P|304:124|336:88,1,65,2|2,0:0|0:0,0:0:0:0:
404,40,69098,2,0,L|408:112,1,65,8|0,0:0|0:0,0:0:0:0:
296,72,69437,6,0,B|228:100|228:56|156:76,1,130,2|8,0:0|0:0,0:0:0:0:
84,84,69946,2,0,P|96:124|120:144,2,65,0|2|2,0:0|0:0|0:0,0:0:0:0:
200,156,70454,2,0,L|84:168,1,97.5,8|8,0:0|0:0,0:0:0:0:
112,139,70793,6,0,P|48:160|12:216,1,130,2|8,0:0|0:0,0:0:0:0:
80,272,71301,1,0,0:0:0:0:
72,360,71471,1,2,0:0:0:0:
44,284,71640,1,2,0:0:0:0:
152,324,71810,2,0,L|288:328,1,130,8|2,0:0|0:0,0:0:0:0:
364,352,72318,6,0,P|364:296|316:248,1,116.999996429443,4|0,0:0|0:0,0:0:0:0:
316,224,72657,2,0,B|360:232|360:232|396:256|396:256|440:264,1,116.999996429443,4|0,0:0|0:0,0:0:0:0:
440,292,72996,2,0,P|440:228|512:176,1,155.999995239258,4|2,0:0|0:0,0:0:0:0:
512,96,73505,6,0,B|468:96|468:96|428:112|428:112|372:112,1,130,2|8,0:0|0:0,0:0:0:0:
312,72,74013,1,0,0:0:0:0:
240,124,74183,2,0,L|240:192,1,65,2|2,0:0|0:0,0:0:0:0:
160,84,74522,2,0,L|160:19,1,65,8|0,0:0|0:0,0:0:0:0:
240,189,74861,5,2,0:0:0:0:
192,264,75030,1,8,0:0:0:0:
188,268,75115,1,8,0:0:0:0:
184,272,75200,2,0,L|128:280,3,32.5,2|8|8|8,0:0|0:0|0:0|0:0,0:0:0:0:
128,256,75539,2,0,L|72:248,3,32.5,2|8|8|8,0:0|0:0|0:0|0:0,0:0:0:0:
68,268,75878,2,0,L|12:276,3,32.5,2|8|8|8,0:0|0:0|0:0|0:0,0:0:0:0:
12,252,76217,6,0,P|56:212|48:128,1,130,0|8,0:0|0:0,0:0:0:0:
4,80,76725,1,0,0:0:0:0:
116,24,76895,2,0,L|192:20,2,65,2|2|8,0:0|0:0|0:0,0:0:0:0:
256,60,77403,1,0,0:0:0:0:
184,108,77573,6,0,B|216:135|216:135|258:140|258:140|298:166,1,130,2|8,0:0|0:0,0:0:0:0:
364,216,78081,2,0,L|436:192,1,65,0|2,0:0|0:0,0:0:0:0:
484,132,78420,1,2,0:0:0:0:
508,216,78590,2,0,L|504:296,1,65,8|0,0:0|0:0,0:0:0:0:
400,112,78929,6,0,P|372:80|336:64,2,65,2|0|8,0:0|0:0|0:0,0:0:0:0:
320,148,79437,2,0,P|300:172|264:188,1,65,0|2,0:0|0:0,0:0:0:0:
192,156,79776,2,0,L|104:156,1,65,2|8,0:0|0:0,0:0:0:0:
52,200,80115,1,0,0:0:0:0:
16,280,80285,6,0,P|44:288|88:276,2,65,2|0|8,0:0|0:0|0:0,0:0:0:0:
52,200,80793,2,0,P|78:188|104:150,1,65,0|2,0:0|0:0,0:0:0:0:
28,115,81132,2,0,P|40:88|36:43,1,65,2|8,0:0|0:0,0:0:0:0:
156,20,81471,1,0,0:0:0:0:
160,20,81556,1,8,0:0:0:0:
164,20,81640,6,0,B|200:20|200:20|244:40|244:40|308:32,1,130,2|8,0:0|0:0,0:0:0:0:
380,48,82149,2,0,P|328:64|308:88,1,65,0|2,0:0|0:0,0:0:0:0:
380,132,82488,2,0,P|407:149|438:154,1,65,2|8,0:0|0:0,0:0:0:0:
512,116,82827,1,0,0:0:0:0:
416,236,82996,6,0,L|416:308,2,65,2|0|8,0:0|0:0|0:0,0:0:0:0:
336,336,83505,2,0,L|336:271,1,65,0|2,0:0|0:0,0:0:0:0:
260,232,83844,1,2,0:0:0:0:
184,196,84013,2,0,B|140:212|140:212|80:208,1,97.5,8|8,0:0|0:0,0:0:0:0:
56,196,84352,6,0,P|96:164|108:132,2,65,2|0|8,0:0|0:0|0:0,0:0:0:0:
24,116,84861,2,0,L|28:48,1,65,0|2,0:0|0:0,0:0:0:0:
108,20,85200,1,2,0:0:0:0:
184,64,85369,1,8,0:0:0:0:
260,20,85539,1,0,0:0:0:0:
320,112,85708,6,0,P|356:164|420:184,1,130,2|8,0:0|0:0,0:0:0:0:
496,140,86217,1,8,0:0:0:0:
496,136,86301,1,8,0:0:0:0:
496,132,86386,2,0,L|492:88,3,32.5,2|8|8|8,0:0|0:0|0:0|0:0,0:0:0:0:
468,80,86725,2,0,L|472:36,3,32.5,2|8|8|8,0:0|0:0|0:0|0:0,0:0:0:0:
492,24,87064,5,6,0:0:0:0:
256,192,87149,12,0,88759,0:0:0:0:
