osu file format v14

[General]
AudioFilename: audio.mp3
AudioLeadIn: 0
PreviewTime: 51810
Countdown: 0
SampleSet: Soft
StackLeniency: 0.3
Mode: 0
LetterboxInBreaks: 0
WidescreenStoryboard: 1

[Editor]
DistanceSpacing: 1
BeatDivisor: 2
GridSize: 4
TimelineZoom: 1.9

[Metadata]
Title:Kuufuku Kara Yarinaose! (TV Size)
TitleUnicode:空腹からやりなおせ!
Artist:petit milady
ArtistUnicode:petit milady
Creator:terratropic
Version:Easy
Source:AKIBA'S STRIP -THE ANIMATION-
Tags:ed ending 竹達彩奈 taketatsu ayana 悠木碧 yuuki aoi
BeatmapID:1413678
BeatmapSetID:668176

[Difficulty]
HPDrainRate:3
CircleSize:3
OverallDifficulty:2
ApproachRate:3
SliderMultiplier:0.8
SliderTickRate:1

[Events]
//Background and Video events
Video,-900,"ed10.avi"
0,0,"bg2.jpg",0,0
//Break Periods
//Storyboard Layer 0 (Background)
//Storyboard Layer 1 (Fail)
//Storyboard Layer 2 (Pass)
//Storyboard Layer 3 (Foreground)
//Storyboard Sound Samples

[TimingPoints]
285,338.983050847458,4,2,1,70,1,0
285,-100,4,2,1,70,0,0
9776,-100,4,2,1,80,0,0
11132,-100,4,2,1,90,0,0
21132,-100,4,2,3,90,0,0
21979,-100,4,2,1,90,0,0
43674,-100,4,2,1,80,0,0
46386,-100,4,2,3,80,0,0
48420,-100,4,2,2,80,0,0
51132,-100,4,2,2,90,0,0
51810,-100,4,2,1,90,0,1
61301,-100,4,2,1,90,0,0
62657,-100,4,2,1,90,0,1
72149,-100,4,2,1,90,0,0
86217,-100,4,2,2,90,0,0
87064,-100,4,2,1,70,0,0
87403,-100,4,2,1,60,0,0
87742,-100,4,2,1,50,0,0
88081,-100,4,2,1,40,0,0
88420,-100,4,2,1,30,0,0
88759,-100,4,2,1,20,0,0

[Colours]
Combo1 : 128,128,128
Combo2 : 215,0,0
Combo3 : 253,216,38
Combo4 : 12,6,230
Combo5 : 105,52,52

[HitObjects]
184,160,285,6,0,L|272:164,1,80
332,116,962,2,0,L|432:120,1,80
484,156,1640,2,0,P|448:228|364:248,1,160
304,288,2657,1,0,0:0:0:0:
232,256,2996,2,0,B|180:256|180:256|124:276|124:276|60:272,1,160
0,244,4013,1,0,0:0:0:0:
60,192,4352,2,0,P|64:152|96:112,1,80
160,152,5030,2,0,P|196:128|244:116,1,80
296,68,5708,6,0,L|380:72,1,80
428,140,6386,2,0,L|424:220,1,80
348,248,7064,2,0,P|304:192|204:216,1,160
268,268,8081,1,0,0:0:0:0:
212,328,8420,2,0,P|144:348|52:316,1,160
8,256,9437,1,0,0:0:0:0:
36,180,9776,2,0,L|28:88,1,80,4|4,0:0|0:0,0:0:0:0:
68,28,10454,2,0,L|160:28,1,80,4|8,0:0|0:0,0:0:0:0:
208,88,11132,6,0,B|264:84|264:84|308:96|308:96|380:92,1,160,2|2,0:0|0:0,0:0:0:0:
440,128,12149,1,8,0:0:0:0:
484,196,12488,2,0,P|468:224|416:256,1,80,2|8,0:0|0:0,0:0:0:0:
472,320,13166,2,0,P|440:332|380:316,1,80,2|8,0:0|0:0,0:0:0:0:
348,260,13844,6,0,P|268:268|224:360,1,160,2|2,0:0|0:0,0:0:0:0:
152,296,14861,1,8,0:0:0:0:
84,336,15200,2,0,L|0:328,2,80,2|8|2,0:0|0:0|0:0,0:0:0:0:
152,296,16217,1,8,0:0:0:0:
84,256,16556,6,0,P|40:220|56:120,1,160,2|2,0:0|0:0,0:0:0:0:
112,180,17573,1,8,0:0:0:0:
168,124,17912,2,0,P|204:116|248:76,2,80,2|8|2,0:0|0:0|0:0,0:0:0:0:
188,204,18929,1,8,0:0:0:0:
256,252,19268,6,0,B|300:248|336:268|336:268|368:236|420:236,1,160,2|2,0:0|0:0,0:0:0:0:
468,184,20285,1,8,0:0:0:0:
452,104,20623,2,0,P|472:64|504:28,2,80,2|8|0,0:0|0:0|0:0,0:0:0:0:
368,84,21640,1,4,0:0:0:0:
296,120,21979,6,0,P|244:164|144:152,1,160,2|2,0:0|0:0,0:0:0:0:
92,112,22996,1,8,0:0:0:0:
24,152,23335,2,0,P|40:244|100:288,1,160,2|2,0:0|0:0,0:0:0:0:
168,272,24352,1,8,0:0:0:0:
216,208,24691,6,0,B|288:180|288:236|392:200,1,160,2|2,0:0|0:0,0:0:0:0:
416,132,25708,1,8,0:0:0:0:
484,92,26047,2,0,P|520:164|496:252,1,160,2|2,0:0|0:0,0:0:0:0:
468,312,27064,1,8,0:0:0:0:
400,352,27403,6,0,P|352:296|268:264,1,160,2|2,0:0|0:0,0:0:0:0:
208,308,28420,1,8,0:0:0:0:
136,344,28759,2,0,L|24:328,1,80,2|8,0:0|0:0,0:0:0:0:
20,256,29437,2,0,L|112:244,1,80,2|8,0:0|0:0,0:0:0:0:
160,192,30115,6,0,B|164:132|164:132|148:84|148:84|152:20,1,160,2|2,0:0|0:0,0:0:0:0:
232,32,31132,1,8,0:0:0:0:
292,84,31471,2,0,P|320:120|368:132,2,80,2|8|2,0:0|0:0|0:0,0:0:0:0:
364,48,32488,1,2,0:0:0:0:
428,100,32827,6,0,P|424:172|352:212,1,160,2|2,0:0|0:0,0:0:0:0:
284,252,33844,1,8,0:0:0:0:
228,312,34183,2,0,B|144:292|144:348|56:312,1,160,2|2,0:0|0:0,0:0:0:0:
8,268,35200,1,8,0:0:0:0:
0,188,35539,6,0,L|4:92,1,80,2|8,0:0|0:0,0:0:0:0:
64,56,36217,2,0,L|152:52,1,80,2|8,0:0|0:0,0:0:0:0:
204,116,36895,2,0,P|212:200|148:252,1,160,2|2,0:0|0:0,0:0:0:0:
196,320,37912,1,8,0:0:0:0:
268,356,38251,6,0,L|448:344,1,160,2|2,0:0|0:0,0:0:0:0:
492,296,39268,1,8,0:0:0:0:
476,216,39607,2,0,B|396:196|396:196|340:140,1,160,2|2,0:0|0:0,0:0:0:0:
272,180,40623,1,8,0:0:0:0:
200,212,40962,6,0,B|152:216|152:216|100:200|100:200|32:204,1,160,2|2,0:0|0:0,0:0:0:0:
4,132,41979,1,8,0:0:0:0:
56,68,42318,2,0,P|96:52|120:24,2,80,2|8|2,0:0|0:0|0:0,0:0:0:0:
4,132,43335,1,8,0:0:0:0:
42,203,43674,5,6,0:0:0:0:
256,192,43844,12,2,46386,0:0:0:0:
468,272,47742,6,0,P|404:292|344:288,2,120,2|0|0,0:0|0:0|0:0,0:0:0:0:
512,196,49098,6,0,L|504:112,1,80,2|2,0:0|0:0,0:0:0:0:
428,84,49776,2,0,L|420:168,1,80,2|2,0:0|0:0,0:0:0:0:
344,192,50454,2,0,L|336:108,1,80,2|2,0:0|0:0,0:0:0:0:
288,48,51132,1,2,0:0:0:0:
212,16,51471,1,2,0:0:0:0:
140,52,51810,6,0,P|104:112|0:96,1,160,2|2,0:0|0:0,0:0:0:0:
0,192,52827,1,8,0:0:0:0:
16,272,53166,2,0,B|72:268|72:268|116:280|116:280|180:272,1,160,2|2,0:0|0:0,0:0:0:0:
244,308,54183,1,8,0:0:0:0:
316,344,54522,6,0,P|388:324|428:240,1,160,2|2,0:0|0:0,0:0:0:0:
496,208,55539,1,8,0:0:0:0:
424,172,55878,2,0,P|392:152|340:144,1,80,2|8,0:0|0:0,0:0:0:0:
300,80,56556,2,0,P|260:88|227:107,1,80,2|8,0:0|0:0,0:0:0:0:
156,68,57234,6,0,P|100:116|100:200,1,160,2|2,0:0|0:0,0:0:0:0:
176,224,58251,1,8,0:0:0:0:
248,264,58590,2,0,P|180:308|108:272,1,160,2|2,0:0|0:0,0:0:0:0:
36,256,59607,1,8,0:0:0:0:
8,180,59946,6,0,L|16:76,1,80,2|8,0:0|0:0,0:0:0:0:
76,48,60623,2,0,L|172:52,1,80,2|8,0:0|0:0,0:0:0:0:
208,112,61301,6,0,P|228:124|256:132,1,40
288,196,61810,2,0,P|332:204|384:200,1,80
440,236,62488,2,0,P|464:228|488:208,1,40
492,140,62996,6,0,P|512:100|512:60,2,80,8|2|8,0:0|0:0|0:0,0:0:0:0:
432,80,64013,2,0,P|356:96|304:164,1,160,2|2,0:0|0:0,0:0:0:0:
368,212,65030,1,8,0:0:0:0:
396,288,65369,6,0,B|340:296|340:296|292:316|292:316|212:328,1,160,2|2,0:0|0:0,0:0:0:0:
168,360,66386,1,8,0:0:0:0:
100,320,66725,2,0,P|64:312|16:288,2,80,2|8|0,0:0|0:0|0:0,0:0:0:0:
168,280,67742,1,0,0:0:0:0:
132,208,68081,6,0,P|80:160|84:72,1,160,2|2,0:0|0:0,0:0:0:0:
148,32,69098,1,8,0:0:0:0:
228,48,69437,2,0,B|296:28|296:72|404:48,1,160,2|2,0:0|0:0,0:0:0:0:
456,88,70454,1,8,0:0:0:0:
488,160,70793,6,0,P|428:212|348:228,1,160,2|2,0:0|0:0,0:0:0:0:
288,176,71810,1,8,0:0:0:0:
216,140,72149,2,0,L|164:152,1,40
100,168,72657,2,0,P|72:216|64:260,1,80
120,300,73335,2,0,P|136:324|156:344,1,40
220,352,73844,5,8,0:0:0:0:
296,328,74183,2,0,L|388:320,1,80,2|8,0:0|0:0,0:0:0:0:
436,268,74861,2,0,P|456:236|464:180,1,80,2|2,0:0|0:0,0:0:0:0:
416,128,75539,2,0,P|393:94|352:71,1,80,2|2,0:0|0:0,0:0:0:0:
292,116,76217,6,0,B|216:124|216:124|140:84,1,160,2|2,0:0|0:0,0:0:0:0:
68,120,77234,1,8,0:0:0:0:
32,192,77573,2,0,P|96:220|128:304,1,160,2|2,0:0|0:0,0:0:0:0:
204,324,78590,1,8,0:0:0:0:
280,344,78929,6,0,L|448:336,1,160,2|2,0:0|0:0,0:0:0:0:
508,292,79946,1,8,0:0:0:0:
460,228,80285,2,0,P|472:184|496:152,2,80,2|8|2,0:0|0:0|0:0,0:0:0:0:
380,244,81301,1,8,0:0:0:0:
308,208,81640,6,0,P|264:260|160:240,1,160,2|2,0:0|0:0,0:0:0:0:
104,284,82657,1,8,0:0:0:0:
52,224,82996,2,0,B|48:168|48:168|68:120|68:120|72:48,1,160,2|2,0:0|0:0,0:0:0:0:
144,36,84013,1,8,0:0:0:0:
220,68,84352,6,0,B|296:40|296:100|408:68,1,160,2|0,0:0|0:0,0:0:0:0:
444,32,85369,1,8,0:0:0:0:
512,76,85708,2,0,L|504:160,1,80,2|8,0:0|0:0,0:0:0:0:
448,212,86386,2,0,L|368:216,1,80,2|2,0:0|0:0,0:0:0:0:
296,184,87064,5,6,0:0:0:0:
256,192,87149,12,0,88759,0:0:0:0:
