osu file format v14

[General]
AudioFilename: Koi wa Milk Tea.mp3
AudioLeadIn: 0
PreviewTime: 49307
Countdown: 0
SampleSet: Soft
StackLeniency: 0.7
Mode: 0
LetterboxInBreaks: 0
WidescreenStoryboard: 0

[Editor]
Bookmarks: 2832,10824,18569,36151,50168
DistanceSpacing: 1.3
BeatDivisor: 4
GridSize: 8
TimelineZoom: 2.4

[Metadata]
Title:Koi wa Milk Tea
TitleUnicode:恋はみるくてぃ
Artist:petit milady
ArtistUnicode:プチミレディ
Creator:sammy711
Version:Normal
Source:六畳間の侵略者!?
Tags:rokujouma no shinryakusha ending 悠木碧 竹達彩奈 yuuki aoi taketatsu ayana
BeatmapID:488446
BeatmapSetID:206895

[Difficulty]
HPDrainRate:4
CircleSize:3
OverallDifficulty:3.5
ApproachRate:5
SliderMultiplier:1.3
SliderTickRate:1

[Events]
//Background and Video events
0,0,"Korona Sou.JPG",0,0
//Break Periods
//Storyboard Layer 0 (Background)
//Storyboard Layer 1 (Fail)
//Storyboard Layer 2 (Pass)
//Storyboard Layer 3 (Foreground)
//Storyboard Sound Samples

[TimingPoints]
865,491.803278688525,4,2,1,50,1,0
50045,-76.9230769230769,4,2,1,50,0,1
69225,-100,4,2,1,50,0,0
69717,-76.9230769230769,4,2,1,50,0,1
85455,-76.9230769230769,4,2,1,60,0,0

[Colours]
Combo1 : 255,136,136
Combo2 : 142,30,255
Combo3 : 243,188,73
Combo4 : 101,205,214

[HitObjects]
148,85,2832,6,0,P|100:82|52:88,1,97.5,8|8,0:0|0:0,0:0:0:0:
101,183,3569,2,8,P|153:187|192:184,1,65
306,161,4307,1,2,1:0:0:0:
221,276,4799,6,8,P|212:316|233:392,1,97.5,8|8,0:0|0:0,0:0:0:0:
318,324,5537,2,8,P|366:314|406:293,1,65
506,239,6274,1,2,1:0:0:0:
420,124,6766,6,8,P|376:175|365:231,1,97.5,8|8,0:0|0:0,0:0:0:0:
295,121,7504,2,0,L|286:27,1,65,8|8,0:0|0:0,0:0:0:0:
145,55,8241,1,2,1:0:0:0:
207,185,8733,6,0,P|212:226|201:312,2,97.5,8|8|8,0:0|0:0|0:0,0:0:0:0:
256,192,9717,12,4,10701,1:0:0:0:
295,67,11192,5,8,0:0:0:0:
257,190,11684,2,0,P|309:184|399:193,1,130,2|8,1:0|0:0,0:0:0:0:
433,260,12422,1,0,1:0:0:0:
399,337,12668,6,8,L|316:364,1,65,2|0,1:0|0:0,0:0:0:0:
263,314,13160,2,0,L|215:366,1,65,8|0,0:0|0:0,0:0:0:0:
150,312,13651,2,8,B|105:295|103:240|103:240|41:209,1,130,2|8,1:0|0:0,0:0:0:0:
101,144,14389,1,0,0:0:0:0:
166,91,14635,6,0,P|230:109|301:93,1,130,4|8,1:0|0:0,0:0:0:0:
362,52,15373,1,0,0:0:0:0:
439,86,15619,2,0,L|505:155,1,65,2|0,1:0|0:0,0:0:0:0:
420,188,16110,2,0,L|366:274,1,65,8|0,0:0|0:0,0:0:0:0:
256,192,16602,12,4,18569,0:0:0:0:
128,32,19799,6,0,L|110:111,1,65,8|2,1:0|1:0,0:0:0:0:
53,154,20291,1,0,0:0:0:0:
106,219,20537,2,0,P|113:265|110:338,2,97.5,6|2|2,0:0|0:0|0:0,0:0:0:0:
53,154,21520,5,8,0:0:0:0:
219,123,22012,2,0,P|292:101|356:71,1,130,0|8,0:0|1:0,0:0:0:0:
444,210,22996,5,0,0:0:0:0:
412,288,23242,1,0,0:0:0:0:
342,335,23487,2,0,L|263:349,1,65,8|0,0:0|0:0,0:0:0:0:
264,264,23979,2,0,L|343:250,1,65,8|0,1:0|0:0,0:0:0:0:
349,167,24471,2,0,P|388:125|446:100,2,97.5,6|2|2,1:0|0:0|0:0,0:0:0:0:
284,111,25455,6,0,P|220:111|136:99,1,130,8|8,0:0|1:0,0:0:0:0:
56,240,26438,1,8,1:0:0:0:
177,357,26930,1,0,0:0:0:0:
258,335,27176,1,0,0:0:0:0:
339,358,27422,2,0,L|408:330,1,65,8|0,0:0|0:0,0:0:0:0:
379,251,27914,2,0,L|310:279,1,65,8|0,1:0|0:0,0:0:0:0:
244,234,28405,6,0,L|123:224,2,97.5,6|2|2,1:0|0:0|0:0,0:0:0:0:
275,155,29389,2,0,P|364:126|409:127,2,130,8|8|0,0:0|1:0|0:0,0:0:0:0:
123,56,30865,2,0,L|192:12,1,65
233,86,31356,2,0,L|164:130,1,65,8|0,0:0|0:0,0:0:0:0:
106,167,31848,1,8,1:0:0:0:
66,241,32094,1,0,1:0:0:0:
67,325,32340,6,0,P|130:347|190:355,2,97.5,6|2|2,1:0|0:0|0:0,0:0:0:0:
66,241,33324,1,8,0:0:0:0:
144,88,33815,1,8,0:0:0:0:
228,88,34061,1,4,1:0:0:0:
302,47,34307,2,0,P|339:43|383:48,1,65,8|0,0:0|0:0,0:0:0:0:
397,123,34799,2,0,P|359:126|316:122,1,65,8|0,0:0|0:0,0:0:0:0:
338,209,35291,2,0,P|338:285|359:347,1,130,8|8,1:0|0:0,0:0:0:0:
184,344,36274,6,0,P|121:362|48:368,1,130,4|8,1:0|0:0,0:0:0:0:
128,216,37258,2,0,P|190:197|264:192,1,130,2|8,1:0|0:0,0:0:0:0:
338,207,37996,1,0,0:0:0:0:
419,224,38242,2,0,L|411:312,1,65,4|0,1:0|0:0,0:0:0:0:
497,283,38733,2,0,L|505:195,1,65,8|0,0:0|0:0,0:0:0:0:
495,133,39225,6,0,P|428:120|374:91,1,130,2|8,1:0|0:0,0:0:0:0:
307,37,39963,1,0,0:0:0:0:
223,51,40209,2,0,P|173:71|93:84,1,130,4|8,1:0|0:0,0:0:0:0:
56,157,40946,1,0,0:0:0:0:
81,237,41192,2,0,L|46:295,2,65,2|0|8,1:0|0:0|0:0,0:0:0:0:
159,269,41930,1,0,0:0:0:0:
211,335,42176,2,0,P|277:329|351:337,1,130,4|8,1:0|0:0,0:0:0:0:
508,355,43160,6,0,P|490:289|483:200,1,130,2|8,1:0|0:0,0:0:0:0:
481,143,43897,1,0,0:0:0:0:
481,58,44143,2,0,B|449:46|392:68|332:53,1,130,4|8,1:0|0:0,0:0:0:0:
266,54,44881,1,0,0:0:0:0:
183,80,45127,2,0,B|138:103|138:103|116:155|84:176,1,130,2|8,1:0|0:0,0:0:0:0:
68,249,45865,1,0,0:0:0:0:
78,332,46110,6,0,L|161:352,1,65,4|0,1:0|0:0,0:0:0:0:
222,323,46602,2,0,L|301:297,1,65,8|0,0:0|0:0,0:0:0:0:
256,192,47094,12,0,49061,1:0:0:0:
174,100,49553,6,0,L|249:144,1,65,2|2,1:0|1:0,0:0:0:0:
338,110,50045,6,0,L|436:83,1,84.4999961318971,4|0,1:0|0:0,0:0:0:0:
422,197,50537,2,0,L|324:224,1,84.4999961318971,8|0,0:0|0:0,0:0:0:0:
306,324,51028,2,0,P|217:320|130:346,1,168.999992263794,2|8,1:0|0:0,0:0:0:0:
30,339,51766,1,0,0:0:0:0:
58,232,52012,6,0,L|88:126,1,84.4999961318971,4|0,1:0|0:0,0:0:0:0:
193,129,52504,2,0,L|202:251,1,84.4999961318971,8|0,0:0|0:0,0:0:0:0:
299,168,52996,2,0,L|325:68,1,84.4999961318971,2|0,1:0|0:0,0:0:0:0:
418,135,53487,1,8,0:0:0:0:
502,205,53733,1,0,0:0:0:0:
484,313,53979,6,0,P|454:341|406:364,1,84.4999961318971,4|0,1:0|0:0,0:0:0:0:
325,294,54471,2,0,P|355:266|403:243,1,84.4999961318971,8|0,0:0|0:0,0:0:0:0:
419,135,54963,2,0,L|377:17,1,84.4999961318971,2|0,1:0|0:0,0:0:0:0:
288,88,55455,1,8,0:0:0:0:
504,272,55946,2,0,B|512:160|512:160|416:136|416:136|344:216|344:216|336:336,1,422.499980659486
232,344,57422,6,0,L|235:259,1,84.4999961318971,10|2,0:0|0:0,0:0:0:0:
128,288,57914,2,0,B|96:264|72:224|72:224|33:206|-8:144,1,168.999992263794,4|8,1:0|0:0,0:0:0:0:
112,120,58651,1,0,0:0:0:0:
216,80,58897,2,0,L|315:44,1,84.4999961318971,2|0,1:0|0:0,0:0:0:0:
344,152,59389,2,8,L|443:116,1,84.4999961318971,8|0,0:0|0:0,0:0:0:0:
452,234,59881,2,0,B|410:250|410:250|365:310|365:310|309:326,2,168.999992263794,4|8|2,1:0|0:0|1:0,0:0:0:0:
233,259,61356,5,8,0:0:0:0:
154,335,61602,1,0,0:0:0:0:
51,375,61848,2,0,P|76:291|83:207,1,168.999992263794,4|8,1:0|0:0,0:0:0:0:
265,94,62832,2,0,P|239:177|233:262,1,168.999992263794,2|8,1:0|0:0,0:0:0:0:
278,358,63569,1,0,0:0:0:0:
387,368,63815,6,0,L|486:384,1,84.4999961318971,4|0,1:0|0:0,0:0:0:0:
437,276,64307,2,0,L|338:260,1,84.4999961318971,8|0,0:0|0:0,0:0:0:0:
383,168,64799,2,0,P|432:108|525:91,1,168.999992263794,2|8,1:0|0:0,0:0:0:0:
491,200,65537,1,0,0:0:0:0:
383,167,65783,6,0,P|317:151|236:155,2,126.749994197846,8|8|8,0:0|0:0|0:0,0:0:0:0:
337,267,66766,2,0,P|271:261|195:242,2,126.749994197846,8|8|8,0:0|0:0|0:0,0:0:0:0:
291,367,67750,2,0,P|225:351|144:355,2,126.749994197846,8|8|8,0:0|0:0|0:0,0:0:0:0:
400,363,68733,2,0,L|497:331,1,84.4999961318971,8|0,0:0|0:0,0:0:0:0:
500,227,69225,6,0,L|422:252,1,65,10|2,0:0|0:0,0:0:0:0:
403,142,69717,6,0,P|358:135|295:143,1,84.4999961318971,4|0,1:0|0:0,0:0:0:0:
283,33,70209,2,0,P|328:40|391:32,1,84.4999961318971,8|0,0:0|0:0,0:0:0:0:
319,138,70701,2,0,P|251:183|170:166,1,168.999992263794,2|8,1:0|0:0,0:0:0:0:
111,73,71438,1,0,0:0:0:0:
47,162,71684,6,0,L|63:282,1,84.4999961318971,4|0,1:0|0:0,0:0:0:0:
2,341,72176,2,0,P|48:353|116:361,1,84.4999961318971,8|0,0:0|0:0,0:0:0:0:
170,288,72668,2,0,P|216:275|284:268,1,84.4999961318971,2|0,1:0|0:0,0:0:0:0:
362,265,73160,1,8,0:0:0:0:
469,286,73405,1,0,0:0:0:0:
441,179,73651,6,0,P|468:153|510:123,1,84.4999961318971,4|0,1:0|0:0,0:0:0:0:
440,36,74143,2,0,P|413:62|371:92,1,84.4999961318971,8|0,0:0|0:0,0:0:0:0:
264,86,74635,2,0,L|268:198,1,84.4999961318971,2|0,1:0|0:0,0:0:0:0:
156,165,75127,1,8,0:0:0:0:
304,328,75619,6,0,B|361:285|424:216|424:216|405:175|424:136|424:136|352:112|272:40,1,422.499980659486
208,136,77094,6,0,L|166:224,1,84.4999961318971,10|2,0:0|0:0,0:0:0:0:
64,240,77586,2,0,P|131:318|209:310,1,168.999992263794,4|8,1:0|0:0,0:0:0:0:
288,368,78324,1,0,0:0:0:0:
364,284,78569,2,0,L|373:173,1,84.4999961318971,2|0,1:0|0:0,0:0:0:0:
267,162,79061,2,0,L|258:273,1,84.4999961318971,8|0,0:0|0:0,0:0:0:0:
158,226,79553,2,0,B|118:174|118:174|137:109|97:57,2,168.999992263794,4|8|2,1:0|0:0|1:0,0:0:0:0:
320,77,81028,5,8,0:0:0:0:
432,72,81274,1,0,0:0:0:0:
462,178,81520,2,0,L|501:365,1,168.999992263794,4|8,1:0|0:0,0:0:0:0:
343,184,82504,2,0,L|382:371,1,168.999992263794,2|8,1:0|0:0,0:0:0:0:
268,332,83242,1,0,0:0:0:0:
159,349,83487,6,0,L|72:365,1,84.4999961318971,4|0,1:0|0:0,0:0:0:0:
95,253,83979,2,0,L|8:269,1,84.4999961318971,8|0,0:0|0:0,0:0:0:0:
28,159,84471,2,0,L|186:131,1,126.749994197846,2|0,1:0|0:0,0:0:0:0:
256,192,85455,12,4,87422,1:0:0:0:
