osu file format v14

[General]
AudioFilename: Koi wa Milk Tea.mp3
AudioLeadIn: 0
PreviewTime: 49307
Countdown: 0
SampleSet: Soft
StackLeniency: 0.7
Mode: 0
LetterboxInBreaks: 0
WidescreenStoryboard: 1

[Editor]
Bookmarks: 2832,10578,10824,18569,36151,50168
DistanceSpacing: 0.7
BeatDivisor: 4
GridSize: 32
TimelineZoom: 2.4

[Metadata]
Title:Koi wa Milk Tea
TitleUnicode:恋はみるくてぃ
Artist:petit milady
ArtistUnicode:プチミレディ
Creator:sammy711
Version:Insane
Source:六畳間の侵略者!?
Tags:rokujouma no shinryakusha ending 悠木碧 竹達彩奈 yuuki aoi taketatsu ayana
BeatmapID:494426
BeatmapSetID:206895

[Difficulty]
HPDrainRate:6
CircleSize:4
OverallDifficulty:7
ApproachRate:7.8
SliderMultiplier:2
SliderTickRate:1

[Events]
//Background and Video events
0,0,"Korona Sou.JPG",0,0
//Break Periods
//Storyboard Layer 0 (Background)
//Storyboard Layer 1 (Fail)
//Storyboard Layer 2 (Pass)
//Storyboard Layer 3 (Foreground)
//Storyboard Sound Samples

[TimingPoints]
865,491.803278688525,4,2,1,50,1,0
10701,-100,4,2,1,50,0,0
50045,-100,4,2,1,50,0,1
69225,-100,4,2,1,50,0,0
69717,-100,4,2,1,50,0,1
85455,-100,4,2,1,60,0,0

[Colours]
Combo1 : 255,136,136
Combo2 : 142,30,255
Combo3 : 243,188,73
Combo4 : 101,205,214

[HitObjects]
27,70,2832,6,0,P|80:63|176:17,2,150,8|8|8,0:0|0:0|0:0,0:0:0:0:
118,158,3815,2,0,P|115:200|95:260,1,100,8|0,0:0|0:0,0:0:0:0:
225,281,4307,1,2,1:0:0:0:
334,210,4553,1,2,1:0:0:0:
463,199,4799,6,0,P|448:245|382:332,2,150,8|8|8,0:0|0:0|0:0,0:0:0:0:
450,31,5782,1,8,0:0:0:0:
450,31,5905,1,0,0:0:0:0:
450,31,6028,1,0,0:0:0:0:
249,85,6274,1,2,1:0:0:0:
299,231,6520,1,2,1:0:0:0:
164,300,6766,6,0,P|115:290|-5:320,2,150,8|8|8,0:0|0:0|0:0,0:0:0:0:
37,113,7750,2,0,P|66:159|100:197,1,100,8|0,0:0|0:0,0:0:0:0:
154,23,8242,2,0,P|111:18|49:17,1,100,2|2,0:0|0:0,0:0:0:0:
197,118,8733,6,0,P|272:122|376:108,2,150,8|8|8,0:0|0:0|0:0,0:0:0:0:
274,276,9717,1,8,1:0:0:0:
274,276,9881,1,8,1:0:0:0:
274,276,10045,1,8,1:0:0:0:
273,275,10209,2,0,P|307:313|335:354,1,100,8|0,0:0|0:0,0:0:0:0:
414,278,10701,6,0,P|428:172|446:119,1,150,4|0,1:0|0:0,0:0:0:0:
441,131,11192,1,8,0:0:0:0:
346,46,11438,1,0,0:0:0:0:
346,46,11561,1,0,0:0:0:0:
346,46,11684,2,0,P|293:37|239:15,1,100,2|0,0:0|0:0,0:0:0:0:
215,147,12176,1,8,0:0:0:0:
111,31,12422,1,0,0:0:0:0:
88,165,12668,6,0,P|96:220|97:333,1,150,2|0,0:0|0:0,0:0:0:0:
98,314,13160,1,8,0:0:0:0:
218,334,13405,1,0,0:0:0:0:
218,334,13528,1,0,0:0:0:0:
218,334,13651,2,0,P|263:329|328:330,1,100,2|0,0:0|0:0,0:0:0:0:
449,305,14143,1,8,0:0:0:0:
450,270,14266,1,0,0:0:0:0:
462,237,14389,1,0,0:0:0:0:
478,206,14512,1,0,0:0:0:0:
495,175,14635,6,0,P|507:128|511:57,1,100,2|0,0:0|0:0,0:0:0:0:
383,139,15004,1,0,0:0:0:0:
381,145,15127,2,0,P|339:169|266:177,1,100,8|0,0:0|0:0,0:0:0:0:
191,238,15496,1,0,0:0:0:0:
191,238,15619,2,0,P|211:281|212:355,1,100,2|0,0:0|0:0,0:0:0:0:
15,281,16110,2,0,P|58:301|132:302,1,100,10|0,0:0|0:0,0:0:0:0:
91,201,16602,6,0,B|78:149|78:149|39:117|39:57,1,150,2|0,0:0|0:0,0:0:0:0:
51,29,17094,1,8,0:0:0:0:
264,153,17340,1,0,0:0:0:0:
471,48,17586,1,4,1:0:0:0:
471,48,18078,5,2,1:0:0:0:
463,82,18201,1,2,1:0:0:0:
465,116,18324,1,2,1:0:0:0:
474,149,18446,1,2,1:0:0:0:
475,183,18569,6,0,L|455:283,1,100,4|0,0:0|0:0,0:0:0:0:
363,343,19061,1,0,0:0:0:0:
330,237,19307,1,0,0:0:0:0:
235,292,19553,2,0,P|185:306|113:306,1,100,0|8,0:0|1:0,0:0:0:0:
102,302,19922,1,8,1:0:0:0:
75,278,20045,2,0,P|60:229|16:169,1,100,8|0,1:0|0:0,0:0:0:0:
169,70,20537,6,0,P|96:86|23:71,2,150,4|2|2,1:0|0:0|0:0,0:0:0:0:
280,25,21520,1,8,0:0:0:0:
374,99,21766,1,0,0:0:0:0:
385,131,21889,1,0,0:0:0:0:
385,166,22012,2,0,P|369:207|336:276,2,100,8|8|8,1:0|0:0|1:0,0:0:0:0:
31,285,22996,5,0,0:0:0:0:
28,154,23242,1,0,0:0:0:0:
256,278,23487,1,8,0:0:0:0:
154,95,23733,1,0,0:0:0:0:
123,206,23979,2,0,P|181:204|235:182,1,100,8|0,1:0|0:0,0:0:0:0:
306,106,24471,6,0,P|363:105|489:131,2,150,4|2|2,1:0|0:0|0:0,0:0:0:0:
374,308,25455,2,0,P|365:246|370:206,1,100,8|0,0:0|0:0,0:0:0:0:
480,315,25946,1,8,1:0:0:0:
269,355,26192,1,8,0:0:0:0:
211,257,26438,2,0,P|180:218|140:185,1,100,8|0,1:0|0:0,0:0:0:0:
91,19,26930,5,0,0:0:0:0:
31,136,27176,1,0,0:0:0:0:
303,2,27422,1,8,0:0:0:0:
407,192,27668,1,0,0:0:0:0:
298,107,27914,2,0,L|252:91,1,50,8|0,1:0|0:0,0:0:0:0:
208,189,28160,2,0,L|188:237,1,50
332,274,28405,6,0,L|493:299,2,150,4|2|2,1:0|0:0|0:0,0:0:0:0:
179,370,29389,2,0,P|228:369|278:363,1,100,8|0,0:0|0:0,0:0:0:0:
331,273,29881,1,8,1:0:0:0:
248,102,30127,1,8,0:0:0:0:
97,237,30373,6,0,P|146:236|196:230,1,100,8|0,1:0|0:0,0:0:0:0:
248,102,30865,1,0,0:0:0:0:
331,273,31110,1,0,0:0:0:0:
196,230,31356,1,8,0:0:0:0:
386,146,31602,1,0,0:0:0:0:
466,266,31848,2,0,L|488:333,1,50,8|0,1:0|0:0,0:0:0:0:
361,313,32094,2,0,L|337:264,1,50
386,146,32340,6,0,P|330:143|240:94,2,150,4|2|2,1:0|0:0|0:0,0:0:0:0:
345,32,33324,1,8,0:0:0:0:
471,60,33569,1,0,0:0:0:0:
339,268,33815,1,8,0:0:0:0:
161,65,34061,1,0,0:0:0:0:
21,165,34307,6,0,L|10:223,1,50,8|0,0:0|0:0,0:0:0:0:
92,311,34553,2,0,L|103:253,1,50,8|0,0:0|0:0,0:0:0:0:
212,224,34799,2,0,L|201:282,1,50,8|0,0:0|0:0,0:0:0:0:
283,370,35045,2,0,L|294:312,1,50,8|0,0:0|0:0,0:0:0:0:
331,217,35291,2,0,P|363:192|409:167,2,66.6666666666667,8|8|8,1:0|1:0|1:0,0:0:0:0:
264,132,35783,2,0,P|231:107|165:82,1,100,8|0,0:0|0:0,0:0:0:0:
334,64,36274,6,0,P|388:61|445:46,1,100,4|0,1:0|0:0,0:0:0:0:
467,52,36643,1,0,0:0:0:0:
494,74,36766,2,0,L|517:161,1,50,8|0,0:0|0:0,0:0:0:0:
467,208,37012,2,0,L|490:295,1,50
449,335,37258,1,2,1:0:0:0:
309,193,37504,1,0,0:0:0:0:
339,308,37750,1,8,0:0:0:0:
227,333,37996,1,0,0:0:0:0:
201,224,38242,6,0,P|191:189|155:122,1,100,4|0,1:0|0:0,0:0:0:0:
162,132,38610,1,0,0:0:0:0:
162,132,38733,1,8,0:0:0:0:
81,67,38979,1,0,0:0:0:0:
80,200,39225,2,0,L|33:218,1,50,2|0,1:0|0:0,0:0:0:0:
21,322,39471,2,0,L|68:304,1,50
201,365,39717,1,8,0:0:0:0:
198,234,39963,1,2,0:0:0:0:
198,234,40086,1,0,0:0:0:0:
201,240,40209,5,4,0:0:0:0:
310,310,40455,1,0,0:0:0:0:
310,310,40578,1,0,0:0:0:0:
310,310,40701,1,8,0:0:0:0:
444,322,40946,1,0,0:0:0:0:
444,322,41069,1,0,0:0:0:0:
444,322,41192,2,0,P|431:254|436:192,1,100,2|0,1:0|0:0,0:0:0:0:
472,120,41684,1,8,0:0:0:0:
402,34,41930,1,0,0:0:0:0:
259,142,42176,6,0,P|309:143|359:135,1,100,4|0,1:0|0:0,0:0:0:0:
358,135,42545,1,0,0:0:0:0:
358,135,42668,1,8,0:0:0:0:
193,50,42914,1,0,0:0:0:0:
179,218,43160,1,2,1:0:0:0:
183,252,43283,1,0,0:0:0:0:
182,286,43405,1,0,0:0:0:0:
163,315,43528,1,0,0:0:0:0:
131,329,43651,2,0,P|78:322|15:326,1,100,8|0,0:0|0:0,0:0:0:0:
74,219,44143,6,0,P|84:170|90:104,1,100,4|0,1:0|0:0,0:0:0:0:
108,90,44512,1,0,0:0:0:0:
134,67,44635,2,0,P|180:65|257:43,1,100,8|0,0:0|0:0,0:0:0:0:
267,48,45004,1,0,0:0:0:0:
299,35,45127,2,0,L|308:98,1,50,0|0,1:0|0:0,0:0:0:0:
361,175,45373,2,0,L|297:182,1,50,0|0,0:0|0:0,0:0:0:0:
426,85,45619,6,0,L|467:184,1,100,8|0,0:0|0:0,0:0:0:0:
426,280,45987,1,0,0:0:0:0:
426,280,46110,2,0,L|314:342,1,100,4|0,1:0|0:0,0:0:0:0:
314,224,46479,1,0,0:0:0:0:
296,212,46602,2,0,B|261:237|224:246|224:246|248:315|206:390,1,200,8|4,2:0|2:0,2:0:0:0:
256,192,47217,12,4,48078,1:0:0:0:
256,192,48201,12,8,49061,1:0:0:0:
140,63,49553,5,2,1:0:0:0:
6,132,49799,1,2,1:0:0:0:
60,271,50045,6,0,P|109:272|191:260,1,100,4|0,1:0|0:0,0:0:0:0:
207,166,50537,2,0,P|157:164|76:177,1,100,8|0,0:0|0:0,0:0:0:0:
318,334,51028,5,2,1:0:0:0:
436,291,51274,1,0,0:0:0:0:
399,128,51520,1,8,0:0:0:0:
314,218,51766,1,0,0:0:0:0:
436,291,52012,5,4,1:0:0:0:
499,190,52258,1,0,0:0:0:0:
499,190,52381,1,0,0:0:0:0:
499,190,52504,1,8,0:0:0:0:
436,291,52750,1,0,0:0:0:0:
319,333,52996,6,0,P|276:315|211:310,1,100,2|0,1:0|0:0,0:0:0:0:
45,263,53487,1,8,0:0:0:0:
30,231,53610,1,0,0:0:0:0:
30,195,53733,1,0,0:0:0:0:
41,161,53856,1,0,0:0:0:0:
62,133,53979,6,0,P|110:116|182:102,1,100,4|0,1:0|0:0,0:0:0:0:
254,37,54471,2,0,P|266:86|268:136,1,100,8|0,0:0|0:0,0:0:0:0:
394,166,54963,6,0,L|487:141,1,50,2|0,1:0|0:0,0:0:0:0:
509,253,55209,2,0,L|460:265,1,50
333,361,55455,1,8,0:0:0:0:
333,361,55946,5,8,0:0:0:0:
234,379,56110,1,8,0:0:0:0:
138,349,56274,1,8,0:0:0:0:
259,234,56438,1,8,0:0:0:0:
160,216,56602,1,8,0:0:0:0:
64,246,56766,1,8,0:0:0:0:
90,113,56930,6,0,L|76:58,1,33.3333333333333
173,76,57094,2,0,L|176:17,1,33.3333333333333
268,72,57258,2,0,L|287:13,1,33.3333333333333
355,100,57422,2,0,P|413:133|480:146,1,100,8|0,0:0|0:0,0:0:0:0:
334,362,57914,6,0,B|389:301|389:301|464:289|498:236,1,200,4|8,1:0|0:0,0:0:0:0:
445,35,58651,1,0,0:0:0:0:
355,100,58897,6,0,P|413:133|480:146,1,100,2|0,1:0|0:0,0:0:0:0:
325,201,59389,1,8,0:0:0:0:
252,64,59635,1,0,0:0:0:0:
82,215,59881,6,0,L|219:185,1,100,4|0,1:0|0:0,0:0:0:0:
213,185,60250,1,0,0:0:0:0:
240,163,60373,1,8,0:0:0:0:
261,135,60496,1,0,0:0:0:0:
261,99,60619,1,0,0:0:0:0:
252,64,60742,1,0,0:0:0:0:
229,37,60865,6,0,L|135:26,1,50,2|0,1:0|0:0,0:0:0:0:
81,103,61110,2,0,L|131:109,1,50
175,285,61356,1,8,0:0:0:0:
310,240,61602,1,0,0:0:0:0:
427,295,61848,5,4,1:0:0:0:
389,129,62094,1,0,0:0:0:0:
389,129,62217,1,0,0:0:0:0:
389,129,62340,1,8,0:0:0:0:
218,124,62586,1,0,0:0:0:0:
175,285,62832,6,0,P|123:301|42:309,1,100,2|0,1:0|0:0,0:0:0:0:
42,306,63201,1,0,0:0:0:0:
14,283,63324,1,8,0:0:0:0:
10,248,63446,1,0,0:0:0:0:
17,213,63569,1,0,0:0:0:0:
39,186,63692,1,0,0:0:0:0:
70,171,63815,6,0,L|181:156,1,100,4|0,1:0|0:0,0:0:0:0:
125,61,64307,2,0,L|14:76,1,100,8|0,0:0|0:0,0:0:0:0:
276,126,64799,6,0,P|348:86|464:140,1,200,2|8,1:0|0:0,0:0:0:0:
509,263,65537,1,0,0:0:0:0:
390,355,65783,6,0,P|340:359|234:355,2,150,4|8|8,1:0|0:0|0:0,0:0:0:0:
181,242,66766,2,0,P|230:237|337:242,2,150,8|8|8,0:0|0:0|0:0,0:0:0:0:
48,313,67750,6,0,P|50:238|31:145,2,150,8|8|8,0:0|0:0|0:0,0:0:0:0:
161,126,68733,2,0,P|234:114|333:79,1,150,8|0,0:0|0:0,0:0:0:0:
306,90,69225,1,10,0:0:0:0:
111,20,69471,1,2,0:0:0:0:
149,276,69717,6,0,P|194:272|267:252,1,100,4|0,1:0|0:0,0:0:0:0:
391,215,70209,1,8,0:0:0:0:
307,90,70455,1,0,0:0:0:0:
349,322,70701,6,0,L|485:357,1,100,2|0,1:0|0:0,0:0:0:0:
416,118,71192,2,0,L|381:254,1,100,8|0,0:0|0:0,0:0:0:0:
307,90,71684,5,4,1:0:0:0:
231,174,71930,2,0,L|212:104,1,50
166,37,72176,1,8,0:0:0:0:
143,63,72299,1,0,0:0:0:0:
122,91,72422,1,0,0:0:0:0:
120,125,72545,1,0,0:0:0:0:
118,159,72668,6,0,L|114:248,1,50,2|0,1:0|0:0,0:0:0:0:
32,256,72914,2,0,L|15:208,1,50
29,70,73160,1,8,0:0:0:0:
126,376,73405,1,0,0:0:0:0:
235,157,73651,5,4,1:0:0:0:
293,357,73897,1,0,0:0:0:0:
293,357,74020,1,0,0:0:0:0:
293,357,74143,1,8,0:0:0:0:
428,237,74389,1,0,0:0:0:0:
452,328,74635,1,0,0:0:0:0:
499,122,74881,5,0,0:0:0:0:
499,122,75004,1,0,0:0:0:0:
499,122,75127,2,0,P|448:133|383:131,1,100,8|0,0:0|0:0,0:0:0:0:
272,261,75619,5,8,0:0:0:0:
186,313,75783,1,8,0:0:0:0:
175,214,75946,1,8,0:0:0:0:
348,111,76110,1,8,0:0:0:0:
262,163,76274,1,8,0:0:0:0:
251,64,76437,1,8,0:0:0:0:
161,110,76602,6,0,L|107:137,1,33.3333333333333
95,196,76766,2,0,L|50:187,1,33.3333333333333
25,263,76930,2,0,L|-7:236,1,33.3333333333333
25,43,77094,2,0,P|73:32|123:31,1,100,8|0,0:0|0:0,0:0:0:0:
343,106,77463,1,0,0:0:0:0:
348,111,77586,6,0,P|383:186|423:226,1,100,4|0,1:0|0:0,1:0:0:0:
461,111,78078,1,8,0:0:0:0:
424,303,78324,1,0,0:0:0:0:
274,313,78569,2,0,P|218:323|161:341,1,100,2|0,0:0|0:0,0:0:0:0:
98,200,79061,2,0,P|153:189|211:172,1,100,8|0,0:0|0:0,0:0:0:0:
224,29,79553,5,4,1:0:0:0:
77,63,79799,1,0,0:0:0:0:
77,63,79922,1,0,0:0:0:0:
77,63,80045,2,0,P|48:107|4:141,1,100,8|0,0:0|0:0,0:0:0:0:
229,174,80537,5,2,1:0:0:0:
46,262,80783,1,0,0:0:0:0:
148,341,81028,2,0,P|200:343|252:365,1,100,8|0,0:0|0:0,0:0:0:0:
343,372,81520,5,4,1:0:0:0:
348,242,81766,1,0,0:0:0:0:
348,242,81889,1,0,0:0:0:0:
348,242,82012,1,8,0:0:0:0:
458,310,82258,1,0,0:0:0:0:
456,179,82504,5,2,1:0:0:0:
426,159,82627,1,0,0:0:0:0:
415,125,82750,1,0,0:0:0:0:
419,90,82873,1,0,0:0:0:0:
433,57,82996,2,0,L|320:30,1,100,8|0,0:0|0:0,0:0:0:0:
89,124,83487,6,0,P|192:155|283:118,1,200,4|8,1:0|0:0,0:0:0:0:
411,267,84225,1,0,0:0:0:0:
28,318,84471,1,2,1:0:0:0:
256,192,85455,12,4,87422,1:0:0:0:
