osu file format v14

[General]
AudioFilename: Koi wa Milk Tea.mp3
AudioLeadIn: 0
PreviewTime: 49307
Countdown: 0
SampleSet: Soft
StackLeniency: 0.7
Mode: 0
LetterboxInBreaks: 0
WidescreenStoryboard: 0

[Editor]
Bookmarks: 2832,10824,18569,36151,50168
DistanceSpacing: 1.2
BeatDivisor: 4
GridSize: 8
TimelineZoom: 6.099997

[Metadata]
Title:Koi wa Milk Tea
TitleUnicode:恋はみるくてぃ
Artist:petit milady
ArtistUnicode:プチミレディ
Creator:sammy711
Version:Hard
Source:六畳間の侵略者!?
Tags:rokujouma no shinryakusha ending 悠木碧 竹達彩奈 yuuki aoi taketatsu ayana
BeatmapID:488170
BeatmapSetID:206895

[Difficulty]
HPDrainRate:5
CircleSize:4
OverallDifficulty:6
ApproachRate:6
SliderMultiplier:1.5
SliderTickRate:1

[Events]
//Background and Video events
0,0,"Korona Sou.JPG",0,0
//Break Periods
//Storyboard Layer 0 (Background)
//Storyboard Layer 1 (Fail)
//Storyboard Layer 2 (Pass)
//Storyboard Layer 3 (Foreground)
//Storyboard Sound Samples

[TimingPoints]
865,491.803278688525,4,2,1,50,1,0
50045,-76.9230769230769,4,2,1,50,0,1
69225,-76.9230769230769,4,2,1,50,0,0
69717,-76.9230769230769,4,2,1,50,0,1
85455,-76.9230769230769,4,2,1,60,0,0

[Colours]
Combo1 : 255,136,136
Combo2 : 142,30,255
Combo3 : 243,188,73
Combo4 : 101,205,214

[HitObjects]
44,57,2832,6,0,P|100:53|161:69,2,112.5,8|8|8,0:0|0:0|0:0,0:0:0:0:
96,144,3815,2,0,P|117:220|51:281,1,150,8|2,0:0|1:0,0:0:0:0:
32,360,4553,1,2,1:0:0:0:
128,344,4799,6,0,P|192:336|240:336,2,112.5,8|8|8,0:0|0:0|0:0,0:0:0:0:
32,360,5783,1,8,0:0:0:0:
8,168,6274,1,2,1:0:0:0:
200,192,6766,6,0,P|262:191|336:176,2,112.5,8|8|8,0:0|0:0|0:0,0:0:0:0:
232,104,7750,2,0,P|189:95|80:112,1,150,8|2,0:0|1:0,0:0:0:0:
8,168,8487,1,2,1:0:0:0:
32,264,8733,6,0,L|136:280,1,75,8|0,0:0|0:0,0:0:0:0:
128,320,9102,2,8,L|264:304,1,112.5
328,352,9717,2,0,L|408:368,2,50,8|8|8,1:0|1:0|1:0,0:0:0:0:
352,296,10209,6,0,B|374:269|368:192|368:192|408:176,1,150,0|4,0:0|1:0,0:0:0:0:
432,72,10946,2,0,L|448:16,2,37.5,0|8|0,0:0|0:0|0:0,0:0:0:0:
328,48,11438,1,8,0:0:0:0:
256,128,11684,2,0,P|190:140|96:120,1,150,8|2,0:0|1:0,0:0:0:0:
16,168,12422,1,2,1:0:0:0:
24,272,12668,6,0,P|80:288|144:360,1,150,8|8,0:0|0:0,0:0:0:0:
224,296,13405,1,8,0:0:0:0:
321,337,13651,2,0,L|377:329,2,37.5,8|0|2,0:0|0:0|1:0,0:0:0:0:
387,255,14143,2,0,L|435:231,2,37.5,2|0|0,1:0|0:0|0:0,0:0:0:0:
384,149,14635,5,8,0:0:0:0:
288,192,14881,2,0,L|256:232,2,37.5,0|8|0,0:0|0:0|0:0,0:0:0:0:
232,104,15373,1,8,0:0:0:0:
136,56,15619,2,8,B|88:80|88:80|48:144|104:192,1,150,8|2,0:0|1:0,0:0:0:0:
24,256,16356,1,2,1:0:0:0:
104,304,16602,6,0,B|176:296|203:306|203:306|264:288,1,150,8|8,0:0|0:0,0:0:0:0:
336,352,17340,1,8,0:0:0:0:
440,336,17586,1,8,0:0:0:0:
456,304,17709,1,0,0:0:0:0:
464,264,17832,1,0,0:0:0:0:
429,166,18078,6,0,L|397:102,4,37.5,0|0|0|0|8,0:0|0:0|0:0|0:0|0:0,0:0:0:0:
429,166,19799,5,8,1:0:0:0:
429,166,19922,1,8,1:0:0:0:
429,166,20045,2,0,P|383:162|325:174,1,75,8|0,0:0|0:0,0:0:0:0:
277,238,20537,6,0,P|221:246|149:238,2,112.5,6|2|2,0:0|0:0|0:0,0:0:0:0:
335,325,21520,1,8,0:0:0:0:
243,358,21766,1,0,0:0:0:0:
243,358,21889,1,0,0:0:0:0:
243,358,22012,2,0,B|179:334|140:355|140:355|75:350,1,150,8|8,1:0|1:0,0:0:0:0:
12,114,22996,5,0,0:0:0:0:
112,144,23242,1,0,0:0:0:0:
200,88,23487,1,8,0:0:0:0:
224,192,23733,1,0,0:0:0:0:
304,264,23979,2,0,L|400:240,1,75,8|0,1:0|0:0,0:0:0:0:
407,148,24471,6,0,P|463:196|479:252,2,112.5,6|2|2,1:0|0:0|0:0,0:0:0:0:
360,48,25455,1,8,0:0:0:0:
288,128,25701,1,0,0:0:0:0:
288,128,25824,1,0,0:0:0:0:
288,128,25946,2,0,L|192:136,1,75,8|0,1:0|0:0,0:0:0:0:
138,235,26438,6,0,L|234:227,1,75,8|0,1:0|0:0,0:0:0:0:
304,247,26930,1,0,0:0:0:0:
365,327,27176,1,0,0:0:0:0:
461,295,27422,1,8,0:0:0:0:
459,193,27668,1,0,0:0:0:0:
363,165,27914,2,0,P|307:158|264:164,1,75,8|0,1:0|0:0,2:0:0:0:
195,187,28405,6,0,P|192:142|167:45,2,112.5,6|2|2,1:0|0:0|0:0,0:0:0:0:
204,284,29389,2,0,L|124:340,1,75,8|0,0:0|0:0,0:0:0:0:
243,361,29881,2,0,L|323:305,1,75,8|0,1:0|1:0,0:0:0:0:
382,360,30373,6,0,B|414:352|454:360|454:360|462:304|486:272,1,150,8|0,1:0|0:0,0:0:0:0:
480,192,31110,1,0,0:0:0:0:
376,208,31356,1,8,0:0:0:0:
280,160,31602,1,0,0:0:0:0:
424,104,31848,1,8,1:0:0:0:
328,64,32094,1,0,0:0:0:0:
296,280,32340,6,0,P|275:329|232:400,2,112.5,6|2|2,1:0|0:0|0:0,0:0:0:0:
376,208,33324,2,0,P|312:192|288:168,1,75,8|0,0:0|0:0,0:0:0:0:
272,104,33815,1,8,0:0:0:0:
184,72,34061,1,8,0:0:0:0:
98,128,34307,6,0,L|21:154,1,75,8|0,0:0|0:0,0:0:0:0:
86,229,34799,2,0,L|62:309,1,75,8|0,0:0|0:0,0:0:0:0:
159,324,35291,2,8,L|169:384,2,50,8|8|8,1:0|1:0|1:0,1:0:0:0:
223,332,35783,2,0,P|260:340|319:340,1,75,8|0,0:0|0:0,0:0:0:0:
371,278,36274,6,0,B|387:238|426:203|426:203|435:174,1,112.5,6|0,1:0|0:0,0:0:0:0:
448,139,36766,1,8,0:0:0:0:
421,45,37012,1,0,0:0:0:0:
325,66,37258,2,0,P|281:77|221:74,1,75,2|0,1:0|0:0,0:0:0:0:
153,70,37750,1,8,0:0:0:0:
163,166,37996,1,0,0:0:0:0:
142,261,38242,6,0,L|102:341,1,75,6|0,1:0|0:0,0:0:0:0:
41,261,38610,1,0,0:0:0:0:
41,261,38733,2,0,L|25:141,1,112.5,8|0,0:0|0:0,0:0:0:0:
24,100,39225,2,0,P|136:84|152:76,1,112.5,2|0,1:0|0:0,0:0:0:0:
182,78,39717,2,0,P|228:80|302:102,1,112.5,8|0,0:0|0:0,0:0:0:0:
304,144,40209,6,0,P|363:127|392:112,1,75,6|0,1:0|0:0,0:0:0:0:
456,80,40701,1,8,0:0:0:0:
460,185,40946,1,0,0:0:0:0:
413,270,41192,2,0,P|401:310|397:350,2,75,2|0|8,1:0|0:0|0:0,0:0:0:0:
317,250,41930,1,0,0:0:0:0:
238,308,42176,6,0,P|210:323|158:332,1,75,6|0,1:0|0:0,0:0:0:0:
77,346,42545,1,0,0:0:0:0:
77,346,42668,2,0,P|75:289|61:226,1,112.5,8|0,0:0|0:0,0:0:0:0:
33,195,43160,2,0,P|102:184|161:139,1,112.5,2|0,1:0|0:0,0:0:0:0:
156,130,43651,1,8,0:0:0:0:
216,64,43897,1,0,0:0:0:0:
293,113,44143,6,0,P|310:147|334:179,1,75,6|0,1:0|0:0,0:0:0:0:
360,264,44635,2,0,P|288:288|200:336,1,150,8|2,0:0|1:0,0:0:0:0:
168,248,45373,1,0,0:0:0:0:
119,164,45619,2,0,P|81:174|45:177,1,75,8|0,0:0|0:0,0:0:0:0:
67,81,46110,5,6,1:0:0:0:
152,34,46356,1,0,0:0:0:0:
248,48,46602,2,0,P|313:73|410:33,1,150,8|4,0:0|1:0,0:0:0:0:
256,192,47217,12,4,48078,1:0:0:0:
256,192,48201,12,0,49061,1:0:0:0:
203,100,49553,6,0,L|107:108,1,75,2|2,0:0|0:0,0:0:0:0:
0,190,50045,6,0,P|70:200|130:231,1,97.4999955368044,6|0,1:0|0:0,0:0:0:0:
184,248,50537,1,8,0:0:0:0:
202,343,50783,1,0,0:0:0:0:
310,341,51028,2,0,L|422:341,1,97.4999955368044,2|0,1:0|0:0,0:0:0:0:
437,247,51520,2,0,L|339:247,1,97.4999955368044,8|0,0:0|0:0,0:0:0:0:
288,160,52012,6,0,B|288:96|288:96|271:60|224:56|224:56|136:56,1,194.999991073609,6|8,1:0|0:0,0:0:0:0:
81,91,52750,1,0,0:0:0:0:
134,172,52996,2,0,L|222:228,1,97.4999955368044,2|0,1:0|0:0,0:0:0:0:
289,160,53487,1,8,0:0:0:0:
288,160,53733,1,0,0:0:0:0:
369,213,53979,6,0,P|422:206|473:189,1,97.4999955368044,6|0,1:0|0:0,0:0:0:0:
463,290,54348,1,0,0:0:0:0:
463,290,54471,2,0,P|409:296|359:314,1,97.4999955368044,8|0,0:0|0:0,0:0:0:0:
287,364,54963,2,0,L|167:364,1,97.4999955368044,2|0,1:0|0:0,0:0:0:0:
95,335,55332,1,0,0:0:0:0:
95,335,55455,2,0,P|74:279|79:223,1,97.4999955368044,8|0,0:0|0:0,0:0:0:0:
67,144,55946,6,0,P|40:112|11:88,2,64.9999970245363,8|8|8,0:0|0:0|0:0,0:0:0:0:
148,96,56438,2,0,P|174:64|204:40,2,64.9999970245363,8|8|8,0:0|0:0|0:0,0:0:0:0:
192,176,56930,2,0,B|248:103|300:245|389:139,1,194.999991073609,8|10,1:0|0:0,0:0:0:0:
430,227,57668,1,2,1:0:0:0:
460,134,57914,6,0,P|489:81|530:34,1,97.4999955368044,6|0,1:0|0:0,0:0:0:0:
415,35,58405,2,0,P|375:43|303:43,1,97.4999955368044,8|0,0:0|0:0,0:0:0:0:
229,86,58897,2,0,P|257:126|271:173,1,97.4999955368044,2|0,1:0|0:0,0:0:0:0:
194,240,59389,1,8,0:0:0:0:
172,335,59635,1,0,0:0:0:0:
277,292,59881,6,0,P|328:275|451:272,1,146.249993305207,6|0,1:0|0:0,0:0:0:0:
426,219,60373,2,0,P|414:153|423:101,1,97.4999955368044,8|0,0:0|0:0,0:0:0:0:
323,35,60865,2,0,P|315:103|265:178,1,146.249993305207,2|0,1:0|0:0,0:0:0:0:
275,170,61356,1,8,0:0:0:0:
183,136,61602,1,0,0:0:0:0:
135,220,61848,6,0,P|129:270|104:327,1,97.4999955368044,6|0,1:0|0:0,0:0:0:0:
112,313,62217,1,0,0:0:0:0:
112,313,62340,1,8,0:0:0:0:
200,353,62586,1,0,0:0:0:0:
296,363,62832,2,0,L|439:354,1,97.4999955368044,2|0,1:0|0:0,0:0:0:0:
393,356,63201,1,0,0:0:0:0:
393,356,63324,1,8,0:0:0:0:
480,314,63569,1,0,0:0:0:0:
470,216,63815,6,0,P|447:151|442:97,1,97.4999955368044,6|0,1:0|0:0,0:0:0:0:
375,51,64307,2,0,P|310:74|256:79,1,97.4999955368044,8|0,0:0|0:0,0:0:0:0:
192,117,64799,2,0,P|215:182|220:236,1,97.4999955368044,2|0,1:0|0:0,0:0:0:0:
217,351,65291,2,0,L|238:284,1,48.7499977684022,8|0,0:0|0:0,0:0:0:0:
133,304,65537,2,0,L|112:371,1,48.7499977684022
51,270,65783,6,0,B|11:274|11:274|21:230|3:163,2,146.249993305207,4|8|8,1:0|0:0|0:0,0:0:0:0:
133,303,66766,2,0,P|200:270|296:292,2,146.249993305207,8|8|8,0:0|0:0|0:0,0:0:0:0:
134,184,67750,2,8,P|109:120|61:49,2,146.249993305207,8|8|8,0:0|0:0|0:0,0:0:0:0:
213,102,68733,2,0,P|283:108|362:100,1,146.249993305207,8|0,0:0|0:0,0:0:0:0:
358,100,69225,1,10,0:0:0:0:
396,189,69471,1,2,1:0:0:0:
329,265,69717,6,0,P|287:300|251:356,1,97.4999955368044,6|0,1:0|0:0,0:0:0:0:
183,275,70209,2,0,P|173:221|143:161,1,97.4999955368044,8|0,0:0|0:0,0:0:0:0:
215,103,70701,2,0,P|266:121|332:125,1,97.4999955368044,2|0,1:0|0:0,0:0:0:0:
405,109,71192,1,8,0:0:0:0:
476,174,71438,1,0,0:0:0:0:
510,347,71684,6,0,P|433:353|370:366,1,97.4999955368044,6|0,1:0|0:0,0:0:0:0:
259,374,72176,2,0,P|290:329|310:250,1,97.4999955368044,8|0,0:0|0:0,0:0:0:0:
405,264,72668,2,0,P|382:210|323:157,1,97.4999955368044,2|0,1:0|0:0,0:0:0:0:
260,197,73160,2,0,L|184:222,1,48.7499977684022,8|0,0:0|0:0,0:0:0:0:
134,261,73405,2,0,L|103:224,1,48.7499977684022
111,127,73651,6,0,P|110:80|95:23,1,97.4999955368044,6|0,1:0|0:0,0:0:0:0:
98,31,74020,1,0,0:0:0:0:
98,31,74143,1,8,0:0:0:0:
211,49,74389,1,0,0:0:0:0:
277,120,74635,2,0,L|346:135,1,48.7499977684022,2|0,1:0|1:0,1:0:0:0:
309,37,74881,2,0,L|366:49,1,48.7499977684022
445,63,75127,2,0,L|454:172,1,97.4999955368044,8|0,0:0|0:0,0:0:0:0:
460,257,75619,6,0,P|489:291|522:322,2,64.9999970245363,8|8|8,0:0|0:0|0:0,0:0:0:0:
386,315,76110,2,0,P|357:349|324:380,2,64.9999970245363,8|8|8,0:0|0:0|0:0,0:0:0:0:
332,240,76602,2,0,B|264:240|264:240|224:192|224:192|224:104,1,194.999991073609,8|10,1:0|0:0,0:0:0:0:
224,127,77340,1,2,1:0:0:0:
224,127,77586,6,0,P|170:138|108:125,1,97.4999955368044,6|0,1:0|0:0,0:0:0:0:
34,105,78078,1,8,0:0:0:0:
2,197,78324,1,0,0:0:0:0:
61,276,78569,2,0,P|114:264|176:276,1,97.4999955368044,2|0,1:0|0:0,0:0:0:0:
248,302,79061,1,8,0:0:0:0:
278,212,79307,1,0,0:0:0:0:
224,127,79553,5,4,1:0:0:0:
148,79,79799,2,0,L|102:64,2,48.7499977684022,0|0|8,0:0|0:0|0:0,0:0:0:0:
84,153,80291,1,0,0:0:0:0:
21,227,80537,2,0,L|142:272,1,97.4999955368044,2|0,1:0|0:0,0:0:0:0:
185,325,81028,1,8,0:0:0:0:
220,233,81274,1,0,0:0:0:0:
308,191,81520,5,6,1:0:0:0:
225,126,81766,1,0,0:0:0:0:
225,126,81889,1,0,0:0:0:0:
225,126,82012,1,8,0:0:0:0:
220,232,82258,1,0,0:0:0:0:
292,316,82504,2,0,L|426:288,1,97.4999955368044,2|0,1:0|0:0,0:0:0:0:
489,117,82996,2,0,L|442:240,1,97.4999955368044,8|0,0:0|0:0,0:0:0:0:
225,126,83487,6,0,P|302:60|383:115,1,194.999991073609,6|8,1:0|0:0,0:0:0:0:
313,170,84225,1,0,0:0:0:0:
220,233,84471,2,0,P|129:247|42:226,1,146.249993305207,2|0,1:0|0:0,0:0:0:0:
256,192,85455,12,4,87422,1:0:0:0:
