osu file format v14

[General]
AudioFilename: Koi wa Milk Tea.mp3
AudioLeadIn: 0
PreviewTime: 49307
Countdown: 0
SampleSet: Soft
StackLeniency: 0.7
Mode: 0
LetterboxInBreaks: 0
WidescreenStoryboard: 0

[Editor]
Bookmarks: 2832,10824,18569,36151,50168
DistanceSpacing: 1.4
BeatDivisor: 4
GridSize: 8
TimelineZoom: 2.4

[Metadata]
Title:Koi wa Milk Tea
TitleUnicode:恋はみるくてぃ
Artist:petit milady
ArtistUnicode:プチミレディ
Creator:sammy711
Version:Extra
Source:六畳間の侵略者!?
Tags:rokujouma no shinryakusha ending 悠木碧 竹達彩奈 yuuki aoi taketatsu ayana
BeatmapID:487689
BeatmapSetID:206895

[Difficulty]
HPDrainRate:6
CircleSize:4
OverallDifficulty:7
ApproachRate:9
SliderMultiplier:2.5
SliderTickRate:1

[Events]
//Background and Video events
0,0,"Korona Sou.JPG",0,0
//Break Periods
//Storyboard Layer 0 (Background)
//Storyboard Layer 1 (Fail)
//Storyboard Layer 2 (Pass)
//Storyboard Layer 3 (Foreground)
//Storyboard Sound Samples

[TimingPoints]
865,491.803278688525,4,2,1,50,1,0
50045,-100,4,2,1,50,0,1
69225,-100,4,2,1,50,0,0
69717,-100,4,2,1,50,0,1
85455,-100,4,2,1,60,0,0

[Colours]
Combo1 : 255,136,136
Combo2 : 142,30,255
Combo3 : 243,188,73
Combo4 : 101,205,214

[HitObjects]
48,64,2832,6,0,P|104:64|168:40,1,125,8|0,0:0|0:0,0:0:0:0:
166,146,3201,2,0,L|111:225,1,62.5,8|0,0:0|0:0,0:0:0:0:
188,262,3446,1,0,0:0:0:0:
208,344,3569,2,0,L|296:360,1,62.5,8|0,0:0|0:0,0:0:0:0:
363,214,3815,2,0,P|283:216|172:274,1,187.5,8|0,0:0|0:0,0:0:0:0:
120,352,4307,1,2,1:0:0:0:
48,200,4553,1,2,1:0:0:0:
216,112,4799,6,0,P|278:105|338:88,1,125,8|0,0:0|0:0,0:0:0:0:
388,160,5168,2,0,L|480:182,1,62.5,8|0,0:0|0:0,0:0:0:0:
463,261,5414,1,0,0:0:0:0:
376,288,5537,2,0,L|330:354,1,62.5,8|0,0:0|0:0,0:0:0:0:
262,289,5783,2,0,P|255:196|216:112,1,187.5,8|0,0:0|0:0,0:0:0:0:
144,64,6274,1,2,1:0:0:0:
272,48,6520,1,2,1:0:0:0:
3,237,6766,6,0,L|128:224,1,125,8|0,0:0|0:0,0:0:0:0:
132,310,7135,2,0,L|204:334,1,62.5,8|0,0:0|0:0,0:0:0:0:
262,288,7381,1,0,0:0:0:0:
333,195,7504,2,0,L|272:207,1,62.5,8|0,0:0|0:0,0:0:0:0:
322,344,7750,6,0,P|395:362|497:300,1,187.5,8|0,0:0|0:0,0:0:0:0:
450,71,8242,2,0,L|432:131,1,62.5,2|0,1:0|0:0,0:0:0:0:
486,229,8487,2,0,L|509:155,1,62.5,2|0,0:0|0:0,0:0:0:0:
339,75,8733,6,0,P|264:69|157:83,1,125,8|0,0:0|0:0,0:0:0:0:
58,153,9102,2,8,P|133:159|240:145,1,125,8|0,0:0|0:0,0:0:0:0:
339,75,9471,1,8,0:0:0:0:
375,239,9717,5,8,1:0:0:0:
215,346,9881,1,8,1:0:0:0:
282,166,10045,1,8,1:0:0:0:
338,361,10209,2,0,L|371:365,7,31.25,0|0|0|0|0|0|0|0,0:0|0:0|0:0|0:0|0:0|0:0|0:0|0:0,0:0:0:0:
338,360,10701,6,0,P|295:348|202:346,1,125,4|0,1:0|0:0,0:0:0:0:
232,256,11069,2,0,L|144:256,1,62.5,8|0,0:0|0:0,0:0:0:0:
112,336,11315,1,0,0:0:0:0:
64,264,11438,2,0,L|32:208,1,62.5,8|0,0:0|0:0,0:0:0:0:
101,115,11684,6,8,P|163:98|317:129,1,187.5,8|0,0:0|0:0,0:0:0:0:
360,138,12176,1,2,1:0:0:0:
393,211,12299,1,0,0:0:0:0:
370,289,12422,1,2,1:0:0:0:
435,337,12545,1,0,0:0:0:0:
497,284,12668,6,0,P|477:201|497:111,1,125,8|0,0:0|0:0,0:0:0:0:
493,75,13037,2,0,L|389:83,1,62.5,8|0,0:0|0:0,0:0:0:0:
348,47,13283,1,0,0:0:0:0:
296,143,13405,2,0,L|400:135,1,62.5,8|0,0:0|0:0,0:0:0:0:
207,74,13651,6,0,P|185:162|236:241,1,187.5,8|0,0:0|0:0,0:0:0:0:
311,266,14143,1,2,1:0:0:0:
304,344,14266,1,0,0:0:0:0:
224,376,14389,1,2,1:0:0:0:
144,359,14512,1,0,0:0:0:0:
83,304,14635,6,0,B|85:241|32:184|32:184|45:114,1,187.5,8|8,0:0|0:0,0:0:0:0:
110,75,15127,1,0,0:0:0:0:
136,158,15250,1,0,0:0:0:0:
221,177,15373,1,8,0:0:0:0:
276,109,15496,1,0,0:0:0:0:
333,42,15619,6,0,B|373:79|427:55|427:55|484:55|521:97,1,187.5,8|0,0:0|0:0,0:0:0:0:
512,264,16110,1,2,1:0:0:0:
512,264,16356,1,2,1:0:0:0:
327,263,16602,6,0,P|264:270|203:283,1,125,8|0,0:0|0:0,0:0:0:0:
123,299,16971,1,8,0:0:0:0:
45,322,17094,2,0,P|37:259|24:198,1,125,0|8,0:0|0:0,0:0:0:0:
7,118,17463,1,0,0:0:0:0:
179,160,17586,6,0,B|233:175|233:175|295:137|359:135,1,187.5,4|0,1:0|0:0,0:0:0:0:
456,160,18078,1,2,1:0:0:0:
416,56,18201,1,2,1:0:0:0:
280,0,18324,1,2,1:0:0:0:
88,112,18446,1,2,1:0:0:0:
263,271,18569,5,4,1:0:0:0:
263,271,19061,1,0,0:0:0:0:
263,271,19307,1,0,0:0:0:0:
263,271,19553,1,0,0:0:0:0:
263,271,19799,1,8,1:0:0:0:
205,328,19922,1,8,1:0:0:0:
140,277,20045,2,0,P|73:268|13:271,1,125,8|0,1:0|0:0,0:0:0:0:
86,178,20414,1,0,0:0:0:0:
146,110,20537,6,0,P|182:56|207:-17,1,125,6|0,1:0|0:0,0:0:0:0:
279,110,20905,2,0,P|307:168|358:226,1,125,2|0,1:0|0:0,0:0:0:0:
264,272,21274,2,0,P|199:267|123:282,1,125,2|8,1:0|0:0,0:0:0:0:
146,109,21766,1,0,0:0:0:0:
399,88,22012,6,0,L|420:30,1,62.5,8|0,1:0|0:0,0:0:0:0:
300,52,22258,2,0,L|280:111,1,62.5,8|0,0:0|0:0,0:0:0:0:
228,266,22504,2,0,P|166:275|113:307,1,125,8|0,1:0|0:0,0:0:0:0:
54,364,22873,1,0,0:0:0:0:
19,290,22996,2,0,L|5:218,1,62.5
73,123,23242,2,0,L|87:195,1,62.5
113,307,23487,5,8,0:0:0:0:
175,157,23733,1,0,0:0:0:0:
344,235,23979,1,0,0:0:0:0:
400,88,24225,1,0,0:0:0:0:
441,245,24471,6,0,P|461:303|493:357,1,125,6|0,1:0|0:0,0:0:0:0:
352,366,24840,2,0,P|290:354|228:355,1,125,2|0,1:0|0:0,0:0:0:0:
137,232,25209,2,0,P|198:243|260:242,1,125,2|8,1:0|0:0,0:0:0:0:
344,235,25578,1,0,0:0:0:0:
401,177,25701,1,2,0:0:0:0:
304,48,25946,1,8,1:0:0:0:
232,96,26069,1,0,0:0:0:0:
246,181,26192,2,0,P|256:227|273:283,1,62.5,8|8,0:0|1:0,0:0:0:0:
80,347,26438,1,8,0:0:0:0:
80,347,26930,5,0,0:0:0:0:
6,202,27176,1,0,0:0:0:0:
186,97,27422,1,8,0:0:0:0:
260,242,27668,1,0,0:0:0:0:
350,107,27914,2,0,L|427:73,1,62.5,8|0,1:0|0:0,0:0:0:0:
432,168,28160,2,0,L|499:185,1,62.5,0|0,1:0|0:0,0:0:0:0:
412,257,28405,6,0,P|359:311|325:380,1,125,6|0,1:0|0:0,0:0:0:0:
253,358,28774,2,0,L|100:322,1,125,2|0,1:0|0:0,0:0:0:0:
132,246,29143,2,0,P|111:175|66:110,1,125,2|8,1:0|0:0,0:0:0:0:
28,72,29512,1,0,0:0:0:0:
107,52,29635,2,0,L|221:34,1,62.5
259,98,29881,2,0,L|250:37,1,62.5,8|0,1:0|0:0,0:0:0:0:
404,83,30127,2,0,L|290:101,1,62.5,8|0,0:0|0:0,0:0:0:0:
311,168,30373,1,8,1:0:0:0:
106,52,30865,5,0,0:0:0:0:
106,52,31110,1,0,0:0:0:0:
29,198,31356,1,8,0:0:0:0:
29,198,31601,1,0,0:0:0:0:
174,272,31848,2,0,P|236:278|336:268,1,125,8|8,1:0|0:0,0:0:0:0:
345,341,32217,1,0,0:0:0:0:
378,159,32340,6,0,P|414:91|447:54,1,125,6|0,1:0|0:0,0:0:0:0:
189,81,32709,2,0,P|265:78|314:88,1,125,2|0,1:0|0:0,0:0:0:0:
64,34,33078,2,0,P|104:99|120:146,1,125,2|8,1:0|0:0,0:0:0:0:
114,225,33446,1,0,0:0:0:0:
57,282,33569,1,0,0:0:0:0:
187,378,33815,1,8,0:0:0:0:
267,370,33938,1,0,0:0:0:0:
310,301,34061,1,4,1:0:0:0:
390,293,34184,1,0,0:0:0:0:
459,328,34307,6,0,L|513:192,1,125,8|0,0:0|0:0,0:0:0:0:
491,131,34676,1,0,0:0:0:0:
472,51,34799,2,0,L|390:33,1,62.5,8|0,0:0|0:0,0:0:0:0:
323,101,35045,2,0,L|385:115,1,62.5,8|0,0:0|0:0,0:0:0:0:
263,31,35291,5,8,1:0:0:0:
167,81,35455,5,8,1:0:0:0:
63,47,35619,5,8,1:0:0:0:
34,151,35783,6,0,L|14:222,1,62.5,10|0,0:0|0:0,0:0:0:0:
149,140,36028,2,0,L|166:80,1,62.5,2|0,0:0|0:0,0:0:0:0:
246,195,36274,6,0,B|305:224|305:224|402:224,1,125,6|0,1:0|0:0,0:0:0:0:
446,222,36643,1,0,0:0:0:0:
446,222,36766,1,8,0:0:0:0:
235,344,37012,1,0,0:0:0:0:
155,328,37135,1,0,0:0:0:0:
74,338,37258,2,0,P|55:289|5:223,1,125,2|0,1:0|0:0,0:0:0:0:
33,151,37627,1,0,0:0:0:0:
33,151,37750,1,8,0:0:0:0:
173,69,37996,1,0,0:0:0:0:
253,82,38119,1,0,0:0:0:0:
332,64,38242,6,0,B|401:45|401:45|481:44,1,125,6|0,1:0|0:0,0:0:0:0:
502,110,38610,1,0,0:0:0:0:
502,110,38733,1,8,0:0:0:0:
365,198,38979,1,0,0:0:0:0:
364,279,39102,1,0,0:0:0:0:
391,355,39225,2,0,P|328:358|267:371,1,125,2|0,1:0|0:0,0:0:0:0:
223,301,39594,1,0,0:0:0:0:
155,256,39717,2,0,L|112:321,1,62.5,8|0,0:0|0:0,0:0:0:0:
78,217,39963,2,0,L|76:155,1,62.5
43,61,40209,6,0,P|105:69|167:59,1,125,6|0,1:0|0:0,0:0:0:0:
248,38,40578,1,0,0:0:0:0:
328,62,40701,2,0,L|381:136,1,62.5,8|0,0:0|0:0,0:0:0:0:
422,189,40946,1,0,0:0:0:0:
447,112,41069,1,0,0:0:0:0:
473,254,41192,2,0,P|421:268|344:316,2,125,2|0|8,1:0|0:0|0:0,0:0:0:0:
473,254,41930,1,0,0:0:0:0:
340,170,42176,6,0,L|208:144,1,125,6|0,1:0|0:0,0:0:0:0:
176,72,42545,1,0,0:0:0:0:
248,24,42668,1,8,0:0:0:0:
128,200,42914,2,0,L|30:216,1,62.5
40,296,43160,2,0,P|109:294|210:319,1,125,2|0,1:0|0:0,0:0:0:0:
232,360,43528,1,0,0:0:0:0:
300,296,43651,2,0,L|312:228,1,62.5,8|0,0:0|0:0,0:0:0:0:
401,187,43897,2,0,L|391:249,1,62.5,0|0,0:0|0:0,0:0:0:0:
221,187,44143,6,0,P|159:198|98:187,1,125,6|0,1:0|0:0,0:0:0:0:
18,206,44512,1,0,0:0:0:0:
16,32,44635,1,8,0:0:0:0:
88,72,44758,1,0,0:0:0:0:
164,28,44881,2,0,L|183:88,1,62.5,0|0,0:0|0:0,0:0:0:0:
315,34,45127,6,0,L|256:52,1,62.5,2|0,1:0|0:0,0:0:0:0:
263,133,45373,1,0,0:0:0:0:
301,204,45496,1,0,0:0:0:0:
472,248,45619,1,8,0:0:0:0:
488,168,45742,1,0,0:0:0:0:
416,112,45865,2,0,L|336:127,1,62.5
306,284,46110,6,0,L|335:338,1,62.5,6|0,1:0|0:0,0:0:0:0:
262,133,46356,1,0,0:0:0:0:
304,208,46479,1,0,0:0:0:0:
151,350,46602,2,0,L|74:344,1,62.5,8|0,0:0|0:0,0:0:0:0:
134,147,46848,1,0,0:0:0:0:
208,200,46971,1,0,0:0:0:0:
225,51,47094,6,0,L|164:64,1,62.5,2|0,1:0|0:0,0:0:0:0:
134,146,47340,1,0,0:0:0:0:
39,222,47463,2,0,P|47:129|20:41,1,187.5,2|0,1:0|0:0,0:0:0:0:
19,40,48078,1,4,1:0:0:0:
256,192,48201,12,8,49061,1:0:0:0:
201,78,49553,5,2,1:0:0:0:
275,222,49799,1,2,1:0:0:0:
136,295,50045,2,0,P|217:295|294:324,1,125,6|0,1:0|0:0,0:0:0:0:
333,341,50414,1,0,0:0:0:0:
412,325,50537,2,0,P|421:254|445:186,1,125,8|0,0:0|0:0,0:0:0:0:
485,137,50905,1,0,0:0:0:0:
459,58,51028,6,0,P|403:98|340:104,1,125,2|0,1:0|0:0,0:0:0:0:
266,109,51397,1,0,0:0:0:0:
201,59,51520,2,0,L|120:25,1,62.5,8|0,0:0|0:0,0:0:0:0:
69,143,51766,2,0,L|131:111,1,62.5
152,232,52012,6,0,P|99:228|27:235,1,125,6|0,1:0|0:0,0:0:0:0:
69,143,52381,1,0,0:0:0:0:
88,320,52504,1,8,0:0:0:0:
216,320,52627,2,0,P|245:275|262:202,1,125,0|0,0:0|0:0,2:0:0:0:
457,153,52996,6,0,L|429:242,1,62.5,2|0,1:0|0:0,0:0:0:0:
353,229,53242,2,0,L|372:294,1,62.5
328,136,53487,1,8,0:0:0:0:
248,112,53610,1,0,0:0:0:0:
160,144,53733,1,0,0:0:0:0:
110,220,53856,1,0,0:0:0:0:
30,205,53979,6,0,L|16:117,1,62.5,6|0,1:0|0:0,0:0:0:0:
121,19,54225,2,0,L|85:104,1,62.5
214,222,54471,2,0,L|176:173,1,62.5,8|0,0:0|0:0,0:0:0:0:
315,62,54717,2,0,L|239:76,1,62.5
353,229,54963,5,2,1:0:0:0:
282,275,55086,1,0,0:0:0:0:
214,223,55209,1,0,0:0:0:0:
112,368,55332,1,0,0:0:0:0:
29,205,55455,1,8,0:0:0:0:
29,205,55946,5,8,0:0:0:0:
193,116,56110,1,8,0:0:0:0:
182,301,56274,1,8,0:0:0:0:
151,19,56438,1,8,0:0:0:0:
126,203,56602,1,8,0:0:0:0:
294,136,56766,1,8,0:0:0:0:
436,248,56930,6,0,L|448:289,1,41.6666666666667,2|0,0:0|0:0,0:0:0:0:
359,289,57094,2,0,L|346:337,1,41.6666666666667,2|0,0:0|0:0,0:0:0:0:
274,298,57258,2,0,L|242:353,1,41.6666666666667,2|0,0:0|0:0,0:0:0:0:
182,300,57422,2,0,P|126:295|53:280,1,125,10|0,0:0|0:0,0:0:0:0:
30,204,57791,1,0,0:0:0:0:
150,28,57914,6,0,P|124:89|50:147,1,125,6|0,1:0|0:0,0:0:0:0:
135,192,58283,1,0,0:0:0:0:
218,209,58405,2,0,L|338:225,1,62.5,8|0,0:0|0:0,0:0:0:0:
301,73,58651,2,0,L|292:134,1,62.5
379,118,58897,5,2,1:0:0:0:
460,122,59020,1,0,0:0:0:0:
483,199,59143,1,0,0:0:0:0:
428,259,59266,1,0,0:0:0:0:
351,299,59389,2,0,L|272:351,1,62.5,8|0,0:0|0:0,0:0:0:0:
221,306,59635,2,0,L|214:401,1,62.5,0|0,0:0|0:0,0:0:0:0:
140,280,59881,6,0,B|87:259|79:183|79:183|4:152,1,187.5,6|0,1:0|0:0,0:0:0:0:
136,16,60373,1,8,0:0:0:0:
168,96,60496,1,0,0:0:0:0:
248,72,60619,1,0,0:0:0:0:
336,96,60742,1,0,0:0:0:0:
304,176,60865,6,0,L|232:189,1,62.5,2|0,1:0|0:0,0:0:0:0:
133,287,61110,2,0,L|146:349,1,62.5
266,330,61356,2,0,L|225:284,1,62.5,8|0,0:0|0:0,0:0:0:0:
351,355,61602,1,0,0:0:0:0:
437,341,61725,1,0,0:0:0:0:
490,272,61848,6,0,P|496:205|488:138,1,125,6|0,1:0|0:0,0:0:0:0:
456,66,62217,1,0,0:0:0:0:
298,132,62340,2,0,P|357:178|428:202,1,125,8|0,0:0|0:0,0:0:0:0:
490,147,62709,1,0,0:0:0:0:
457,66,62832,6,0,P|397:19|327:-4,1,125,2|0,1:0|0:0,0:0:0:0:
275,45,63201,1,0,0:0:0:0:
211,105,63324,2,0,P|152:115|74:99,1,125,8|0,0:0|0:0,0:0:0:0:
102,190,63692,1,0,0:0:0:0:
41,352,63815,6,0,P|103:324|230:322,1,187.5,6|0,1:0|0:0,0:0:0:0:
280,256,64307,1,8,0:0:0:0:
368,280,64430,1,0,0:0:0:0:
432,344,64553,1,0,0:0:0:0:
504,304,64676,1,0,0:0:0:0:
496,216,64799,6,0,B|488:114|488:114|460:76|418:67,1,187.5,2|0,1:0|0:0,0:0:0:0:
136,40,65291,1,8,0:0:0:0:
168,120,65414,1,0,0:0:0:0:
304,192,65537,1,8,0:0:0:0:
336,112,65660,1,0,0:0:0:0:
170,212,65783,6,0,P|161:260|168:368,1,125,4|0,1:0|0:0,0:0:0:0:
16,140,66151,1,8,0:0:0:0:
16,140,66520,2,0,P|60:129|95:121,1,62.5,8|0,0:0|0:0,0:0:0:0:
275,308,66766,5,8,0:0:0:0:
275,308,67135,2,0,P|219:316|123:348,1,125,8|0,0:0|0:0,0:0:0:0:
238,62,67504,1,8,0:0:0:0:
238,62,67750,5,8,0:0:0:0:
299,258,68119,1,8,0:0:0:0:
299,258,68487,2,0,L|295:168,1,62.5,8|0,0:0|0:0,0:0:0:0:
422,343,68733,5,8,0:0:0:0:
422,343,69102,1,0,0:0:0:0:
422,343,69225,2,0,P|449:282|488:227,1,125,10|2,0:0|0:0,0:0:0:0:
463,147,69594,1,0,0:0:0:0:
409,77,69717,6,0,P|346:82|261:78,1,125,6|0,1:0|0:0,0:0:0:0:
232,152,70086,1,0,0:0:0:0:
119,87,70209,2,0,L|115:25,1,62.5,8|0,0:0|0:0,0:0:0:0:
40,138,70455,2,0,L|83:191,1,62.5,0|0,0:0|0:0,0:0:0:0:
34,262,70701,6,0,B|97:276|138:326|138:326|208:309,1,187.5,2|0,1:0|0:0,0:0:0:0:
336,240,71192,2,0,L|243:241,1,62.5,8|0,0:0|0:0,0:0:0:0:
356,335,71438,2,0,L|449:334,1,62.5
465,259,71684,6,0,B|445:187|475:133|475:133|434:92,1,187.5,6|0,1:0|1:0,0:0:0:0:
376,25,72176,1,8,0:0:0:0:
312,84,72299,1,0,0:0:0:0:
224,87,72422,1,0,0:0:0:0:
156,142,72545,1,0,0:0:0:0:
78,101,72668,6,0,L|-8:116,1,62.5,2|0,1:0|0:0,0:0:0:0:
153,230,72914,2,0,L|239:215,1,62.5
97,300,73160,5,8,0:0:0:0:
97,300,73283,1,0,0:0:0:0:
174,339,73405,1,0,0:0:0:0:
174,339,73528,1,0,0:0:0:0:
260,354,73651,6,0,P|311:337|408:326,1,125,6|0,1:0|0:0,0:0:0:0:
463,294,74020,1,0,0:0:0:0:
457,206,74143,2,0,L|377:168,1,62.5,8|0,0:0|0:0,0:0:0:0:
419,46,74389,2,0,L|444:112,1,62.5
206,103,74635,6,0,P|267:98|355:109,1,125,2|0,1:0|0:0,0:0:0:0:
302,187,75004,1,0,0:0:0:0:
235,16,75127,1,8,0:0:0:0:
235,16,75619,5,8,0:0:0:0:
157,180,75783,1,8,0:0:0:0:
51,34,75946,1,8,0:0:0:0:
43,327,76110,1,8,0:0:0:0:
303,186,76274,1,8,0:0:0:0:
50,33,76437,1,8,0:0:0:0:
124,276,76602,6,0,L|173:293,1,41.6666666666667,2|0,0:0|0:0,0:0:0:0:
240,343,76766,2,0,L|294:320,1,41.6666666666667,2|0,0:0|0:0,0:0:0:0:
376,353,76930,2,0,L|409:307,1,41.6666666666667,2|0,0:0|0:0,0:0:0:0:
444,228,77094,2,0,P|422:169|380:123,1,125,10|0,0:0|0:0,0:0:0:0:
416,38,77463,1,0,0:0:0:0:
303,186,77586,6,0,P|256:202|146:195,1,125,6|0,1:0|0:0,0:0:0:0:
146,129,77955,1,0,0:0:0:0:
62,136,78078,2,0,L|17:180,1,62.5,8|0,0:0|0:0,0:0:0:0:
124,277,78324,2,0,L|83:195,1,62.5
100,50,78569,6,0,P|179:51|250:29,1,125,2|0,1:0|0:0,0:0:0:0:
303,23,78938,1,0,0:0:0:0:
431,83,79061,2,0,L|380:48,1,62.5,8|0,0:0|0:0,0:0:0:0:
391,154,79307,2,0,L|400:215,1,62.5
321,254,79553,6,0,P|261:269|193:308,1,125,6|0,1:0|0:0,0:0:0:0:
124,277,79922,1,0,0:0:0:0:
43,257,80045,2,0,P|50:173|33:107,1,125,8|0,0:0|0:0,0:0:0:0:
0,63,80414,1,0,0:0:0:0:
136,144,80537,6,0,P|196:129|264:90,1,125,2|0,1:0|0:0,0:0:0:0:
399,215,81028,1,8,0:0:0:0:
469,276,81151,1,0,0:0:0:0:
487,186,81274,1,0,0:0:0:0:
417,125,81397,1,0,0:0:0:0:
377,303,81520,6,0,P|307:309|209:332,1,125,6|0,1:0|0:0,0:0:0:0:
176,360,81889,1,0,0:0:0:0:
96,328,82012,1,8,0:0:0:0:
32,32,82258,1,0,0:0:0:0:
24,200,82381,1,0,0:0:0:0:
142,89,82504,2,0,P|216:64|281:64,1,125,2|0,0:0|0:0,0:0:0:0:
352,128,82873,1,0,0:0:0:0:
339,220,82996,2,0,P|393:220|497:258,1,125,8|0,0:0|0:0,0:0:0:0:
234,160,83487,6,0,P|176:231|24:208,1,250,6|8,1:0|0:0,0:0:0:0:
48,88,84225,1,8,0:0:0:0:
120,152,84348,1,8,0:0:0:0:
56,336,84471,1,12,0:0:0:0:
256,192,85455,12,4,87422,1:0:0:0:
