osu file format v13

[General]
AudioFilename: Koi wa Milk Tea.mp3
AudioLeadIn: 0
PreviewTime: 49307
Countdown: 0
SampleSet: Soft
StackLeniency: 0.7
Mode: 0
LetterboxInBreaks: 0
WidescreenStoryboard: 0

[Editor]
Bookmarks: 2832,10824,18569,36151,50168
DistanceSpacing: 1
BeatDivisor: 4
GridSize: 8
TimelineZoom: 2.4

[Metadata]
Title:Koi wa Milk Tea
TitleUnicode:恋はみるくてぃ
Artist:petit milady
ArtistUnicode:プチミレディ
Creator:sammy711
Version:Easy
Source:六畳間の侵略者!?
Tags:rokujouma no shinryakusha ending 悠木碧 竹達彩奈 yuuki aoi taketatsu ayana
BeatmapID:488460
BeatmapSetID:206895

[Difficulty]
HPDrainRate:2
CircleSize:3
OverallDifficulty:2
ApproachRate:3
SliderMultiplier:1
SliderTickRate:1

[Events]
//Background and Video events
0,0,"Korona Sou.JPG",0,0
//Break Periods
//Storyboard Layer 0 (Background)
//Storyboard Layer 1 (Fail)
//Storyboard Layer 2 (Pass)
//Storyboard Layer 3 (Foreground)
//Storyboard Sound Samples
//Background Colour Transformations
3,100,163,162,255

[TimingPoints]
865,491.803278688525,4,2,1,50,1,0
50045,-76.9230769230769,4,2,1,50,0,1
69225,-76.9230769230769,4,2,1,50,0,0
69717,-76.9230769230769,4,2,1,50,0,1
85455,-76.9230769230769,4,2,1,60,0,0

[Colours]
Combo1 : 255,136,136
Combo2 : 142,30,255
Combo3 : 243,188,73
Combo4 : 101,205,214

[HitObjects]
129,265,2832,6,0,L|205:309,1,75,8|8,0:0|0:0,0:0:0:0:
268,202,3815,2,0,P|331:155|347:136,1,100,8|2,0:0|1:0,0:0:0:0:
391,227,4799,2,0,L|436:311,1,75,8|8,0:0|0:0,0:0:0:0:
497,187,5783,2,0,L|446:86,1,100,8|2,0:0|1:0,0:0:0:0:
367,44,6766,6,0,L|276:54,1,75,8|8,0:0|0:0,0:0:0:0:
167,50,7750,2,0,P|151:95|154:159,1,100,8|2,0:0|1:0,0:0:0:0:
78,216,8733,2,0,P|69:260|51:302,2,75,8|8|8,0:0|0:0|0:0,0:0:0:0:
256,192,9717,12,4,10701,1:0:0:0:
108,139,11684,6,0,B|142:173|168:216|168:216|216:184|272:184,1,200,2|4,1:0|1:0,0:0:0:0:
357,181,13160,1,8,0:0:0:0:
456,184,13651,2,0,B|455:283|455:283|429:336|361:351,1,200,2|4,1:0|1:0,0:0:0:0:
279,355,15127,5,8,0:0:0:0:
179,351,15619,2,0,B|158:306|118:302|99:306|99:306|60:204,1,200,2|4,1:0|1:0,0:0:0:0:
38,114,17094,1,8,0:0:0:0:
135,91,17586,2,0,B|176:82|234:103|234:103|265:75|344:80,1,200,2|4,1:0|1:0,0:0:0:0:
253,370,20045,5,8,1:0:0:0:
160,344,20537,2,0,L|70:352,1,75,6|2,0:0|0:0,0:0:0:0:
152,240,21520,2,0,L|259:230,1,100,8|8,0:0|1:0,0:0:0:0:
349,270,22504,1,8,1:0:0:0:
441,307,22996,6,0,P|458:249|484:196,2,100,0|8|8,0:0|0:0|1:0,0:0:0:0:
348,270,24471,2,0,P|301:264|269:254,1,75,6|2,1:0|0:0,0:0:0:0:
154,216,25455,2,0,P|188:196|242:145,2,100,8|2|8,0:0|1:0|1:0,0:0:0:0:
59,247,26930,6,0,P|75:300|71:356,1,100,0|8,0:0|0:0,0:0:0:0:
171,360,27914,1,8,1:0:0:0:
267,333,28405,2,0,L|352:312,1,75,6|2,1:0|0:0,0:0:0:0:
379,200,29389,2,0,P|342:207|262:225,1,100,8|8,0:0|1:0,0:0:0:0:
183,241,30373,1,8,1:0:0:0:
202,142,30865,6,0,P|213:95|219:36,2,100,0|8|8,0:0|0:0|1:0,0:0:0:0:
107,110,32340,2,0,P|81:79|59:39,1,75,6|2,1:0|0:0,0:0:0:0:
15,164,33324,2,0,L|21:279,1,100,8|8,0:0|0:0,0:0:0:0:
82,342,34307,1,8,1:0:0:0:
180,358,34799,1,8,1:0:0:0:
279,351,35291,6,0,P|328:344|386:328,1,100,8|8,1:0|0:0,0:0:0:0:
364,231,36274,2,0,P|368:171|386:111,1,100,4|8,1:0|0:0,0:0:0:0:
294,78,37258,1,2,1:0:0:0:
223,148,37750,1,8,0:0:0:0:
275,232,38242,2,0,P|230:253|166:271,1,100,2|8,1:0|0:0,0:0:0:0:
102,328,39225,6,0,P|68:286|20:249,2,100,6|8|4,1:0|0:0|1:0,0:0:0:0:
196,361,40701,2,0,L|304:349,1,100,8|2,0:0|1:0,0:0:0:0:
394,340,41684,1,8,0:0:0:0:
417,242,42176,2,0,P|469:275|519:274,1,100,4|8,1:0|0:0,0:0:0:0:
488,178,43160,2,0,L|487:78,1,100,2|8,1:0|0:0,0:0:0:0:
387,65,44143,6,0,P|298:75|266:72,1,100,4|8,1:0|0:0,0:0:0:0:
184,80,45127,2,0,P|225:159|248:171,1,100,2|8,1:0|0:0,0:0:0:0:
328,200,46110,1,4,1:0:0:0:
256,192,46233,12,4,48078,1:0:0:0:
197,79,49553,5,2,0:0:0:0:
218,207,50045,6,0,P|264:215|354:213,1,129.999994049073,4|8,1:0|0:0,0:0:0:0:
471,177,51028,2,0,L|474:313,1,129.999994049073,2|8,1:0|0:0,0:0:0:0:
358,367,52012,2,0,B|322:339|322:339|263:360|215:357,1,129.999994049073,4|8,1:0|0:0,0:0:0:0:
110,343,52996,1,2,1:0:0:0:
2,271,53487,6,0,P|44:237|113:208,1,129.999994049073,8|4,0:0|1:0,0:0:0:0:
241,232,54471,1,8,0:0:0:0:
328,134,54963,2,0,P|263:137|202:116,1,129.999994049073,2|8,1:0|0:0,0:0:0:0:
92,47,55946,2,0,B|113:84|113:84|103:126|103:126|124:165|124:165|114:205|114:205|135:242|135:242|126:292,1,259.999988098145,4|10,1:0|0:0,0:0:0:0:
247,337,57422,5,2,0:0:0:0:
373,367,57914,2,8,P|450:378|519:361,1,129.999994049073,4|8,1:0|0:0,0:0:0:0:
480,239,58897,2,8,P|403:228|334:245,1,129.999994049073,2|8,1:0|0:0,0:0:0:0:
330,109,59881,1,4,1:0:0:0:
233,200,60373,2,0,P|188:222|99:236,2,129.999994049073,8|2|8,0:0|1:0|0:0,0:0:0:0:
134,115,61848,6,0,P|100:92|5:70,1,129.999994049073,4|8,1:0|0:0,0:0:0:0:
0,198,62832,2,0,P|1:239|39:328,1,129.999994049073,2|8,1:0|0:0,0:0:0:0:
160,350,63815,2,0,B|234:329|234:329|265:355|330:330|330:330|324:260|357:227,1,259.999988098145,4|2,1:0|1:0,0:0:0:0:
407,136,65291,1,8,0:0:0:0:
277,132,65783,6,0,P|225:115|165:80,1,97.4999955368044,8|8,0:0|0:0,0:0:0:0:
122,167,66520,2,0,L|43:162,1,64.9999970245363,8|8,0:0|0:0,0:0:0:0:
47,260,67135,1,8,0:0:0:0:
144,266,67504,2,0,L|223:271,1,64.9999970245363,8|8,0:0|0:0,0:0:0:0:
250,358,68119,1,8,0:0:0:0:
315,286,68487,2,0,L|321:195,1,64.9999970245363,8|8,0:0|0:0,0:0:0:0:
327,121,69225,5,10,0:0:0:0:
200,149,69717,2,0,P|141:150|52:139,1,129.999994049073,4|8,1:0|0:0,0:0:0:0:
112,19,70701,2,0,P|170:17|260:29,1,129.999994049073,2|8,1:0|0:0,1:0:0:0:
329,121,71684,2,0,B|394:107|394:107|455:124,1,129.999994049073,4|8,1:0|0:0,0:0:0:0:
397,240,72668,1,2,1:0:0:0:
279,305,73160,6,0,P|212:305|138:327,1,129.999994049073,8|4,0:0|1:0,0:0:0:0:
29,366,74143,1,8,0:0:0:0:
6,237,74635,2,0,B|71:241|71:241|117:197|156:208,1,129.999994049073,2|8,1:0|0:0,0:0:0:0:
253,180,75619,2,0,B|291:196|291:196|319:230|319:230|316:273|316:273|290:308|290:308|246:323|246:323|200:302|200:302,1,259.999988098145,4|10,1:0|0:0,0:0:0:0:
126,207,77094,5,2,0:0:0:0:
83,84,77586,2,0,P|132:78|215:42,1,129.999994049073,4|8,1:0|0:0,0:0:0:0:
254,179,78569,2,0,P|283:218|356:272,1,129.999994049073,2|8,1:0|0:0,0:0:0:0:
439,359,79553,1,4,1:0:0:0:
312,384,80045,2,0,P|249:381|176:388,2,129.999994049073,8|2|8,0:0|1:0|0:0,0:0:0:0:
345,264,81520,6,0,P|364:184|394:120,1,129.999994049073,4|8,1:0|0:0,0:0:0:0:
257,174,82504,2,0,P|238:94|208:30,1,129.999994049073,2|8,1:0|0:0,0:0:0:0:
134,148,83487,2,0,B|131:213|89:268|89:268|179:281|237:322,1,259.999988098145,4|2,1:0|1:0,0:0:0:0:
256,192,85455,12,4,87422,1:0:0:0:
