osu file format v14

[General]
AudioFilename: ED1.mp3
AudioLeadIn: 0
PreviewTime: 49274
Countdown: 0
SampleSet: Soft
StackLeniency: 0.7
Mode: 0
LetterboxInBreaks: 0
WidescreenStoryboard: 0

[Editor]
DistanceSpacing: 1
BeatDivisor: 4
GridSize: 4
TimelineZoom: 1

[Metadata]
Title:Koi wa Milk Tea
TitleUnicode:恋はみるくてぃ
Artist:petit milady
ArtistUnicode:petit milady
Creator:ak74
Version:Easy
Source:六畳間の侵略者!?
Tags:プチミレディ rokujouma no shinryakusha ending TV Size yuuki aoi taketatsu ayana buhei ak74qbz95xm8
BeatmapID:466518
BeatmapSetID:196674

[Difficulty]
HPDrainRate:2
CircleSize:2.7
OverallDifficulty:2
ApproachRate:2
SliderMultiplier:0.9
SliderTickRate:1

[Events]
//Background and Video events
Video,622,"Rokujouma (1).avi"
0,0,"687474703a2f2f7075752e73682f67384b43472f393535623230306137312e706e67.png",0,0
//Break Periods
//Storyboard Layer 0 (Background)
//Storyboard Layer 1 (Fail)
//Storyboard Layer 2 (Pass)
//Storyboard Layer 3 (Foreground)
//Storyboard Sound Samples

[TimingPoints]
586,491.803278688525,4,2,1,60,1,0
10422,-100,4,2,1,70,0,0
20258,-100,4,2,1,60,0,0
35995,-100,4,2,1,70,0,0
49766,-100,4,2,1,80,0,1
65504,-100,4,2,1,70,0,0
69438,-100,4,2,1,80,0,1
85176,-100,4,2,1,70,0,0

[Colours]
Combo1 : 255,136,136
Combo2 : 142,30,255
Combo3 : 243,188,73
Combo4 : 101,205,214

[HitObjects]
220,148,2061,5,8,0:0:0:0:
250,63,2553,2,0,P|194:63|150:87,1,90,4|0,0:0|0:0,0:0:0:0:
123,157,3536,1,8,0:0:0:0:
297,202,4520,2,0,P|353:202|397:178,1,90
328,117,5504,1,8,0:0:0:0:
190,232,6487,6,0,P|134:232|90:256,1,90
159,317,7471,1,8,0:0:0:0:
303,210,8454,2,0,P|359:210|403:234,1,90
471,261,9438,2,0,B|482:294|482:294|475:361,1,90,8|0,0:0|0:0,0:0:0:0:
392,316,10422,6,0,P|348:324|300:300,2,90,4|8|0,0:0|0:0|0:0,0:0:0:0:
360,232,11897,1,8,0:0:0:0:
276,200,12389,2,0,L|172:200,1,90,0|8,0:0|0:0,0:0:0:0:
96,192,13372,2,0,P|88:140|116:96,1,90,0|8,0:0|0:0,0:0:0:0:
188,76,14356,6,0,B|228:100|228:100|288:100,1,90,0|8,0:0|0:0,0:0:0:0:
352,140,15340,1,0,0:0:0:0:
272,180,15831,1,8,0:0:0:0:
184,164,16323,22,0,P|172:216|196:256,1,90,0|8,0:0|0:0,0:0:0:0:
264,296,17307,2,0,L|372:300,2,90,0|8|0,0:0|0:0|0:0,0:0:0:0:
83,97,19766,37,8,0:0:0:0:
172,108,20258,2,0,P|256:108|320:136,1,135,2|0,0:0|0:0,0:0:0:0:
344,144,21241,2,0,P|400:160|452:156,1,90,2|0,0:0|0:0,0:0:0:0:
480,236,22225,2,0,B|480:292|480:292|448:332,1,90,0|0,0:0|0:0,0:0:0:0:
368,308,23208,1,8,0:0:0:0:
308,240,23700,1,0,0:0:0:0:
248,172,24192,22,0,P|168:148|100:156,1,135
76,168,25176,2,0,L|84:272,1,90,2|0,0:0|0:0,0:0:0:0:
108,344,26159,2,0,P|168:304|172:244,1,135
156,204,27143,1,8,0:0:0:0:
212,132,27635,1,0,0:0:0:0:
300,152,28126,38,0,P|360:184|436:184,1,135,2|0,0:0|0:0,0:0:0:0:
472,184,29110,2,0,L|452:284,1,90,2|0,0:0|0:0,0:0:0:0:
388,336,30094,1,0,0:0:0:0:
300,312,30586,1,0,0:0:0:0:
240,244,31077,2,0,P|240:192|260:144,1,90,8|0,0:0|0:0,0:0:0:0:
232,68,32061,22,0,B|184:44|152:80|152:80|96:52,1,135
68,40,33045,2,0,B|40:76|40:76|56:132,1,90,2|0,0:0|0:0,0:0:0:0:
100,196,34028,2,0,P|156:204|200:196,1,90,0|8,0:0|0:0,0:0:0:0:
244,272,35012,2,0,P|296:250|324:220,1,90,0|8,0:0|0:0,0:0:0:0:
404,196,35995,38,0,P|362:148|282:145,1,135,4|4,0:0|0:0,0:0:0:0:
160,140,37471,1,8,0:0:0:0:
184,52,37963,2,0,P|224:48|292:48,2,90,0|8|0,0:0|0:0|0:0,0:0:0:0:
119,115,39438,1,8,0:0:0:0:
161,195,39930,38,0,P|168:234|256:276,2,135,4|4|8,0:0|0:0|0:0,0:0:0:0:
226,132,41897,1,0,0:0:0:0:
139,108,42389,1,10,0:0:0:0:
49,113,42881,2,0,B|41:61|41:61|69:21,1,90,4|4,0:0|0:0,0:0:0:0:
152,30,43864,22,0,L|256:38,1,90,4|8,0:0|0:0,0:0:0:0:
315,88,44848,2,0,P|336:143|313:219,1,135
280,240,45831,2,0,B|172:232,1,90,4|8,0:0|0:0,0:0:0:0:
144,156,46815,2,0,L|248:148,1,90,2|8,0:0|0:0,0:0:0:0:
312,108,47799,2,0,L|420:116,1,90,2|0,0:0|0:0,0:0:0:0:
448,191,48782,1,8,0:0:0:0:
361,33,49766,5,6,0:0:0:0:
312,108,50258,1,8,0:0:0:0:
224,92,50749,2,0,P|180:84|136:92,1,90,2|8,0:0|0:0,0:0:0:0:
92,172,51733,2,0,B|124:193|183:197|183:197|230:184|276:185,1,180,2|2,0:0|0:0,0:0:0:0:
346,142,53208,1,8,0:0:0:0:
436,147,53700,22,0,P|444:203|448:255,1,90,2|8,0:0|0:0,0:0:0:0:
394,309,54684,2,0,B|350:337|306:311,1,90,2|8,0:0|0:0,0:0:0:0:
348,231,55667,2,0,B|342:200|342:200|346:132,2,90,2|8|2,0:0|0:0|0:0,0:0:0:0:
280,284,57143,1,8,0:0:0:0:
232,208,57635,38,0,L|124:192,1,90,4|8,0:0|0:0,0:0:0:0:
56,220,58618,2,0,P|52:168|84:132,1,90,2|8,0:0|0:0,0:0:0:0:
148,88,59602,2,0,L|252:80,2,90,2|8|2,0:0|0:0|0:0,0:0:0:0:
128,176,61077,1,8,0:0:0:0:
200,232,61569,21,2,0:0:0:0:
280,192,62061,1,8,0:0:0:0:
368,216,62553,2,0,P|372:168|340:128,1,90,2|8,0:0|0:0,0:0:0:0:
269,94,63536,2,0,B|231:102|207:79|207:79|178:56|140:61,1,135,2|0,0:0|0:0,0:0:0:0:
113,95,64520,2,0,B|120:148|120:148|105:187,1,90,2|8,0:0|0:0,0:0:0:0:
120,272,65504,6,0,P|172:304|248:304,1,135,4|2,0:0|0:0,0:0:0:0:
284,284,66487,2,0,P|316:232|316:156,1,135,4|2,0:0|0:0,0:0:0:0:
304,116,67471,2,0,P|252:84|176:84,1,135,4|2,0:0|0:0,0:0:0:0:
136,96,68454,1,4,0:0:0:0:
60,148,68946,1,8,0:0:0:0:
72,236,69438,21,4,0:0:0:0:
160,260,69930,2,0,P|164:212|128:168,2,90,8|2|8,0:0|0:0|0:0,0:0:0:0:
236,312,71405,2,0,L|336:304,1,90,2|8,0:0|0:0,0:0:0:0:
412,332,72389,2,0,B|424:296|404:260|404:260|400:228,1,90,2|8,0:0|0:0,0:0:0:0:
348,172,73372,38,0,B|312:215|312:215|324:264,1,90,2|8,0:0|0:0,0:0:0:0:
232,272,74356,2,0,B|224:236|224:236|172:224,1,90,2|8,0:0|0:0,0:0:0:0:
116,152,75340,2,0,B|51:161|51:161|24:150,2,90,2|8|2,0:0|0:0|0:0,0:0:0:0:
160,72,76815,1,8,0:0:0:0:
228,132,77307,22,0,P|272:144|320:124,1,90,4|8,0:0|0:0,0:0:0:0:
384,72,78290,2,0,P|408:124|392:168,1,90,2|8,0:0|0:0,0:0:0:0:
335,216,79274,2,0,P|416:249|484:186,1,180,2|2,0:0|0:0,0:0:0:0:
444,113,80749,1,8,0:0:0:0:
356,96,81241,6,0,P|301:88|253:108,1,90,2|8,0:0|0:0,0:0:0:0:
316,188,82225,2,0,P|272:198|228:189,1,90,2|8,0:0|0:0,0:0:0:0:
147,229,83208,2,0,L|127:37,1,180,2|4,0:0|0:0,0:0:0:0:
268,168,85176,38,0,B|408:164,1,135,6|2,0:0|0:0,0:0:0:0:
436,196,86159,2,0,B|439:330,1,135,6|2,0:0|0:0,0:0:0:0:
416,368,87143,1,6,0:0:0:0:
