osu file format v14

[General]
AudioFilename: audio.mp3
AudioLeadIn: 0
PreviewTime: 49151
Countdown: 0
SampleSet: Soft
StackLeniency: 0.7
Mode: 0
LetterboxInBreaks: 0
WidescreenStoryboard: 0

[Editor]
DistanceSpacing: 1.3
BeatDivisor: 4
GridSize: 32
TimelineZoom: 2.999999

[Metadata]
Title:Koi wa Milk Tea (TV Size)
TitleUnicode:恋はみるくてぃ (TV Size)
Artist:petit milady
ArtistUnicode:petit milady
Creator:Shocko
Version:Normal
Source:六畳間の侵略者!?
Tags:rokujouma no shinryakusha!? invaders of the rokujouma!? ending ed anime japanese pop j-pop garden fushimi rio imoutosan female vocals
BeatmapID:2432923
BeatmapSetID:1164149

[Difficulty]
HPDrainRate:4
CircleSize:3.4
OverallDifficulty:4
ApproachRate:6
SliderMultiplier:1.2
SliderTickRate:1

[Events]
//Background and Video events
0,0,"222.jpg",0,0
//Break Periods
//Storyboard Layer 0 (Background)
//Storyboard Layer 1 (Fail)
//Storyboard Layer 2 (Pass)
//Storyboard Layer 3 (Foreground)
//Storyboard Layer 4 (Overlay)
//Storyboard Sound Samples

[TimingPoints]
636,491.803278688525,4,2,1,70,1,0
2603,-100,4,2,2,50,0,0
9488,-90.9090909090909,4,2,1,70,0,0
10472,-90.9090909090909,4,2,2,80,0,0
20308,-100,4,2,2,50,0,0
35062,-100,4,2,1,70,0,0
36045,-90.9090909090909,4,2,2,60,0,0
49816,-90.9090909090909,4,2,2,80,0,1
55717,-90.9090909090909,4,2,1,80,0,1
57685,-90.9090909090909,4,2,2,80,0,1
65554,-90.9090909090909,4,2,1,70,0,0
69488,-90.9090909090909,4,2,2,80,0,1
75390,-90.9090909090909,4,2,1,80,0,1
77357,-90.9090909090909,4,2,2,80,0,1
84119,-90.9090909090909,4,2,1,80,0,1
84242,-90.9090909090909,4,2,1,80,0,0

[Colours]
Combo1 : 255,203,179
Combo2 : 255,255,191
Combo3 : 255,206,231
Combo4 : 255,185,185

[HitObjects]
1,25,2603,6,0,P|49:14|98:2,1,90,6|2,3:2|0:0,0:0:0:0:
171,86,3340,1,2,3:2:0:0:
104,125,3586,2,0,P|110:181|122:261,1,120,10|2,0:0|0:0,0:0:0:0:
220,363,4570,6,0,P|264:338|317:350,1,90,2|2,3:2|3:2,0:0:0:0:
411,383,5308,1,2,3:2:0:0:
470,332,5554,2,0,P|477:272|486:201,1,120,10|2,0:0|0:0,0:0:0:0:
370,106,6537,6,0,P|395:145|388:194,1,90,2|2,3:2|0:0,0:0:0:0:
270,228,7275,1,2,3:2:0:0:
201,190,7521,2,0,P|141:200|82:210,1,120,10|0,0:0|0:0,0:0:0:0:
19,68,8504,6,0,P|68:63|110:87,1,90,2|2,3:2|3:2,0:0:0:0:
204,20,9242,1,2,3:2:0:0:
263,70,9488,2,0,P|321:81|401:81,1,132.00000402832,10|4,0:0|3:2,0:0:0:0:
471,44,10226,1,0,3:0:0:0:
504,122,10472,6,0,P|489:159|480:192,1,66.0000020141602,6|0,3:2|0:0,0:0:0:0:
446,208,10840,2,0,P|468:263|478:321,1,99.0000030212403,2|2,3:2|3:2,0:0:0:0:
416,363,11455,2,0,P|353:356|283:347,1,132.00000402832,2|8,3:2|0:0,0:0:0:0:
203,376,12193,1,2,0:3:0:0:
141,315,12439,6,0,P|144:281|149:240,1,66.0000020141602,2|0,3:2|0:0,0:0:0:0:
180,220,12808,2,0,P|215:247|290:239,1,99.0000030212403,2|2,3:2|3:2,0:0:0:0:
337,199,13422,2,0,P|329:129|320:37,1,132.00000402832,2|8,3:2|0:0,0:0:0:0:
255,14,14160,1,2,0:3:0:0:
206,84,14406,6,0,P|178:76|136:68,1,66.0000020141602,6|0,3:2|0:0,0:0:0:0:
117,33,14775,2,0,P|67:43|15:47,1,99.0000030212403,2|2,3:2|3:2,0:0:0:0:
6,132,15390,2,0,P|58:156|67:230,1,132.00000402832,2|8,3:2|0:0,0:0:0:0:
0,277,16127,1,2,0:3:0:0:
54,343,16373,6,0,P|89:335|124:329,1,66.0000020141602,6|0,3:2|0:0,0:0:0:0:
159,345,16742,2,0,P|191:379|258:372,1,99.0000030212403,2|2,3:2|3:2,0:0:0:0:
306,325,17357,2,0,P|352:323|420:318,1,99.0000030212403,6|2,3:2|0:0,0:0:0:0:
440,343,17849,5,0,3:0:0:0:
506,282,18095,2,0,P|500:246|492:198,1,66.0000020141602,2|6,3:2|3:2,0:0:0:0:
149,6,20308,6,0,P|110:10|50:19,1,90,6|2,3:2|3:2,0:0:0:0:
7,121,21045,1,2,3:2:0:0:
60,177,21291,2,0,L|37:309,1,120,8|2,0:0|3:2,0:0:0:0:
85,358,22029,1,0,3:0:0:0:
156,327,22275,2,0,P|206:224|129:119,1,240,2|0,3:2|0:0,0:0:0:0:
425,263,24242,6,0,P|477:256|515:252,1,90,6|2,3:2|3:2,0:0:0:0:
510,134,24980,1,2,3:2:0:0:
434,165,25226,2,0,P|374:169|321:143,1,120,8|2,0:0|3:2,0:0:0:0:
277,75,25963,1,0,3:0:0:0:
233,144,26209,2,0,P|244:233|255:322,1,180,2|0,3:2|0:0,0:0:0:0:
192,369,27193,2,0,L|127:358,2,60,8|0|8,0:0|3:0|0:0,0:0:0:0:
256,323,27931,1,0,3:0:0:0:
203,265,28176,6,0,P|199:235|191:163,1,90,6|2,3:2|3:2,0:0:0:0:
292,113,28914,1,2,3:2:0:0:
246,49,29160,2,0,P|188:39|132:67,1,120,8|2,0:0|3:2,0:0:0:0:
66,26,29898,1,0,3:0:0:0:
23,91,30144,2,0,P|36:161|47:216,1,120,2|0,3:2|0:0,0:0:0:0:
101,263,30881,1,0,3:2:0:0:
57,327,31127,2,0,P|24:335|-22:345,2,60,8|0|8,0:0|3:0|0:0,0:0:0:0:
126,363,31865,1,0,3:0:0:0:
194,325,32111,6,0,P|252:336|284:342,1,90,6|2,3:2|3:2,0:0:0:0:
395,374,32849,1,2,3:2:0:0:
461,333,33095,2,0,P|482:281|445:215,1,120,8|2,0:0|3:2,0:0:0:0:
510,78,34078,6,0,L|451:67,1,60,6|0,3:2|3:0,0:0:0:0:
413,135,34570,2,0,L|354:123,1,60,0|0,3:0|3:0,0:0:0:0:
282,155,35062,2,0,P|276:94|271:23,1,120,4|8,3:2|0:0,0:0:0:0:
197,11,35799,1,0,3:0:0:0:
143,78,36045,6,0,P|94:65|35:59,1,99.0000030212403,6|2,3:2|3:2,0:0:0:0:
7,78,36537,2,0,P|4:119|27:157,1,66.0000020141602,10|2,0:0|3:2,0:0:0:0:
83,191,37029,2,0,P|73:248|63:320,1,132.00000402832,2|8,3:2|0:0,0:0:0:0:
130,374,37767,1,0,3:0:0:0:
203,329,38013,6,0,P|251:337|315:346,1,99.0000030212403,6|2,3:2|3:2,0:0:0:0:
341,359,38504,2,0,P|371:347|410:346,1,66.0000020141602,10|2,0:0|3:2,0:0:0:0:
479,303,38996,2,0,P|473:272|469:238,1,66.0000020141602,2|0,3:2|3:0,0:0:0:0:
404,180,39488,2,0,P|408:147|414:114,1,66.0000020141602,8|0,0:0|3:0,0:0:0:0:
395,30,39980,6,0,L|287:53,1,99.0000030212403,6|2,3:2|3:2,0:0:0:0:
257,65,40472,2,0,P|232:43|200:38,1,66.0000020141602,10|2,0:0|3:2,0:0:0:0:
139,101,40963,2,0,P|146:159|157:232,1,132.00000402832,2|8,3:2|0:0,0:0:0:0:
103,299,41701,1,0,3:0:0:0:
169,353,41947,6,0,P|215:319|268:321,1,99.0000030212403,6|2,3:2|3:2,0:0:0:0:
294,295,42439,2,0,P|322:312|357:313,1,66.0000020141602,8|0,0:0|3:0,0:0:0:0:
433,279,42931,2,0,P|470:289|497:296,2,66.0000020141602,10|0|10,0:0|3:0|0:0,0:0:0:0:
354,313,43668,1,0,3:0:0:0:
348,227,43914,6,0,L|369:122,1,99.0000030212403,6|0,3:2|3:0,0:0:0:0:
340,95,44406,2,0,P|309:100|274:106,1,66.0000020141602,8|0,0:0|3:0,0:0:0:0:
211,47,44898,2,0,P|160:87|88:83,1,132.00000402832,0|8,3:0|0:0,0:0:0:0:
16,120,45636,1,0,3:0:0:0:
61,192,45881,6,0,P|68:262|74:302,1,99.0000030212403,6|2,3:2|3:2,0:0:0:0:
54,329,46373,2,0,P|85:341|126:332,1,66.0000020141602,8|0,0:0|3:0,0:0:0:0:
188,289,46865,2,0,P|229:298|257:304,1,66.0000020141602,6|0,3:2|0:0,0:0:0:0:
290,324,47234,2,0,P|336:306|401:308,1,99.0000030212403,2|2,3:2|3:2,0:0:0:0:
459,260,47849,6,0,P|463:212|470:144,1,99.0000030212403,4|0,3:2|3:0,0:0:0:0:
419,49,48586,1,0,3:0:0:0:
419,49,48832,1,4,3:2:0:0:
229,335,49816,6,0,P|179:326|116:317,1,99.0000030212403,6|0,3:2|3:0,0:0:0:0:
88,324,50308,2,0,L|79:254,1,66.0000020141602,10|0,0:0|3:0,0:0:0:0:
111,179,50799,2,0,P|178:191|235:133,1,132.00000402832,2|10,3:2|0:0,0:0:0:0:
260,73,51537,1,2,0:3:0:0:
329,123,51783,6,0,P|363:114|407:122,1,66.0000020141602,6|2,3:2|0:0,0:0:0:0:
423,147,52152,2,0,P|413:195|408:229,1,66.0000020141602,2|2,3:2|0:0,0:0:0:0:
421,253,52521,1,0,3:0:0:0:
367,320,52767,2,0,P|297:308|205:300,1,132.00000402832,0|10,3:0|0:0,0:0:0:0:
166,351,53504,1,2,0:3:0:0:
94,303,53750,6,0,P|89:266|79:236,1,66.0000020141602,6|2,3:2|0:0,0:0:0:0:
108,206,54119,1,2,3:2:0:0:
113,201,54242,2,0,P|120:166|130:131,1,66.0000020141602,8|2,0:0|3:2,0:0:0:0:
111,52,54734,2,0,P|148:53|182:81,1,66.0000020141602,2|2,3:2|0:0,0:0:0:0:
214,74,55103,2,0,P|262:64|327:42,1,99.0000030212403,2|2,3:2|3:0,0:0:0:0:
371,107,55717,6,0,P|440:124|516:134,2,132.00000402832,6|10|2,3:2|0:0|3:2,0:0:0:0:
234,222,57193,1,10,0:0:0:0:
283,291,57439,1,0,3:0:0:0:
230,358,57685,6,0,P|180:352|116:345,1,99.0000030212403,6|0,3:2|3:0,0:0:0:0:
89,353,58176,2,0,P|95:320|116:285,1,66.0000020141602,10|0,0:0|3:0,0:0:0:0:
54,222,58668,2,0,P|48:152|30:66,1,132.00000402832,2|10,3:2|0:0,0:0:0:0:
86,21,59406,1,2,0:3:0:0:
154,72,59652,6,0,P|182:82|233:80,1,66.0000020141602,2|2,3:2|0:0,0:0:0:0:
250,111,60021,2,0,P|312:96|336:94,1,66.0000020141602,2|2,3:2|0:0,0:0:0:0:
349,70,60390,1,0,3:0:0:0:
405,135,60636,2,0,P|368:178|375:252,1,132.00000402832,0|8,3:0|0:0,0:0:0:0:
437,307,61373,1,2,0:3:0:0:
375,367,61619,6,0,P|343:360|283:350,1,66.0000020141602,6|2,3:2|0:0,0:0:0:0:
276,327,61988,1,2,3:2:0:0:
270,324,62111,2,0,P|237:333|198:338,1,66.0000020141602,8|2,0:0|3:2,0:0:0:0:
123,363,62603,2,0,L|137:292,1,66.0000020141602,2|2,3:2|0:0,0:0:0:0:
152,258,62972,2,0,P|146:214|139:151,1,99.0000030212403,2|2,3:2|3:0,0:0:0:0:
174,81,63586,6,0,P|240:63|296:100,1,132.00000402832,6|8,3:2|0:0,0:0:0:0:
371,61,64324,1,2,3:2:0:0:
431,121,64570,2,0,P|419:171|410:217,1,99.0000030212403,2|2,3:2|3:2,0:0:0:0:
367,227,65062,2,0,P|388:254|397:290,1,66.0000020141602,8|0,0:0|3:0,0:0:0:0:
355,360,65554,6,0,P|402:347|457:343,2,99.0000030212403,6|2|2,3:2|3:2|3:2,0:0:0:0:
302,292,66537,2,0,P|255:279|200:275,2,99.0000030212403,2|2|2,3:2|3:2|3:2,0:0:0:0:
371,240,67521,2,0,P|411:265|459:257,2,99.0000030212403,6|6|6,3:2|3:2|3:2,0:0:0:0:
339,160,68504,2,0,P|298:133|251:141,2,99.0000030212403,6|6|6,3:2|3:2|3:2,0:0:0:0:
423,175,69488,6,0,P|430:119|436:71,1,99.0000030212403,6|0,3:2|3:0,0:0:0:0:
459,41,69980,2,0,P|428:56|384:50,1,66.0000020141602,10|0,0:0|3:0,0:0:0:0:
318,89,70472,2,0,P|258:66|174:64,1,132.00000402832,2|10,3:2|0:0,0:0:0:0:
126,120,71209,1,2,0:3:0:0:
40,108,71455,6,0,P|49:139|58:171,1,66.0000020141602,6|2,3:2|0:0,0:0:0:0:
79,208,71824,2,0,P|70:242|62:273,1,66.0000020141602,2|2,3:2|0:0,0:0:0:0:
27,297,72193,1,0,3:0:0:0:
74,368,72439,2,0,P|137:359|226:349,1,132.00000402832,0|10,3:0|0:0,0:0:0:0:
281,311,73176,1,2,0:3:0:0:
220,250,73422,6,0,P|225:217|233:180,1,66.0000020141602,6|2,3:2|0:0,0:0:0:0:
257,148,73791,1,2,3:2:0:0:
259,142,73914,2,0,P|253:109|246:72,1,66.0000020141602,8|2,0:0|3:2,0:0:0:0:
305,14,74406,2,0,P|335:0|367:2,1,66.0000020141602,2|2,3:2|0:0,0:0:0:0:
398,32,74775,2,0,P|457:39|497:44,1,99.0000030212403,2|2,3:2|3:0,0:0:0:0:
451,117,75390,6,0,P|414:169|432:242,2,132.00000402832,6|10|0,3:2|0:0|3:0,0:0:0:0:
339,247,76865,1,8,0:0:0:0:
366,328,77111,1,0,3:0:0:0:
292,372,77357,6,0,P|249:364|190:357,1,99.0000030212403,6|0,3:2|3:0,0:0:0:0:
162,328,77849,2,0,P|128:344|89:345,1,66.0000020141602,10|0,0:0|3:0,0:0:0:0:
23,306,78340,2,0,P|31:233|42:156,1,132.00000402832,2|10,3:2|0:0,0:0:0:0:
5,95,79078,1,2,0:3:0:0:
68,36,79324,6,0,P|102:52|156:59,1,66.0000020141602,6|2,3:2|0:0,0:0:0:0:
161,87,79693,2,0,P|211:70|247:69,1,66.0000020141602,2|2,3:2|0:0,0:0:0:0:
262,50,80062,1,0,3:0:0:0:
325,107,80308,2,0,P|370:56|448:64,1,132.00000402832,0|10,3:0|0:0,0:0:0:0:
488,117,81045,1,2,0:3:0:0:
444,191,81291,6,0,P|450:236|456:276,1,66.0000020141602,6|2,3:2|0:0,0:0:0:0:
426,290,81660,1,2,3:2:0:0:
420,293,81783,2,0,L|325:277,1,66.0000020141602,8|2,0:0|3:2,0:0:0:0:
303,351,82275,2,0,P|266:358|236:344,1,66.0000020141602,2|2,3:2|0:0,0:0:0:0:
207,319,82644,2,0,P|214:267|223:203,1,99.0000030212403,2|2,3:2|3:0,0:0:0:0:
150,171,83258,6,0,P|124:105|166:43,1,132.00000402832,6|8,3:2|0:0,0:0:0:0:
224,96,83996,1,2,3:2:0:0:
302,61,84242,1,6,3:2:0:0:
122,353,85226,6,0,P|81:349|21:342,2,99.0000030212403,6|2|2,3:2|3:2|3:2,0:0:0:0:
165,278,86209,2,0,P|206:274|266:267,2,99.0000030212403,6|2|2,3:2|3:2|3:2,0:0:0:0:
128,199,87193,1,6,3:2:0:0:
