osu file format v14

[General]
AudioFilename: audio.mp3
AudioLeadIn: 0
PreviewTime: 49151
Countdown: 0
SampleSet: Soft
StackLeniency: 0.5
Mode: 0
LetterboxInBreaks: 0
WidescreenStoryboard: 0

[Editor]
DistanceSpacing: 1.3
BeatDivisor: 4
GridSize: 32
TimelineZoom: 2.999999

[Metadata]
Title:Koi wa Milk Tea (TV Size)
TitleUnicode:恋はみるくてぃ (TV Size)
Artist:petit milady
ArtistUnicode:petit milady
Creator:Shocko
Version:Hard
Source:六畳間の侵略者!?
Tags:rokujouma no shinryakusha!? invaders of the rokujouma!? ending ed anime japanese pop j-pop garden fushimi rio imoutosan female vocals
BeatmapID:2432922
BeatmapSetID:1164149

[Difficulty]
HPDrainRate:5
CircleSize:4
OverallDifficulty:6
ApproachRate:8
SliderMultiplier:1.6
SliderTickRate:1

[Events]
//Background and Video events
0,0,"222.jpg",0,0
//Break Periods
//Storyboard Layer 0 (Background)
//Storyboard Layer 1 (Fail)
//Storyboard Layer 2 (Pass)
//Storyboard Layer 3 (Foreground)
//Storyboard Layer 4 (Overlay)
//Storyboard Sound Samples

[TimingPoints]
636,491.803278688525,4,2,1,70,1,0
1865,-125,4,2,1,70,0,0
2603,-125,4,2,2,50,0,0
9488,-125,4,2,1,70,0,0
10472,-100,4,2,2,80,0,0
19570,-100,4,2,2,70,0,0
19816,-100,4,2,1,70,0,0
20308,-125,4,2,2,50,0,0
35062,-125,4,2,1,70,0,0
36045,-100,4,2,2,60,0,0
49816,-90.9090909090909,4,2,2,80,0,1
55717,-90.9090909090909,4,2,1,80,0,1
57685,-90.9090909090909,4,2,2,80,0,1
65554,-90.9090909090909,4,2,1,70,0,0
69488,-90.9090909090909,4,2,2,80,0,1
75390,-90.9090909090909,4,2,1,80,0,1
77357,-90.9090909090909,4,2,2,80,0,1
84119,-90.9090909090909,4,2,1,80,0,1
84242,-90.9090909090909,4,2,1,80,0,0

[Colours]
Combo1 : 255,203,179
Combo2 : 255,255,191
Combo3 : 255,206,231
Combo4 : 255,185,185

[HitObjects]
16,291,1865,6,0,P|21:275|26:260,2,32,0|0|2,3:2|3:2|0:1,0:0:0:0:
21,298,2603,6,0,P|68:290|124:282,1,96,6|2,3:2|0:0,0:0:0:0:
235,382,3340,1,2,3:2:0:0:
316,343,3586,2,0,P|323:278|331:215,1,128,10|2,0:0|0:0,0:0:0:0:
394,149,4324,5,0,3:0:0:0:
394,149,4447,1,0,3:0:0:0:
394,149,4570,2,0,P|447:154|492:158,1,96,2|2,3:2|3:2,0:0:0:0:
389,21,5308,1,2,3:2:0:0:
305,67,5554,2,0,P|261:26|188:34,1,128,10|2,0:0|0:0,0:0:0:0:
135,109,6291,5,0,3:0:0:0:
135,109,6414,1,0,3:0:0:0:
135,109,6537,2,0,P|142:174|147:223,1,96,2|2,3:2|0:0,0:0:0:0:
42,328,7275,1,2,3:2:0:0:
116,382,7521,2,0,P|174:342|239:357,1,128,10|0,0:0|0:0,0:0:0:0:
318,374,8258,5,0,3:0:0:0:
318,374,8381,1,0,3:0:0:0:
318,374,8504,2,0,P|366:369|439:365,1,96,2|2,3:2|3:2,0:0:0:0:
512,252,9242,1,2,3:2:0:0:
466,169,9488,6,0,L|476:128,2,42.6666666666667,10|0|0,0:0|3:0|3:0,0:0:0:0:
399,236,9980,2,0,P|365:230|319:224,1,64,4|0,3:2|3:0,0:0:0:0:
280,169,10349,1,0,3:0:0:0:
287,159,10472,6,0,P|292:121|299:66,1,80,6|0,3:2|0:0,0:0:0:0:
246,30,10840,2,0,L|207:36,1,40,2|8,3:2|0:0,0:0:0:0:
107,0,11209,1,2,3:2:0:0:
51,104,11455,6,0,P|58:164|64:225,1,120,2|0,3:2|3:0,0:0:0:0:
44,239,11947,1,8,0:0:0:0:
110,342,12193,1,2,0:3:0:0:
110,342,12316,1,2,0:3:0:0:
110,342,12439,6,0,P|165:335|206:331,1,80,2|0,3:2|0:0,0:0:0:0:
268,344,12808,2,0,L|274:304,1,40,2|8,3:2|0:0,0:0:0:0:
206,216,13176,1,2,3:2:0:0:
293,146,13422,2,0,P|344:175|403:167,1,120,2|0,3:2|3:0,0:0:0:0:
429,135,13914,1,8,0:0:0:0:
512,217,14160,1,2,0:3:0:0:
512,217,14283,1,2,0:3:0:0:
512,217,14406,6,0,P|507:265|503:297,1,80,6|0,3:2|0:0,0:0:0:0:
445,343,14775,2,0,L|406:335,1,40,2|8,3:2|0:0,0:0:0:0:
311,384,15144,1,2,3:2:0:0:
220,330,15390,2,0,B|161:319|165:366|101:358,1,120,2|0,3:2|3:0,0:0:0:0:
70,352,15881,1,8,0:0:0:0:
12,260,16127,1,2,0:3:0:0:
16,256,16250,1,2,0:3:0:0:
20,251,16373,6,0,L|30:158,1,80,6|0,3:2|0:0,0:0:0:0:
84,109,16742,2,0,P|144:99|196:141,1,120,2|2,3:2|3:2,0:0:0:0:
273,194,17357,6,0,P|312:190|352:186,1,80,6|0,3:2|3:0,0:0:0:0:
418,134,17726,1,2,0:0:0:0:
418,134,17849,6,0,L|444:138,2,26.6666666666667,0|0|0,3:0|3:0|3:0,0:0:0:0:
459,157,18095,2,0,L|485:161,2,26.6666666666667,0|0|0,3:0|3:0|3:0,0:0:0:0:
504,178,18340,1,4,0:0:0:0:
55,68,19570,6,0,L|66:22,2,40,0|0|2,3:0|3:0|0:1,0:0:0:0:
49,74,20308,6,0,P|55:115|63:170,1,96,6|2,3:2|3:2,0:0:0:0:
4,307,21045,1,2,3:2:0:0:
68,366,21291,2,0,P|121:326|198:335,1,128,8|2,0:0|3:2,0:0:0:0:
262,374,22029,1,0,3:0:0:0:
329,312,22275,2,0,P|323:233|311:118,1,192,2|0,3:2|0:0,0:0:0:0:
367,49,23258,1,8,0:0:0:0:
193,203,24242,6,0,P|162:200|80:193,1,96,6|2,3:2|3:2,0:0:0:0:
70,32,24980,1,2,3:2:0:0:
147,74,25226,2,0,P|213:74|266:7,1,128,8|2,0:0|3:2,0:0:0:0:
323,97,25963,1,0,3:0:0:0:
412,36,26209,2,0,P|404:103|391:230,1,192,2|0,3:2|0:0,0:0:0:0:
453,298,27193,5,8,0:0:0:0:
390,360,27439,2,0,P|369:355|326:348,1,64,0|8,3:0|0:0,0:0:0:0:
248,280,27931,1,0,3:0:0:0:
248,280,28054,1,0,3:0:0:0:
248,280,28176,6,0,P|212:311|155:313,1,96,6|2,3:2|3:2,0:0:0:0:
53,178,28914,1,2,3:2:0:0:
0,247,29160,2,0,P|65:233|129:227,1,128,8|2,0:0|3:2,0:0:0:0:
165,315,29898,1,0,3:0:0:0:
250,272,30144,2,0,P|264:210|222:158,1,128,2|0,3:2|0:0,0:0:0:0:
157,92,30881,5,0,3:0:0:0:
241,63,31127,2,0,P|243:35|246:-1,2,64,8|0|8,0:0|3:0|0:0,0:0:0:0:
320,123,31865,1,0,3:0:0:0:
320,123,31988,1,0,3:0:0:0:
320,123,32111,6,0,P|374:114|441:103,1,96,6|2,3:2|3:2,0:0:0:0:
512,243,32849,1,2,3:2:0:0:
460,319,33095,2,0,P|393:309|313:296,1,128,8|2,0:0|3:2,0:0:0:0:
276,376,33832,1,0,3:0:0:0:
182,318,34078,6,0,P|157:323|113:335,1,64,6|0,3:2|3:0,0:0:0:0:
62,259,34570,2,0,P|37:253|-7:242,1,64,0|0,3:0|3:0,0:0:0:0:
77,108,35062,6,0,L|74:66,2,42.6666666666667,4|0|0,3:2|3:0|3:0,0:0:0:0:
0,164,35554,1,8,0:0:0:0:
100,204,35799,5,0,3:0:0:0:
106,207,35922,1,0,3:0:0:0:
112,209,36045,2,0,P|165:198|233:186,1,120,6|2,3:2|3:2,0:0:0:0:
250,158,36537,1,10,0:0:0:0:
347,180,36783,1,2,3:2:0:0:
426,105,37029,2,0,P|434:144|444:182,1,80,2|0,3:2|0:0,0:0:0:0:
512,259,37521,1,8,0:0:0:0:
458,358,37767,1,0,3:0:0:0:
458,358,37890,1,0,3:0:0:0:
458,358,38013,6,0,P|417:348|374:343,1,80,6|0,3:2|0:0,0:0:0:0:
309,375,38381,1,2,3:2:0:0:
297,382,38504,2,0,L|213:374,1,80,10|2,0:0|3:2,0:0:0:0:
178,304,38873,1,0,0:0:0:0:
175,295,38996,5,2,3:2:0:0:
78,346,39242,1,0,3:0:0:0:
9,264,39488,2,0,P|6:234|2:172,1,80,8|0,0:0|3:0,0:0:0:0:
32,106,39857,1,0,0:0:0:0:
38,103,39980,6,0,P|90:94|148:136,1,120,6|2,3:2|3:2,0:0:0:0:
166,145,40472,1,10,0:0:0:0:
257,86,40717,1,2,3:2:0:0:
349,140,40963,2,0,P|341:188|335:240,1,80,2|0,3:2|0:0,0:0:0:0:
253,287,41455,1,8,0:0:0:0:
342,362,41701,1,0,3:0:0:0:
342,362,41824,1,0,3:0:0:0:
342,362,41947,6,0,P|384:363|436:366,1,80,6|2,3:2|0:0,0:0:0:0:
490,318,42316,1,2,3:2:0:0:
494,312,42439,2,0,P|492:269|487:214,1,80,8|0,0:0|3:0,0:0:0:0:
440,169,42808,1,0,0:0:0:0:
435,163,42931,5,10,0:0:0:0:
494,75,43176,1,0,3:0:0:0:
414,10,43422,1,10,0:0:0:0:
316,51,43668,1,0,3:0:0:0:
316,51,43791,1,0,3:0:0:0:
316,51,43914,6,0,P|261:44|193:32,1,120,6|0,3:2|3:0,0:0:0:0:
174,51,44406,1,8,0:0:0:0:
79,15,44652,1,2,3:2:0:0:
4,79,44898,2,0,L|22:164,1,80,0|0,3:0|0:0,0:0:0:0:
76,213,45267,1,0,3:0:0:0:
74,219,45390,1,8,0:0:0:0:
13,323,45636,1,0,3:0:0:0:
13,323,45758,1,0,3:0:0:0:
13,323,45881,6,0,L|102:312,1,80,6|2,3:2|0:0,0:0:0:0:
159,366,46250,1,2,3:2:0:0:
163,361,46373,2,0,P|168:324|177:279,1,80,8|0,0:0|3:0,0:0:0:0:
299,259,46865,6,0,P|361:270|428:284,1,120,6|2,3:2|3:2,0:0:0:0:
432,300,47357,1,8,0:0:0:0:
510,221,47603,1,2,3:2:0:0:
446,119,47849,6,0,P|461:49|477:-13,2,120,4|0|0,3:2|3:0|3:0,0:0:0:0:
350,163,48832,1,4,3:2:0:0:
140,326,49816,6,0,P|87:286|25:312,1,132.00000402832,6|0,3:2|3:0,0:0:0:0:
3,291,50308,1,10,0:0:0:0:
37,186,50554,1,0,3:0:0:0:
42,183,50676,1,0,0:0:0:0:
47,180,50799,6,0,P|102:188|146:194,1,88.000002685547,2|0,3:2|0:0,0:0:0:0:
175,90,51291,1,10,0:0:0:0:
247,153,51537,2,0,L|243:198,1,44.0000013427735,2|2,0:3|0:3,0:0:0:0:
300,245,51783,6,0,P|349:237|404:230,1,88.000002685547,6|2,3:2|0:0,0:0:0:0:
453,274,52152,1,2,3:2:0:0:
458,279,52275,1,8,0:0:0:0:
511,183,52521,1,0,3:0:0:0:
473,82,52767,2,0,P|420:75|330:61,1,132.00000402832,0|0,3:0|3:0,0:0:0:0:
322,36,53258,1,10,0:0:0:0:
253,114,53504,1,2,0:3:0:0:
248,110,53627,1,2,0:3:0:0:
243,106,53750,6,0,P|198:94|148:82,1,88.000002685547,6|2,3:2|0:0,0:0:0:0:
97,131,54119,1,2,3:2:0:0:
88,133,54242,1,8,0:0:0:0:
20,223,54488,1,2,3:2:0:0:
81,308,54734,6,0,P|124:298|184:285,1,88.000002685547,2|2,3:2|0:0,0:0:0:0:
197,303,55103,2,0,P|259:295|302:352,1,132.00000402832,2|0,3:2|3:0,0:0:0:0:
377,378,55595,1,0,3:0:0:0:
393,370,55717,6,0,P|436:378|465:383,1,58.6666684570313,6|2,3:2|0:0,0:0:0:0:
512,314,56045,1,2,0:0:0:0:
445,248,56209,2,0,L|455:190,2,58.6666684570313,10|2|2,0:0|0:0|0:0,0:0:0:0:
365,182,56701,2,0,L|353:124,2,58.6666684570313,2|2|2,3:2|3:2|3:2,0:0:0:0:
457,90,57193,1,10,0:0:0:0:
374,20,57439,1,0,3:0:0:0:
374,20,57562,1,0,3:0:0:0:
374,20,57685,6,0,B|324:51|324:51|244:25,1,132.00000402832,6|0,3:2|3:0,0:0:0:0:
224,19,58176,1,10,0:0:0:0:
139,87,58422,1,0,3:0:0:0:
203,168,58668,2,0,P|246:174|289:182,1,88.000002685547,2|0,3:2|0:0,0:0:0:0:
360,218,59037,1,0,3:0:0:0:
356,225,59160,1,10,0:0:0:0:
307,317,59406,2,0,P|282:311|265:307,1,44.0000013427735,2|2,0:3|0:3,0:0:0:0:
200,360,59652,6,0,L|110:371,1,88.000002685547,2|2,3:2|0:0,0:0:0:0:
51,320,60021,1,2,3:2:0:0:
54,314,60144,1,8,0:0:0:0:
118,223,60390,1,0,3:0:0:0:
26,167,60636,2,0,P|16:101|5:36,1,132.00000402832,0|0,3:0|3:0,0:0:0:0:
26,9,61127,1,8,0:0:0:0:
121,68,61373,1,2,0:3:0:0:
121,68,61496,1,2,0:3:0:0:
121,68,61619,6,0,P|170:56|224:46,1,88.000002685547,6|2,3:2|0:0,0:0:0:0:
270,88,61988,1,2,3:2:0:0:
276,93,62111,1,8,0:0:0:0:
195,169,62357,1,2,3:2:0:0:
287,231,62603,2,0,P|278:274|270:317,1,88.000002685547,2|2,3:2|0:0,0:0:0:0:
306,342,62972,2,0,P|367:327|412:371,1,132.00000402832,2|2,3:2|0:3,0:0:0:0:
493,338,63463,1,2,0:3:0:0:
497,331,63586,6,0,P|502:261|512:198,1,132.00000402832,6|0,3:2|3:0,0:0:0:0:
491,174,64078,1,8,0:0:0:0:
422,99,64324,1,2,3:2:0:0:
422,99,64447,1,2,0:0:0:0:
422,99,64570,2,0,P|362:111|303:122,1,88.000002685547,2|0,3:2|0:0,0:0:0:0:
271,83,64939,1,2,3:2:0:0:
274,76,65062,1,8,0:0:0:0:
194,4,65308,1,2,3:2:0:0:
120,104,65554,6,0,P|77:87|26:107,1,88.000002685547,6|0,3:2|0:0,0:0:0:0:
0,171,65922,2,0,P|13:240|26:312,1,132.00000402832,2|2,3:2|3:2,0:0:0:0:
170,334,66537,6,0,P|223:322|260:313,1,88.000002685547,2|0,3:2|0:0,0:0:0:0:
330,351,66906,2,0,B|391:342|394:385|458:384,1,132.00000402832,2|2,3:2|3:2,0:0:0:0:
493,263,67521,6,0,P|503:220|517:177,1,88.000002685547,6|0,3:2|0:0,0:0:0:0:
449,131,67890,2,0,P|394:168|318:141,1,132.00000402832,6|6,3:2|3:2,0:0:0:0:
215,17,68504,6,0,B|241:54|241:54|228:102,1,88.000002685547,6|0,3:2|0:0,0:0:0:0:
165,154,68873,2,0,B|139:117|139:117|151:76,1,88.000002685547,6|0,3:2|0:0,0:0:0:0:
72,50,69242,1,6,3:2:0:0:
6,164,69488,6,0,P|17:227|32:304,1,132.00000402832,6|0,3:2|3:0,0:0:0:0:
11,316,69980,1,10,0:0:0:0:
116,350,70226,1,0,3:0:0:0:
119,355,70349,1,0,0:0:0:0:
123,360,70472,2,0,P|169:370|219:384,1,88.000002685547,2|0,3:2|0:0,0:0:0:0:
285,312,70963,1,10,0:0:0:0:
379,369,71209,2,0,L|387:319,1,44.0000013427735,2|2,0:3|0:3,0:0:0:0:
433,262,71455,6,0,P|429:217|423:167,1,88.000002685547,6|2,3:2|0:0,0:0:0:0:
366,121,71824,1,2,3:2:0:0:
356,127,71947,1,8,0:0:0:0:
277,207,72193,1,0,3:0:0:0:
191,141,72439,2,0,P|137:106|64:127,1,132.00000402832,0|0,3:0|3:0,0:0:0:0:
45,96,72931,1,10,0:0:0:0:
3,203,73176,1,2,0:3:0:0:
3,203,73299,1,2,0:3:0:0:
8,206,73422,6,0,P|24:246|39:294,1,88.000002685547,6|2,3:2|0:0,0:0:0:0:
102,330,73791,1,2,3:2:0:0:
110,325,73914,1,8,0:0:0:0:
197,259,74160,1,2,3:2:0:0:
258,349,74406,2,0,P|317:356|368:371,1,88.000002685547,2|2,3:2|0:0,0:0:0:0:
390,351,74775,2,0,P|420:304|373:217,1,132.00000402832,2|0,3:2|3:0,0:0:0:0:
327,190,75267,1,0,3:0:0:0:
315,177,75390,6,0,P|319:138|324:100,1,58.6666684570313,6|2,3:2|3:2,0:0:0:0:
390,56,75717,1,2,3:2:0:0:
305,9,75881,2,0,P|281:18|237:26,2,58.6666684570313,10|2|2,0:0|3:2|3:2,0:0:0:0:
200,108,76373,2,0,P|176:98|132:91,2,58.6666684570313,0|0|0,3:0|3:0|0:0,0:0:0:0:
89,0,76865,1,8,0:0:0:0:
20,89,77111,1,0,3:0:0:0:
20,89,77234,1,0,3:0:0:0:
20,89,77357,6,0,B|57:121|57:121|27:211,1,132.00000402832,6|0,3:2|3:0,0:0:0:0:
5,219,77849,1,10,0:0:0:0:
92,268,78095,1,0,3:0:0:0:
32,360,78340,2,0,P|86:354|131:350,1,88.000002685547,2|0,3:2|0:0,0:0:0:0:
196,370,78709,1,0,3:0:0:0:
203,381,78832,1,10,0:0:0:0:
269,292,79078,2,0,L|317:300,1,44.0000013427735,2|2,0:3|0:3,0:0:0:0:
378,341,79324,6,0,P|427:333|481:329,1,88.000002685547,6|2,3:2|0:0,0:0:0:0:
505,264,79693,1,2,3:2:0:0:
497,254,79816,1,8,0:0:0:0:
451,154,80062,1,0,3:0:0:0:
363,216,80308,2,0,P|317:173|249:188,1,132.00000402832,0|0,3:0|3:0,0:0:0:0:
228,165,80799,1,10,0:0:0:0:
154,249,81045,1,2,0:3:0:0:
154,249,81168,1,2,0:3:0:0:
154,249,81291,6,0,P|112:239|42:229,1,88.000002685547,6|2,3:2|0:0,0:0:0:0:
8,173,81660,1,2,3:2:0:0:
12,167,81783,1,8,0:0:0:0:
96,103,82029,1,2,3:2:0:0:
38,8,82275,2,0,P|97:13|157:20,1,88.000002685547,2|2,3:2|0:0,0:0:0:0:
163,32,82644,2,0,P|226:6|285:21,1,132.00000402832,2|2,3:2|0:3,0:0:0:0:
343,75,83136,1,2,0:3:0:0:
336,85,83258,6,0,P|326:152|318:222,1,132.00000402832,6|0,3:2|3:0,0:0:0:0:
248,274,83750,2,0,P|202:265|158:256,1,88.000002685547,8|2,0:0|3:2,0:0:0:0:
303,353,84242,1,6,3:2:0:0:
46,12,85226,6,0,P|91:17|133:22,1,88.000002685547,6|0,3:2|0:0,0:0:0:0:
204,70,85595,2,0,P|265:27|326:46,1,132.00000402832,2|2,3:2|3:2,0:0:0:0:
459,110,86209,6,0,P|448:152|437:195,1,88.000002685547,6|0,3:2|0:0,0:0:0:0:
502,250,86578,2,0,P|521:288|513:330,1,88.000002685547,2|0,3:2|0:0,0:0:0:0:
439,382,86947,1,2,3:2:0:0:
348,284,87193,5,6,3:2:0:0:
