osu file format v14

[General]
AudioFilename: audio.mp3
AudioLeadIn: 0
PreviewTime: 49151
Countdown: 0
SampleSet: Soft
StackLeniency: 0.3
Mode: 0
LetterboxInBreaks: 0
WidescreenStoryboard: 0

[Editor]
DistanceSpacing: 0.7
BeatDivisor: 4
GridSize: 32
TimelineZoom: 3.099999

[Metadata]
Title:Koi wa Milk Tea (TV Size)
TitleUnicode:恋はみるくてぃ (TV Size)
Artist:petit milady
ArtistUnicode:petit milady
Creator:Shocko
Version:Amai
Source:六畳間の侵略者!?
Tags:rokujouma no shinryakusha!? invaders of the rokujouma!? ending ed anime japanese pop j-pop garden fushimi rio imoutosan female vocals
BeatmapID:2428468
BeatmapSetID:1164149

[Difficulty]
HPDrainRate:6
CircleSize:4.6
OverallDifficulty:8
ApproachRate:9.2
SliderMultiplier:1.9
SliderTickRate:1

[Events]
//Background and Video events
0,0,"222.jpg",0,0
//Break Periods
//Storyboard Layer 0 (Background)
//Storyboard Layer 1 (Fail)
//Storyboard Layer 2 (Pass)
//Storyboard Layer 3 (Foreground)
//Storyboard Layer 4 (Overlay)
//Storyboard Sound Samples

[TimingPoints]
636,491.803278688525,4,2,1,70,1,0
1865,-100,4,2,1,50,0,0
2111,-58.8235294117647,4,2,1,50,0,0
2480,-58.8235294117647,4,2,1,5,0,0
2603,-133.333333333333,4,2,2,40,0,0
9488,-50,4,2,1,70,0,0
10472,-66.6666666666667,4,2,2,80,0,0
16373,-76.9230769230769,4,2,2,70,0,0
16742,-62.5,4,2,2,70,0,0
17111,-62.5,4,2,2,70,0,0
17357,-55.5555555555556,4,2,2,80,0,0
19816,-55.5555555555556,4,2,1,70,0,0
20246,-55.5555555555556,4,2,1,5,0,0
20308,-133.333333333333,4,2,2,50,0,0
22029,-333.333333333333,4,2,2,50,0,0
22213,-333.333333333333,4,2,2,5,0,0
22275,-133.333333333333,4,2,2,50,0,0
23136,-133.333333333333,4,2,2,5,0,0
23258,-133.333333333333,4,2,2,50,0,0
25963,-333.333333333333,4,2,2,50,0,0
26148,-333.333333333333,4,2,2,5,0,0
26209,-133.333333333333,4,2,2,50,0,0
27070,-133.333333333333,4,2,2,5,0,0
27193,-133.333333333333,4,2,2,50,0,0
27439,-200,4,2,2,50,0,0
27623,-200,4,2,2,5,0,0
27685,-200,4,2,2,50,0,0
28176,-133.333333333333,4,2,2,50,0,0
29898,-333.333333333333,4,2,2,50,0,0
30082,-333.333333333333,4,2,2,5,0,0
30144,-133.333333333333,4,2,2,50,0,0
30758,-133.333333333333,4,2,2,5,0,0
30881,-200,4,2,2,50,0,0
31066,-200,4,2,2,5,0,0
31127,-200,4,2,2,50,0,0
31558,-200,4,2,2,5,0,0
31619,-200,4,2,2,50,0,0
32111,-133.333333333333,4,2,2,50,0,0
33832,-333.333333333333,4,2,2,50,0,0
34017,-333.333333333333,4,2,2,5,0,0
34078,-100,4,2,2,50,0,0
34263,-100,4,2,2,5,0,0
34324,-100,4,2,2,50,0,0
34508,-100,4,2,2,5,0,0
34570,-100,4,2,2,50,0,0
34754,-100,4,2,2,5,0,0
34816,-100,4,2,2,50,0,0
35000,-100,4,2,2,5,0,0
35062,-100,4,2,1,70,0,0
36045,-83.3333333333333,4,2,2,60,0,0
37459,-83.3333333333333,4,2,2,5,0,0
37521,-83.3333333333333,4,2,2,60,0,0
39734,-333.333333333333,4,2,2,60,0,0
39918,-333.333333333333,4,2,2,5,0,0
39980,-83.3333333333333,4,2,2,60,0,0
41394,-83.3333333333333,4,2,2,5,0,0
41455,-83.3333333333333,4,2,2,60,0,0
45328,-83.3333333333333,4,2,2,5,0,0
45390,-62.5,4,2,1,60,0,0
45574,-62.5,4,2,2,5,0,0
45636,-333.333333333333,4,2,2,60,0,0
45881,-71.4285714285714,4,2,2,70,0,0
46865,-71.4285714285714,4,2,2,70,0,0
47849,-71.4285714285714,4,2,2,70,0,0
48156,-71.4285714285714,4,2,2,5,0,0
48217,-100,4,2,2,70,0,0
48525,-100,4,2,2,5,0,0
48586,-133.333333333333,4,2,2,70,0,0
48771,-133.333333333333,4,2,2,5,0,0
48832,-133.333333333333,4,2,2,70,0,0
49816,-66.6666666666667,4,2,2,80,0,1
53504,-333.333333333333,4,2,2,80,0,1
53750,-66.6666666666667,4,2,2,80,0,1
55717,-45.4545454545455,4,2,1,80,0,1
55799,-45.4545454545455,4,2,1,5,0,1
55881,-45.4545454545455,4,2,1,80,0,1
55963,-45.4545454545455,4,2,1,5,0,1
56045,-45.4545454545455,4,2,1,80,0,1
56127,-45.4545454545455,4,2,1,5,0,1
56209,-45.4545454545455,4,2,1,80,0,1
56291,-45.4545454545455,4,2,1,5,0,1
56373,-45.4545454545455,4,2,1,80,0,1
56455,-45.4545454545455,4,2,1,5,0,1
56537,-45.4545454545455,4,2,1,80,0,1
56619,-45.4545454545455,4,2,1,5,0,1
56701,-45.4545454545455,4,2,1,80,0,1
56783,-45.4545454545455,4,2,1,5,0,1
56865,-45.4545454545455,4,2,1,80,0,1
56947,-45.4545454545455,4,2,1,5,0,1
57029,-45.4545454545455,4,2,1,80,0,1
57111,-45.4545454545455,4,2,1,5,0,1
57193,-45.4545454545455,4,2,1,80,0,1
57685,-66.6666666666667,4,2,2,80,0,1
63586,-58.8235294117647,4,2,2,80,0,1
64570,-66.6666666666667,4,2,2,80,0,1
65554,-100,4,2,2,70,0,0
65861,-100,4,2,2,5,0,0
65922,-66.6666666666667,4,2,1,70,0,0
66230,-66.6666666666667,4,2,1,5,0,0
66291,-50,4,2,1,70,0,0
66414,-50,4,2,1,5,0,0
66537,-83.3333333333333,4,2,1,70,0,0
66845,-83.3333333333333,4,2,1,5,0,0
66906,-58.8235294117647,4,2,1,70,0,0
67213,-58.8235294117647,4,2,1,5,0,0
67275,-47.6190476190476,4,2,1,70,0,0
67398,-47.6190476190476,4,2,1,5,0,0
67521,-71.4285714285714,4,2,1,70,0,0
67828,-71.4285714285714,4,2,1,5,0,0
67890,-52.6315789473684,4,2,1,70,0,0
68197,-52.6315789473684,4,2,1,5,0,0
68258,-45.4545454545455,4,2,1,70,0,0
68381,-45.4545454545455,4,2,1,5,0,0
68504,-62.5,4,2,1,70,0,0
68812,-62.5,4,2,1,5,0,0
68873,-47.6190476190476,4,2,1,70,0,0
69181,-47.6190476190476,4,2,1,5,0,0
69242,-43.4782608695652,4,2,1,70,0,0
69365,-43.4782608695652,4,2,1,5,0,0
69488,-66.6666666666667,4,2,2,80,0,1
75390,-45.4545454545455,4,2,1,80,0,1
75472,-45.4545454545455,4,2,1,5,0,1
75554,-45.4545454545455,4,2,1,80,0,1
75636,-45.4545454545455,4,2,1,5,0,1
75717,-45.4545454545455,4,2,1,80,0,1
75799,-45.4545454545455,4,2,1,5,0,1
75881,-45.4545454545455,4,2,1,80,0,1
75963,-45.4545454545455,4,2,1,5,0,1
76045,-45.4545454545455,4,2,1,80,0,1
76127,-45.4545454545455,4,2,1,5,0,1
76209,-45.4545454545455,4,2,1,80,0,1
76291,-45.4545454545455,4,2,1,5,0,1
76373,-45.4545454545455,4,2,1,80,0,1
76455,-45.4545454545455,4,2,1,5,0,1
76537,-66.6666666666667,4,2,1,80,0,1
77357,-66.6666666666667,4,2,2,80,0,1
84242,-100,4,2,1,80,0,0
85226,-58.8235294117647,4,2,1,80,0,0
85533,-58.8235294117647,4,2,1,5,0,0
85595,-58.8235294117647,4,2,1,80,0,0
85902,-58.8235294117647,4,2,1,5,0,0
85963,-58.8235294117647,4,2,1,80,0,0
86086,-58.8235294117647,4,2,1,5,0,0
86209,-45.4545454545455,4,2,1,80,0,0
86517,-45.4545454545455,4,2,1,5,0,0
86578,-45.4545454545455,4,2,1,80,0,0
86886,-45.4545454545455,4,2,1,5,0,0
86947,-45.4545454545455,4,2,1,80,0,0
87070,-45.4545454545455,4,2,1,5,0,0
87193,-76.9230769230769,4,2,1,80,0,0
87931,-76.9230769230769,4,2,1,15,0,0

[Colours]
Combo1 : 255,203,179
Combo2 : 255,255,191
Combo3 : 255,206,231
Combo4 : 255,185,185

[HitObjects]
113,276,1865,5,0,3:2:0:0:
110,281,1988,1,0,3:2:0:0:
109,286,2111,2,0,B|-45:368|-69:276|-4:253|48:337,1,242.250004620552,2|0,0:1|0:0,0:0:0:0:
141,384,2603,6,0,P|186:373|256:361,2,106.875004076958,6|2|2,3:2|0:0|3:2,0:0:0:0:
275,257,3586,2,0,P|327:296|407:289,1,142.500005435944,10|2,0:0|0:0,0:0:0:0:
487,194,4324,5,0,3:0:0:0:
491,190,4447,1,0,3:0:0:0:
495,186,4570,2,0,P|501:126|507:79,2,106.875004076958,2|2|2,3:2|3:2|3:2,0:0:0:0:
328,52,5554,2,0,P|257:41|201:84,1,142.500005435944,10|2,0:0|0:0,0:0:0:0:
91,38,6291,5,0,3:0:0:0:
86,35,6414,1,0,3:0:0:0:
81,33,6537,2,0,B|53:77|53:77|80:130,2,106.875004076958,2|2|2,3:2|0:0|3:2,0:0:0:0:
199,166,7521,2,0,P|192:226|182:307,1,142.500005435944,10|2,0:0|0:0,0:0:0:0:
81,329,8258,5,0,3:0:0:0:
78,324,8381,1,0,3:0:0:0:
74,319,8504,2,0,P|16:324|9:389,2,106.875004076958,2|2|2,3:2|3:2|3:2,0:0:0:0:
305,362,9488,5,10,0:0:0:0:
260,282,9652,5,0,3:0:0:0:
173,330,9816,5,0,3:0:0:0:
74,319,9980,5,4,3:2:0:0:
419,372,10226,5,0,3:0:0:0:
414,367,10349,1,0,3:0:0:0:
408,362,10472,2,0,P|417:288|427:217,1,142.500005435944,6|0,3:2|0:0,0:0:0:0:
368,145,10840,1,2,3:2:0:0:
444,97,10963,2,0,P|479:109|511:120,1,71.2500027179719,8|0,0:0|0:0,0:0:0:0:
394,15,11209,2,0,P|359:21|324:30,1,71.2500027179719,2|0,3:2|0:0,0:0:0:0:
249,162,11455,6,0,P|179:168|142:107,1,142.500005435944,2|0,3:2|0:0,0:0:0:0:
41,73,11824,1,0,3:0:0:0:
105,4,11947,2,0,P|138:15|173:24,1,71.2500027179719,8|0,0:0|0:0,0:0:0:0:
6,167,12193,1,2,0:3:0:0:
31,236,12316,1,2,0:3:0:0:
6,307,12439,6,0,P|72:292|146:275,1,142.500005435944,2|0,3:2|0:0,0:0:0:0:
310,331,12808,1,2,3:2:0:0:
226,384,12931,2,0,P|194:367|159:367,1,71.2500027179719,8|0,0:0|0:0,0:0:0:0:
277,222,13176,2,0,B|313:212|313:212|347:233,1,71.2500027179719,2|0,3:2|0:0,0:0:0:0:
509,284,13422,6,0,B|407:257|407:356|308:330,1,213.750008153916,2|0,3:2|3:0,0:0:0:0:
226,310,13914,1,8,0:0:0:0:
490,198,14160,1,2,0:3:0:0:
417,148,14283,1,2,0:3:0:0:
490,198,14406,6,0,P|496:126|507:51,1,142.500005435944,2|0,3:2|0:0,0:0:0:0:
392,0,14775,1,2,3:2:0:0:
306,42,14898,2,0,P|293:76|309:110,1,71.2500027179719,8|0,0:0|0:0,0:0:0:0:
399,217,15144,2,0,P|406:182|416:148,1,71.2500027179719,2|0,3:2|0:0,0:0:0:0:
291,215,15390,6,0,P|241:262|257:328,1,142.500005435944,2|0,3:2|0:0,0:0:0:0:
324,382,15758,1,0,3:0:0:0:
330,375,15881,1,8,0:0:0:0:
39,384,16127,1,2,0:3:0:0:
43,377,16250,1,2,0:3:0:0:
3,297,16373,6,0,P|44:338|120:325,1,123.499994346619,6|0,3:2|0:0,0:0:0:0:
190,376,16742,2,0,P|198:301|208:223,1,152,2|0,3:2|0:0,0:0:0:0:
118,186,17111,2,0,P|80:194|43:199,1,76,2|0,3:2|0:0,0:0:0:0:
107,20,17357,6,0,P|199:-5|255:38,1,170.999994781494,6|0,3:2|3:0,0:0:0:0:
308,123,17726,1,2,0:0:0:0:
391,29,17849,5,0,3:0:0:0:
399,16,17931,2,0,P|369:11|343:8,1,56.9999982604981,0|0,3:0|3:0,0:0:0:0:
456,124,18095,2,0,P|484:120|512:115,2,56.9999982604981,2|0|0,3:2|3:0|3:0,0:0:0:0:
381,224,18340,5,6,3:2:0:0:
221,344,19570,5,0,3:0:0:0:
226,348,19693,1,0,3:0:0:0:
231,353,19816,2,0,B|331:342|331:342|335:337|335:337|451:323|451:323|409:339|394:377,1,299.249990867615,2|0,0:1|0:0,0:0:0:0:
397,372,20308,6,0,P|389:329|380:290,1,71.2500027179719,6|0,3:2|0:0,0:0:0:0:
469,255,20676,2,0,P|476:212|486:173,1,71.2500027179719,2|0,3:2|0:0,0:0:0:0:
421,103,21045,1,2,3:2:0:0:
261,375,21291,6,0,P|208:333|138:355,1,142.500005435944,8|2,0:0|3:2,0:0:0:0:
56,116,22029,2,0,L|62:96,1,21.3749993476868,0|0,3:0|0:0,0:0:0:0:
12,204,22275,6,0,B|132:233|130:113|252:148,1,249.375009512902,2|0,3:2|0:0,0:0:0:0:
446,7,23258,5,8,0:0:0:0:
446,7,24242,6,0,P|450:50|454:84,1,71.2500027179719,6|0,3:2|0:0,0:0:0:0:
378,133,24611,2,0,P|353:127|308:119,1,71.2500027179719,2|0,3:2|0:0,0:0:0:0:
455,188,24980,1,2,3:2:0:0:
295,362,25226,6,0,P|386:350|444:341,1,142.500005435944,8|2,0:0|3:2,0:0:0:0:
193,303,25963,2,0,L|187:323,1,21.3749993476868,0|0,3:0|0:0,0:0:0:0:
71,338,26209,6,0,B|123:430|242:300|102:221,1,249.375009512902,2|0,3:2|0:0,0:0:0:0:
161,0,27193,5,8,0:0:0:0:
52,58,27439,6,0,L|61:99,1,35.625,0|0,3:0|0:0,0:0:0:0:
122,127,27685,1,8,0:0:0:0:
304,41,27931,5,0,3:0:0:0:
306,35,28054,1,0,3:0:0:0:
308,30,28176,2,0,P|346:26|395:15,1,71.2500027179719,6|0,3:2|0:0,0:0:0:0:
499,93,28545,2,0,P|465:84|423:79,1,71.2500027179719,2|0,3:2|0:0,0:0:0:0:
357,138,28914,1,2,3:2:0:0:
450,316,29160,6,0,P|456:238|468:162,1,142.500005435944,8|2,0:0|3:2,0:0:0:0:
173,286,29898,2,0,L|176:311,1,21.3749993476868,0|0,3:0|0:0,0:0:0:0:
295,348,30144,6,0,B|196:324|196:324|149:345|167:388,1,178.12500679493,2|0,3:2|0:0,0:0:0:0:
0,215,30881,6,0,P|23:211|45:209,1,35.625,0|0,3:0|0:0,0:0:0:0:
98,242,31127,1,8,0:0:0:0:
215,21,31373,2,0,P|192:17|170:15,1,35.625,0|0,3:0|0:0,0:0:0:0:
117,48,31619,1,8,0:0:0:0:
193,176,31865,5,0,3:0:0:0:
197,181,31988,1,0,3:0:0:0:
201,185,32111,2,0,P|244:175|276:171,1,71.2500027179719,6|0,3:2|0:0,0:0:0:0:
339,111,32480,2,0,P|346:78|321:42,1,71.2500027179719,2|0,3:2|0:0,0:0:0:0:
246,15,32849,1,2,3:2:0:0:
356,196,33095,6,0,P|426:185|508:172,1,142.500005435944,8|2,0:0|3:2,0:0:0:0:
356,335,33832,2,0,L|331:332,1,21.3749993476868,0|0,3:0|0:0,0:0:0:0:
261,384,34078,6,0,P|256:349|246:298,1,71.25,6|0,3:2|0:0,0:0:0:0:
177,261,34324,2,0,P|182:226|192:175,1,71.25,0|0,3:0|0:0,0:0:0:0:
132,345,34570,2,0,P|96:351|52:322,1,71.25,0|0,3:0|0:0,0:0:0:0:
0,254,34816,2,0,P|36:260|80:231,1,71.25,0|0,3:0|0:0,0:0:0:0:
95,6,35062,5,4,3:2:0:0:
23,75,35226,5,0,3:0:0:0:
74,151,35390,5,0,3:0:0:0:
66,246,35554,5,8,0:0:0:0:
242,3,35799,5,0,3:0:0:0:
240,8,35922,1,0,3:0:0:0:
239,13,36045,2,0,P|247:65|256:127,1,113.999996520996,6|0,3:2|0:0,0:0:0:0:
322,187,36414,1,2,3:2:0:0:
331,193,36537,2,0,P|365:186|390:180,1,56.9999982604981,10|0,0:0|0:0,0:0:0:0:
454,242,36783,2,0,P|488:249|513:255,1,56.9999982604981,2|0,3:2|0:0,0:0:0:0:
413,325,37029,2,0,P|318:298|269:373,1,199.499993911743,2|0,3:2|0:0,0:0:0:0:
269,370,37521,1,8,0:0:0:0:
58,276,37767,5,0,3:0:0:0:
55,270,37890,1,0,3:0:0:0:
53,263,38013,2,0,P|61:196|70:146,1,113.999996520996,6|0,3:2|0:0,0:0:0:0:
13,48,38381,1,2,3:2:0:0:
9,39,38504,2,0,P|34:27|63:27,1,56.9999982604981,10|0,0:0|0:0,0:0:0:0:
69,150,38750,2,0,P|40:149|14:138,1,56.9999982604981,2|0,3:2|0:0,0:0:0:0:
184,80,38996,6,0,B|221:75|221:75|251:99|251:99|292:93,1,113.999996520996,2|0,3:2|3:0,0:0:0:0:
356,53,39365,1,0,0:0:0:0:
361,45,39488,1,8,0:0:0:0:
421,293,39734,6,0,L|444:287,1,21.3749993476868,0|0,3:0|0:0,0:0:0:0:
500,221,39980,6,0,P|444:213|388:206,1,113.999996520996,6|0,3:2|0:0,0:0:0:0:
334,285,40349,1,2,3:2:0:0:
328,294,40472,2,0,L|341:353,1,56.9999982604981,10|0,0:0|0:0,0:0:0:0:
253,233,40717,2,0,L|266:174,1,56.9999982604981,2|0,3:2|0:0,0:0:0:0:
166,290,40963,2,0,B|27:269|27:269|59:287|66:321,1,199.499993911743,2|0,3:2|0:0,0:0:0:0:
63,313,41455,1,8,0:0:0:0:
162,8,41701,5,0,3:0:0:0:
168,5,41824,1,0,3:0:0:0:
173,3,41947,2,0,P|215:44|194:115,1,113.999996520996,6|2,3:2|0:0,0:0:0:0:
118,148,42316,1,2,3:2:0:0:
109,154,42439,2,0,P|79:148|29:140,1,56.9999982604981,8|0,0:0|0:0,0:0:0:0:
164,227,42685,2,0,P|192:222|220:216,1,56.9999982604981,0|0,3:0|0:0,0:0:0:0:
286,273,42931,5,10,0:0:0:0:
439,36,43176,2,0,P|442:69|445:93,1,56.9999982604981,0|0,3:0|0:0,0:0:0:0:
504,145,43422,1,10,0:0:0:0:
466,345,43668,5,0,3:0:0:0:
461,350,43791,1,0,3:0:0:0:
456,356,43914,2,0,P|393:301|316:329,1,170.999994781494,6|0,3:2|3:0,0:0:0:0:
228,362,44406,2,0,P|233:334|244:307,1,56.9999982604981,8|0,0:0|0:0,0:0:0:0:
197,219,44652,1,0,3:0:0:0:
71,373,44898,6,0,P|60:288|44:170,1,199.499993911743,0|0,3:0|0:0,0:0:0:0:
88,33,45390,6,0,B|63:3|34:27|34:27|50:55|85:36,1,114,2|0,0:1|0:0,0:0:0:0:
162,95,45636,5,0,3:0:0:0:
166,89,45758,1,0,3:0:0:0:
170,84,45881,2,0,P|239:76|318:67,1,132.999995941162,6|2,3:2|0:0,0:0:0:0:
393,15,46250,1,2,3:2:0:0:
479,114,46373,1,8,0:0:0:0:
472,120,46496,2,0,P|466:157|462:187,1,66.4999979705811,2|0,0:0|3:0,0:0:0:0:
512,271,46742,1,2,0:0:0:0:
433,367,46865,6,0,P|370:360|295:353,1,132.999995941162,6|0,3:2|3:0,0:0:0:0:
224,295,47234,2,0,P|231:262|242:215,1,66.4999979705811,2|8,3:2|0:0,0:0:0:0:
144,365,47603,1,2,3:2:0:0:
23,126,47849,6,0,P|76:75|167:101,1,166.249994926453,4|0,3:2|0:0,0:0:0:0:
266,22,48217,6,0,P|259:75|250:152,1,118.75,0|0,3:0|0:0,0:0:0:0:
344,206,48586,6,0,P|370:202|396:199,1,53.4375020384789,0|0,3:0|0:0,0:0:0:0:
470,120,48832,5,4,3:2:0:0:
111,218,49816,6,0,P|42:213|0:267,1,142.500005435944,6|0,3:2|0:0,0:0:0:0:
67,355,50185,1,0,3:0:0:0:
154,290,50308,2,0,P|198:281|226:277,1,71.2500027179719,10|0,0:0|0:0,0:0:0:0:
458,366,50554,1,2,3:2:0:0:
392,301,50676,1,2,0:0:0:0:
458,366,50799,6,0,P|470:286|480:220,1,142.500005435944,2|0,3:2|0:0,0:0:0:0:
386,168,51168,1,0,3:0:0:0:
446,99,51291,2,0,P|487:105|520:84,1,71.2500027179719,10|0,0:0|0:0,0:0:0:0:
289,3,51537,5,2,0:3:0:0:
218,37,51660,1,2,0:3:0:0:
141,38,51783,2,0,P|211:53|229:126,1,142.500005435944,6|2,3:2|0:0,0:0:0:0:
34,87,52152,2,0,P|23:52|8:12,1,71.2500027179719,2|8,3:2|0:0,0:0:0:0:
150,123,52398,2,0,P|137:156|127:190,1,71.2500027179719,2|0,0:0|3:0,0:0:0:0:
0,261,52644,1,2,0:0:0:0:
47,345,52767,6,0,B|150:313|156:391|254:369,1,213.750008153916,0|0,3:0|3:0,0:0:0:0:
305,304,53258,1,10,0:0:0:0:
500,377,53504,1,2,0:3:0:0:
491,368,53627,1,2,0:3:0:0:
461,301,53750,6,0,P|472:221|481:159,1,142.500005435944,6|2,3:2|0:0,0:0:0:0:
396,107,54119,1,2,3:2:0:0:
466,18,54242,2,0,P|433:12|389:0,1,71.2500027179719,8|0,0:0|0:0,0:0:0:0:
308,90,54488,2,0,P|275:96|231:108,1,71.2500027179719,2|0,3:2|0:0,0:0:0:0:
49,57,54734,6,0,P|107:77|168:0,1,142.500005435944,2|2,3:2|0:0,0:0:0:0:
238,105,55103,1,2,3:2:0:0:
164,177,55226,2,0,P|173:233|187:333,1,142.500005435944,8|0,0:0|3:0,0:0:0:0:
185,317,55717,6,0,P|168:313|187:323,1,69.6666687927247,6|0,3:2|0:0,0:0:0:0:
283,377,55881,2,0,P|287:360|277:379,1,69.6666687927247,2|0,0:0|0:0,0:0:0:0:
368,313,56045,2,0,P|385:309|366:319,1,69.6666687927247,2|0,0:0|0:0,0:0:0:0:
207,218,56209,6,0,B|188:211|175:227|175:227|193:238|212:225,1,69.6666687927247,10|0,0:0|0:0,0:0:0:0:
296,275,56373,2,0,B|303:256|287:243|287:243|276:261|289:280,1,69.6666687927247,2|0,0:0|0:2,0:0:0:0:
380,213,56537,2,0,B|399:206|412:222|412:222|394:233|375:220,1,69.6666687927247,2|0,0:0|0:2,0:0:0:0:
221,131,56701,6,0,P|216:100|210:51,1,69.6666687927247,2|0,3:2|0:0,0:0:0:0:
301,164,56865,2,0,P|305:133|312:84,1,69.6666687927247,2|0,3:2|0:0,0:0:0:0:
395,121,57029,2,0,P|390:90|384:41,1,69.6666687927247,2|0,3:2|0:0,0:0:0:0:
305,0,57193,5,10,0:0:0:0:
132,232,57439,5,0,3:0:0:0:
135,225,57562,1,0,3:0:0:0:
138,218,57685,2,0,P|131:153|123:60,1,142.500005435944,6|0,3:2|0:0,0:0:0:0:
45,16,58054,1,0,3:0:0:0:
0,104,58176,2,0,P|13:140|23:173,1,71.2500027179719,10|0,0:0|0:0,0:0:0:0:
138,326,58422,1,2,3:2:0:0:
53,370,58545,1,2,0:0:0:0:
138,326,58668,6,0,B|212:310|207:361|280:348,1,142.500005435944,2|0,3:2|0:0,0:0:0:0:
370,300,59037,1,0,3:0:0:0:
443,384,59160,2,0,P|451:344|465:308,1,71.2500027179719,10|0,0:0|0:0,0:0:0:0:
356,137,59406,5,2,0:3:0:0:
307,193,59529,1,2,0:3:0:0:
237,206,59652,2,0,P|319:210|396:235,1,142.500005435944,2|2,3:2|0:0,0:0:0:0:
499,110,60021,2,0,P|470:116|427:128,1,71.2500027179719,2|8,3:2|0:0,0:0:0:0:
323,65,60267,2,0,P|339:34|334:0,1,71.2500027179719,2|0,0:0|3:0,0:0:0:0:
99,34,60513,1,2,0:0:0:0:
175,76,60636,2,0,B|242:78|323:65|323:65|290:80|282:120,1,213.750008153916,0|0,3:0|3:0,0:0:0:0:
238,185,61127,1,8,0:0:0:0:
13,2,61373,5,2,0:3:0:0:
20,12,61496,1,2,0:3:0:0:
55,86,61619,2,0,P|48:156|41:227,1,142.500005435944,6|2,3:2|0:0,0:0:0:0:
133,265,61988,1,2,3:2:0:0:
76,362,62111,2,0,P|40:367|1:378,1,71.2500027179719,8|0,0:0|0:0,0:0:0:0:
144,253,62357,2,0,P|178:262|213:267,1,71.2500027179719,2|0,3:2|0:0,0:0:0:0:
442,299,62603,6,0,P|380:264|315:294,1,142.500005435944,2|2,3:2|0:0,0:0:0:0:
227,351,62972,1,2,3:2:0:0:
322,384,63095,2,0,P|359:375|417:360,1,71.2500027179719,8|0,0:0|0:0,0:0:0:0:
512,102,63340,5,2,0:3:0:0:
504,110,63463,1,2,0:3:0:0:
437,151,63586,2,0,B|269:129|269:129|310:143|322:182,1,242.250004620552,6|0,3:2|3:0,0:0:0:0:
248,206,64078,1,8,0:0:0:0:
94,32,64324,1,2,3:2:0:0:
42,110,64447,1,2,0:0:0:0:
94,32,64570,6,0,P|170:24|233:7,1,142.500005435944,2|0,3:2|0:0,0:0:0:0:
343,79,64939,1,2,3:2:0:0:
259,135,65062,2,0,P|252:170|248:205,1,71.2500027179719,8|0,0:0|0:0,0:0:0:0:
46,384,65308,1,0,3:0:0:0:
49,379,65431,1,0,3:0:0:0:
52,374,65554,6,0,P|45:321|31:239,1,118.75,6|0,3:2|0:0,0:0:0:0:
101,205,65922,2,0,P|177:211|205:125,1,178.12500679493,2|0,3:2|0:0,0:0:0:0:
138,74,66291,2,0,P|102:82|39:93,1,95,2|0,3:2|0:0,0:0:0:0:
327,97,66537,6,0,P|375:45|454:63,1,142.499995651245,2|0,3:2|0:0,0:0:0:0:
503,115,66906,2,0,P|487:206|475:320,1,201.87500385046,2|0,3:2|0:0,0:0:0:0:
412,379,67275,2,0,P|368:368|299:356,1,99.7499969558717,2|0,3:2|0:0,0:0:0:0:
185,192,67521,6,0,P|271:171|317:246,1,166.249994926453,6|0,3:2|0:0,0:0:0:0:
253,302,67890,2,0,B|153:284|152:394|34:364,1,225.624993975163,6|0,3:2|0:0,0:0:0:0:
0,290,68258,2,0,P|11:231|19:188,1,104.500003189087,6|0,3:2|0:0,0:0:0:0:
120,44,68504,6,0,B|242:81|242:81|259:55|293:48,1,190,6|0,3:2|0:0,0:0:0:0:
405,34,68873,2,0,B|368:3|368:3|293:-13|237:88|327:139,1,249.374992389679,6|0,3:2|0:0,0:0:0:0:
403,193,69242,2,0,P|457:180|510:169,1,109.250002083778,6|0,3:2|0:0,0:0:0:0:
348,371,69488,6,0,P|293:333|208:358,1,142.500005435944,6|0,3:2|0:0,0:0:0:0:
119,355,69857,1,0,3:0:0:0:
26,271,69980,2,0,P|36:305|50:350,1,71.2500027179719,10|0,0:0|0:0,0:0:0:0:
178,60,70226,1,2,3:2:0:0:
92,0,70349,1,2,0:0:0:0:
178,60,70472,6,0,P|249:70|328:83,1,142.500005435944,2|0,3:2|0:0,0:0:0:0:
403,133,70840,1,0,3:0:0:0:
483,65,70963,2,0,P|493:31|513:-4,1,71.2500027179719,10|0,0:0|0:0,0:0:0:0:
414,243,71209,5,2,0:3:0:0:
343,205,71332,1,2,0:3:0:0:
267,231,71455,2,0,P|287:291|297:372,1,142.500005435944,6|2,3:2|0:0,0:0:0:0:
96,278,71824,2,0,P|126:259|161:255,1,71.2500027179719,2|8,3:2|0:0,0:0:0:0:
78,382,72070,2,0,P|42:378|13:359,1,71.2500027179719,2|0,0:0|3:0,0:0:0:0:
176,350,72316,1,2,0:0:0:0:
96,278,72439,6,0,P|110:169|124:60,1,213.750008153916,0|0,3:0|3:0,0:0:0:0:
63,5,72931,1,10,0:0:0:0:
439,133,73176,1,2,0:3:0:0:
445,126,73299,1,2,0:3:0:0:
510,84,73422,6,0,P|442:74|369:62,1,142.500005435944,6|2,3:2|0:0,0:0:0:0:
277,117,73791,1,2,3:2:0:0:
346,199,73914,2,0,P|340:225|333:269,1,71.2500027179719,8|0,0:0|0:0,0:0:0:0:
444,344,74160,2,0,P|438:308|431:273,1,71.2500027179719,2|0,3:2|0:0,0:0:0:0:
235,311,74406,6,0,P|165:321|71:348,1,142.500005435944,2|2,3:2|0:0,0:0:0:0:
5,283,74775,1,2,3:2:0:0:
76,202,74898,2,0,P|147:207|185:133,1,142.500005435944,8|0,0:0|3:0,0:0:0:0:
185,154,75390,6,0,B|183:131|183:131|201:114|201:114|199:136,1,69.6666687927247,6|0,3:2|0:0,0:0:0:0:
272,252,75554,2,0,B|274:229|274:229|256:212|256:212|258:234,1,69.6666687927247,2|0,3:2|0:0,0:0:0:0:
215,374,75717,2,0,B|213:351|213:351|231:334|231:334|229:356,1,69.6666687927247,2|0,3:2|0:0,0:0:0:0:
334,322,75881,6,0,B|372:317|372:317|338:308,1,69.6666687927247,10|0,0:0|0:0,0:0:0:0:
171,259,76045,2,0,B|133:264|133:264|167:273,1,69.6666687927247,2|0,3:2|0:0,0:0:0:0:
322,149,76209,2,0,B|360:154|360:154|326:163,1,69.6666687927247,2|0,3:2|0:0,0:0:0:0:
242,14,76373,6,0,P|253:52|262:88,1,69.6666687927247,0|0,3:0|0:0,0:0:0:0:
322,149,76537,2,0,P|311:187|298:227,1,71.2500027179719,0|0,3:0|0:0,0:0:0:0:
241,294,76742,1,0,3:0:0:0:
291,369,76865,5,8,0:0:0:0:
512,217,77111,5,0,3:0:0:0:
506,213,77234,1,0,3:0:0:0:
500,209,77357,2,0,P|432:218|332:232,1,142.500005435944,6|0,3:2|0:0,0:0:0:0:
281,166,77726,1,0,3:0:0:0:
346,86,77849,2,0,P|357:130|368:182,1,71.2500027179719,10|0,0:0|0:0,0:0:0:0:
138,63,78095,1,2,3:2:0:0:
209,3,78217,1,2,0:0:0:0:
138,63,78340,6,0,P|82:22|13:39,1,142.500005435944,2|0,3:2|0:0,0:0:0:0:
0,134,78709,1,0,3:0:0:0:
95,193,78832,2,0,P|122:181|174:166,1,71.2500027179719,10|0,0:0|0:0,0:0:0:0:
313,378,79078,1,2,0:3:0:0:
304,371,79201,1,2,0:3:0:0:
224,340,79324,6,0,P|155:352|71:365,1,142.500005435944,6|2,3:2|0:0,0:0:0:0:
294,250,79693,2,0,P|327:256|355:290,1,71.2500027179719,2|8,3:2|0:0,0:0:0:0:
183,208,79939,2,0,P|172:173|160:140,1,71.2500027179719,2|0,0:0|3:0,0:0:0:0:
206,13,80185,1,2,0:0:0:0:
277,86,80308,6,0,B|379:57|379:136|481:120,1,213.750008153916,0|0,3:0|3:0,0:0:0:0:
512,47,80799,1,10,0:0:0:0:
473,359,81045,1,2,0:3:0:0:
468,350,81168,1,2,0:3:0:0:
512,277,81291,6,0,P|449:329|383:313,1,142.500005435944,6|2,3:2|0:0,0:0:0:0:
333,229,81660,1,2,3:2:0:0:
278,316,81783,2,0,P|291:349|311:414,1,71.2500027179719,8|0,0:0|0:0,0:0:0:0:
204,199,82029,2,0,P|218:166|250:145,1,71.2500027179719,2|0,3:2|0:0,0:0:0:0:
182,343,82275,6,0,P|110:356|14:380,1,142.500005435944,2|2,3:2|0:0,0:0:0:0:
0,284,82644,1,2,3:2:0:0:
87,226,82767,2,0,P|92:189|102:139,1,71.2500027179719,8|0,0:0|0:0,0:0:0:0:
1,8,83013,5,2,0:3:0:0:
72,43,83136,1,2,0:3:0:0:
150,26,83258,2,0,B|248:4|248:4|287:33,1,142.500005435944,6|0,3:2|0:0,0:0:0:0:
395,92,83627,1,0,3:0:0:0:
324,154,83750,2,0,P|330:189|336:227,1,71.2500027179719,8|0,0:0|0:0,0:0:0:0:
426,291,83996,2,0,P|431:255|437:220,1,71.2500027179719,2|0,3:2|0:0,0:0:0:0:
263,368,84242,5,6,3:2:0:0:
0,329,85226,6,0,P|112:344|157:255,1,201.87500385046,6|0,3:2|0:0,0:0:0:0:
171,202,85595,2,0,B|105:145|35:178|35:178|71:179|91:199,1,201.87500385046,2|0,3:2|0:0,0:0:0:0:
231,258,85963,2,0,P|273:251|333:242,1,80.750001540184,2|0,3:2|0:0,0:0:0:0:
482,314,86209,6,0,B|518:362|419:438|346:315|416:227,1,261.250007972718,6|0,3:2|0:0,0:0:0:0:
444,133,86578,2,0,P|346:153|177:176,1,261.250007972718,2|0,3:2|0:0,0:0:0:0:
91,154,86947,2,0,P|113:108|162:99,1,104.500003189087,2|0,3:2|0:0,0:0:0:0:
270,3,87193,6,0,P|259:182|247:377,1,370.499983039857,6|2,3:2|0:0,0:0:0:0:
