osu file format v14

[General]
AudioFilename: audio.mp3
AudioLeadIn: 0
PreviewTime: 49274
Countdown: 0
SampleSet: Soft
StackLeniency: 0.7
Mode: 2
LetterboxInBreaks: 0
WidescreenStoryboard: 1

[Editor]
DistanceSpacing: 1
BeatDivisor: 3
GridSize: 16
TimelineZoom: 1.1

[Metadata]
Title:Koi wa Milk Tea
TitleUnicode:恋はみるくてぃ
Artist:petit milady
ArtistUnicode:petit milady
Creator:Catch The Beat
Version:Amaidose
Source:六畳間の侵略者!?
Tags:プチお嬢様 プチミレディ rokujouma no shinryakusha tv size ending yuuki aoi taketatsu ayana ascendance quit user asuna kowaii_ne
BeatmapID:1132939
BeatmapSetID:475028

[Difficulty]
HPDrainRate:6.5
CircleSize:4
OverallDifficulty:9.3
ApproachRate:9.3
SliderMultiplier:3.17999990463257
SliderTickRate:4

[Events]
//Background and Video events
0,0,"overdose.jpg",0,0
//Break Periods
//Storyboard Layer 0 (Background)
//Storyboard Layer 1 (Fail)
//Storyboard Layer 2 (Pass)
//Storyboard Layer 3 (Foreground)
//Storyboard Sound Samples

[TimingPoints]
586,491.803278688525,4,2,0,30,1,0
1569,-100,4,2,0,5,0,0
1815,-100,4,3,99,80,0,0
2061,-100,4,2,99,80,0,0
2245,-100,4,2,0,80,0,0
2553,-100,4,1,98,80,0,0
2676,-100,4,3,98,80,0,0
2922,-100,4,1,98,80,0,0
3045,-100,4,3,98,80,0,0
3290,-100,4,1,98,80,0,0
3413,-100,4,3,98,80,0,0
3536,-100,4,1,97,80,0,0
3659,-100,4,3,98,80,0,0
4028,-100,4,1,97,80,0,0
4151,-100,4,3,98,80,0,0
4274,-100,4,3,98,70,0,0
4520,-100,4,1,98,80,0,0
4643,-100,4,3,98,80,0,0
4889,-100,4,1,98,80,0,0
5012,-100,4,3,98,80,0,0
5258,-100,4,1,98,75,0,0
5381,-100,4,3,98,75,0,0
5504,-100,4,1,97,75,0,0
5626,-100,4,3,98,70,0,0
5995,-100,4,3,0,80,0,0
6118,-100,4,3,98,80,0,0
6487,-100,4,1,98,80,0,0
6610,-100,4,3,98,80,0,0
6856,-100,4,1,98,80,0,0
6979,-100,4,3,98,80,0,0
7225,-100,4,1,98,80,0,0
7471,-100,4,1,97,80,0,0
7594,-100,4,3,98,70,0,0
8454,-100,4,1,98,80,0,0
8577,-100,4,3,98,80,0,0
8823,-100,4,1,98,80,0,0
8946,-100,4,3,98,80,0,0
9192,-100,4,1,98,80,0,0
9438,-100,4,1,97,80,0,0
9602,-100,4,3,99,80,0,0
9930,-100,4,2,99,80,0,0
10422,-100,4,1,98,80,0,0
10545,-100,4,3,98,80,0,0
10790,-100,4,1,98,80,0,0
10913,-100,4,3,98,80,0,0
11159,-100,4,1,98,80,0,0
11282,-100,4,3,98,80,0,0
11405,-100,4,1,98,80,0,0
11528,-100,4,3,98,80,0,0
11897,-100,4,1,97,80,0,0
12020,-100,4,3,98,80,0,0
12389,-100,4,1,98,80,0,0
12512,-100,4,3,98,80,0,0
12758,-100,4,1,98,80,0,0
12881,-100,4,3,98,80,0,0
13126,-100,4,1,98,80,0,0
13249,-100,4,3,98,70,0,0
13372,-100,4,1,98,80,0,0
13495,-100,4,3,98,70,0,0
13864,-100,4,3,99,80,0,0
13987,-100,4,3,98,80,0,0
14356,-100,4,1,98,80,0,0
14479,-100,4,3,98,80,0,0
14725,-100,4,1,98,80,0,0
14848,-100,4,3,98,80,0,0
15094,-100,4,1,98,80,0,0
15217,-100,4,3,98,80,0,0
15340,-100,4,1,98,80,0,0
15463,-100,4,3,98,70,0,0
15831,-100,4,3,99,80,0,0
15954,-100,4,3,98,80,0,0
16323,-100,4,1,98,80,0,0
16446,-100,4,3,98,80,0,0
16692,-100,4,1,98,80,0,0
16815,-100,4,3,99,80,0,0
16938,-100,4,3,98,80,0,0
17061,-100,4,1,98,80,0,0
17184,-100,4,3,98,80,0,0
17307,-100,4,1,98,80,0,0
17430,-100,4,3,98,80,0,0
17676,-100,4,1,98,80,0,0
17799,-100,4,3,99,80,0,0
18290,-100,4,2,99,80,0,0
20258,-100,4,2,98,80,0,0
20381,-100,4,2,99,80,0,0
21979,-100,4,2,97,80,0,0
22225,-100,4,2,99,80,0,0
22717,-100,4,3,98,55,0,0
23208,-100,4,3,99,80,0,0
23454,-100,4,2,97,80,0,0
24192,-100,4,2,99,80,0,0
25913,-100,4,2,97,80,0,0
26159,-100,4,2,99,80,0,0
26651,-100,4,3,98,60,0,0
27143,-100,4,3,99,80,0,0
27881,-100,4,3,98,80,0,0
28126,-100,4,2,99,80,0,0
29848,-100,4,2,97,80,0,0
30094,-100,4,2,99,80,0,0
30586,-100,4,3,98,60,0,0
31077,-100,4,3,99,80,0,0
31200,-100,4,2,99,80,0,0
31815,-100,4,3,98,80,0,0
32061,-100,4,2,99,80,0,0
33782,-100,4,3,98,80,0,0
35012,-100,4,3,99,80,0,0
35176,-100,4,3,98,80,0,0
35504,-100,4,3,99,80,0,0
35749,-100,4,2,99,80,0,0
35995,-100,4,1,98,80,0,0
36241,-100,4,3,98,80,0,0
36487,-100,4,2,99,80,0,0
36733,-100,4,1,98,80,0,0
36856,-100,4,3,98,80,0,0
37225,-100,4,2,99,80,0,0
37471,-100,4,3,97,80,0,0
37594,-100,4,2,99,80,0,0
37717,-100,4,3,98,80,0,0
37840,-100,4,2,99,80,0,0
37963,-100,4,3,98,80,0,0
38208,-100,4,3,98,80,0,0
38454,-100,4,2,99,80,0,0
38700,-100,4,3,98,80,0,0
38946,-100,4,2,99,80,0,0
39438,-100,4,3,97,80,0,0
39561,-100,4,2,99,80,0,0
39684,-100,4,3,98,80,0,0
39807,-100,4,2,99,80,0,0
39930,-100,4,1,98,80,0,0
40176,-100,4,3,98,80,0,0
40422,-100,4,2,99,80,0,0
40667,-100,4,1,98,80,0,0
40790,-100,4,3,98,80,0,0
40913,-100,4,2,99,80,0,0
41405,-100,4,3,97,80,0,0
41528,-100,4,2,99,80,0,0
41651,-100,4,3,98,60,0,0
41897,-100,4,2,99,80,0,0
42143,-100,4,3,98,80,0,0
42389,-100,4,2,99,80,0,0
42635,-100,4,3,98,80,0,0
42881,-100,4,2,99,80,0,0
43618,-100,4,3,98,60,0,0
43864,-100,4,1,98,80,0,0
43987,-100,4,2,99,80,0,0
44110,-100,4,3,98,80,0,0
44356,-100,4,2,99,80,0,0
44602,-100,4,1,98,80,0,0
44725,-100,4,3,98,80,0,0
44848,-100,4,2,99,80,0,0
45340,-100,4,3,97,80,0,0
45463,-100,4,2,99,80,0,0
45586,-100,4,3,98,80,0,0
45831,-100,4,1,98,80,0,0
46323,-100,4,3,99,80,0,0
46446,-100,4,1,98,80,0,0
47307,-100,4,3,99,80,0,0
47430,-100,4,1,98,80,0,0
48045,-100,4,2,99,80,0,0
48536,-100,4,3,98,80,0,0
48598,-100,4,2,99,80,0,0
48782,-100,4,1,99,80,0,1
48813,-100,4,1,99,80,0,0
49766,-100,4,1,98,80,0,1
50012,-100,4,3,98,80,0,1
50258,-100,4,1,97,80,0,1
50504,-100,4,3,98,80,0,1
50749,-100,4,1,98,80,0,1
51241,-100,4,1,97,80,0,1
51487,-100,4,3,98,70,0,1
51733,-100,4,1,98,80,0,1
51979,-100,4,3,98,80,0,1
52102,-100,4,1,98,80,0,1
52225,-100,4,1,97,80,0,1
52471,-100,4,3,98,80,0,1
52594,-100,4,1,98,80,0,1
52963,-100,4,3,98,80,0,1
53086,-100,4,1,98,80,0,1
53208,-100,4,1,97,80,0,1
53454,-100,4,3,98,70,0,1
53700,-100,4,1,98,80,0,1
53946,-100,4,3,98,80,0,1
54069,-100,4,1,98,80,0,1
54192,-100,4,1,97,80,0,1
54315,-100,4,1,98,80,0,1
54438,-100,4,3,98,80,0,1
54561,-100,4,1,98,80,0,1
54930,-100,4,3,98,80,0,1
55053,-100,4,1,98,80,0,1
55176,-100,4,1,97,80,0,1
55422,-100,4,3,98,70,0,1
55667,-100,4,1,99,80,0,1
57635,-100,4,1,98,80,0,1
57881,-100,4,3,98,80,0,1
58126,-100,4,1,97,80,0,1
58372,-100,4,3,98,80,0,1
58618,-100,4,1,98,80,0,1
58864,-100,4,3,98,80,0,1
58987,-100,4,1,98,80,0,1
59110,-100,4,1,97,80,0,1
59356,-100,4,3,98,80,0,1
59602,-100,4,1,98,80,0,1
59848,-100,4,3,98,80,0,1
59971,-100,4,1,98,80,0,1
60094,-100,4,1,97,80,0,1
60340,-100,4,3,98,80,0,1
60463,-100,4,1,98,80,0,1
60831,-100,4,3,98,80,0,1
60954,-100,4,1,98,80,0,1
61077,-100,4,1,97,80,0,1
61323,-100,4,3,98,70,0,1
61569,-100,4,1,98,80,0,1
61815,-100,4,3,98,80,0,1
61938,-100,4,1,98,80,0,1
62061,-100,4,1,97,80,0,1
62307,-100,4,3,98,80,0,1
62430,-100,4,1,98,80,0,1
62799,-100,4,3,98,80,0,1
62922,-100,4,1,98,80,0,1
63045,-100,4,1,97,80,0,1
63290,-100,4,3,98,80,0,1
63536,-100,4,1,98,80,0,1
64028,-100,4,1,97,80,0,1
64151,-100,4,3,98,70,0,1
64274,-100,4,1,98,80,0,1
64397,-100,4,3,98,70,0,1
64520,-100,4,1,98,80,0,1
64766,-100,4,3,98,70,0,1
64889,-100,4,1,98,80,0,1
65012,-100,4,1,97,80,0,1
65135,-100,4,3,98,70,0,1
65504,-100,4,1,98,80,0,0
65749,-100,4,2,98,80,0,0
65872,-100,4,1,98,80,0,0
66118,-100,4,2,98,80,0,0
66241,-100,4,1,98,80,0,0
66733,-100,4,2,98,80,0,0
66856,-100,4,1,98,80,0,0
67102,-100,4,2,98,80,0,0
67225,-100,4,1,98,80,0,0
67471,-100,4,1,97,80,0,0
67717,-100,4,2,98,80,0,0
67840,-100,4,1,97,80,0,0
67963,-100,4,2,98,80,0,0
68208,-100,4,1,97,80,0,0
68823,-100,4,1,99,80,0,0
69438,-100,4,1,98,80,0,1
69684,-100,4,3,98,80,0,1
69930,-100,4,1,97,80,0,1
70176,-100,4,3,98,80,0,1
70422,-100,4,1,98,80,0,1
70667,-100,4,3,98,80,0,1
70790,-100,4,1,98,80,0,1
70913,-100,4,1,97,80,0,1
71159,-100,4,3,98,80,0,1
71282,-100,4,1,98,80,0,1
71651,-100,4,3,98,80,0,1
71774,-100,4,1,98,80,0,1
71897,-100,4,1,97,80,0,1
72143,-100,4,3,98,80,0,1
72266,-100,4,1,98,80,0,1
72635,-100,4,3,98,80,0,1
72758,-100,4,1,98,80,0,1
72881,-100,4,1,97,80,0,1
73126,-100,4,3,98,70,0,1
73372,-100,4,1,98,80,0,1
73618,-100,4,3,98,80,0,1
73864,-100,4,1,97,80,0,1
74110,-100,4,3,98,80,0,1
74356,-100,4,1,98,80,0,1
74602,-100,4,3,98,80,0,1
74725,-100,4,1,98,80,0,1
74848,-100,4,1,97,80,0,1
75094,-100,4,3,98,80,0,1
75340,-100,4,1,99,80,0,1
76938,-100,4,3,98,80,0,1
77061,-100,4,1,98,80,0,1
77184,-100,4,3,98,80,0,1
77307,-100,4,1,98,80,0,1
77553,-100,4,3,98,80,0,1
77799,-100,4,1,97,80,0,1
78045,-100,4,3,98,80,0,1
78290,-100,4,1,98,80,0,1
78536,-100,4,3,98,80,0,1
78659,-100,4,1,98,80,0,1
78782,-100,4,1,97,80,0,1
79028,-100,4,3,98,80,0,1
79151,-100,4,1,98,80,0,1
79520,-100,4,3,98,80,0,1
79643,-100,4,1,98,80,0,1
79766,-100,4,1,97,80,0,1
80012,-100,4,3,98,80,0,1
80135,-100,4,1,98,80,0,1
80504,-100,4,3,98,80,0,1
80626,-100,4,1,98,80,0,1
80749,-100,4,1,97,80,0,1
80995,-100,4,3,98,70,0,1
81241,-100,4,1,98,80,0,1
81487,-100,4,3,98,80,0,1
81610,-100,4,1,98,80,0,1
81733,-100,4,1,97,80,0,1
81979,-100,4,3,98,80,0,1
82102,-100,4,1,98,80,0,1
82471,-100,4,3,98,80,0,1
82594,-100,4,1,98,80,0,1
82717,-100,4,1,97,80,0,1
82963,-100,4,3,98,80,0,1
84192,-100,4,1,99,80,0,0
85176,-100,4,1,98,80,0,0
86159,-100,4,1,97,80,0,0

[Colours]
Combo1 : 253,207,49
Combo2 : 137,6,140
Combo3 : 5,118,231
Combo4 : 190,157,107

[HitObjects]
256,192,586,12,0,1569,0:0:0:0:
256,192,1815,6,0,L|336:192,1,79.4999976158143,2|2,0:0|0:0,0:0:0:0:
128,192,2061,1,8,0:0:0:0:
256,272,2245,6,0,L|304:272,4,39.7499988079071,2|2|2|2|2,0:0|0:0|0:0|0:0|0:0,0:0:0:0:
352,192,2553,6,0,P|384:112|384:32,1,158.999995231628,6|0,0:0|0:0,0:0:0:0:
160,192,2922,2,0,P|128:272|128:352,1,158.999995231628,10|0,0:0|0:0,0:0:0:0:
400,192,3290,2,0,L|480:192,1,79.4999976158143,10|2,0:0|0:0,0:0:0:0:
112,192,3536,2,0,L|32:192,1,79.4999976158143,10|2,0:0|0:0,0:0:0:0:
240,192,3782,2,0,P|176:128|112:112,1,158.999995231629,2|2,0:0|0:0,0:0:0:0:
400,192,4151,2,0,L|304:192,2,79.4999976158143,2|6|6,0:0|0:0|0:0,0:0:0:0:
126,343,4520,6,0,P|129:264|160:192,1,158.999995231628,10|0,0:0|0:0,0:0:0:0:
385,40,4889,2,0,P|382:119|352:192,1,158.999995231628,10|0,0:0|0:0,0:0:0:0:
96,192,5258,2,0,L|160:240,1,79.4999976158143,10|2,0:0|0:0,0:0:0:0:
240,256,5504,1,10,0:0:0:0:
448,192,5626,2,0,L|352:192,1,79.4999976158143,2|2,0:0|0:0,0:0:0:0:
464,192,5872,1,2,0:0:0:0:
336,192,5995,2,0,P|288:128|272:48,1,158.999995231629,8|4,0:0|0:0,0:0:0:0:
400,48,6364,1,0,0:0:0:0:
256,112,6487,6,0,L|352:240,1,158.999995231629,10|0,0:0|0:0,0:0:0:0:
132,112,6856,2,0,L|244:224,1,158.999995231629,2|0,0:0|0:0,0:0:0:0:
0,112,7225,2,0,L|128:208,1,158.999995231629,10|10,0:0|0:0,0:0:0:0:
416,176,7594,2,0,L|384:256,1,79.4999976158143,2|2,0:0|0:0,0:0:0:0:
320,304,7840,1,2,0:0:0:0:
96,160,7963,2,0,L|160:208,1,79.4999976158143,2|2,0:0|0:0,0:0:0:0:
240,208,8209,1,10,0:0:0:0:
128,112,8331,1,10,0:0:0:0:
256,112,8454,6,0,L|160:240,1,158.999995231629,10|0,0:0|0:0,0:0:0:0:
380,112,8823,2,0,L|268:224,1,158.999995231629,10|0,0:0|0:0,0:0:0:0:
512,112,9192,2,0,L|384:208,1,158.999995231629,10|10,0:0|0:0,0:0:0:0:
112,192,9602,1,2,0:0:0:0:
256,192,9766,1,2,0:0:0:0:
112,80,9930,5,4,0:0:0:0:
77,98,9992,1,0,0:0:0:0:
50,127,10053,1,0,0:0:0:0:
35,164,10114,1,0,0:0:0:0:
35,204,10176,1,4,0:0:0:0:
49,241,10237,1,0,0:0:0:0:
76,271,10299,1,4,0:0:0:0:
112,289,10360,1,0,0:0:0:0:
385,191,10422,6,0,P|368:268|320:331,1,158.999995231629,14|0,0:0|0:0,0:0:0:0:
128,192,10790,2,0,P|144:114|192:51,1,158.999995231629,10|0,0:0|0:0,0:0:0:0:
416,112,11159,2,8,L|512:112,2,79.4999976158143,10|2|10,0:0|0:0|0:0,0:0:0:0:
112,112,11528,1,2,0:0:0:0:
224,112,11651,2,0,P|144:144|80:208,1,158.999995231629,2|10,0:0|0:0,0:0:0:0:
288,112,12020,1,2,0:0:0:0:
368,128,12143,1,2,0:0:0:0:
416,192,12266,1,2,0:0:0:0:
80,112,12389,6,0,P|48:192|32:272,1,158.999995231629,10|0,0:0|0:0,0:0:0:0:
192,272,12758,2,0,P|224:192|240:112,1,158.999995231629,10|0,0:0|0:0,0:0:0:0:
464,128,13126,2,0,L|384:192,1,79.4999976158143,10|2,0:0|0:0,0:0:0:0:
320,192,13372,1,10,0:0:0:0:
64,128,13495,2,0,L|144:128,1,79.4999976158143,2|2,0:0|0:0,0:0:0:0:
48,128,13741,1,2,0:0:0:0:
160,128,13864,2,0,P|224:176|240:256,1,158.999995231629,8|10,0:0|0:0,0:0:0:0:
112,256,14233,1,10,0:0:0:0:
384,256,14356,6,0,P|400:160|448:96,1,158.999995231629,10|0,0:0|0:0,0:0:0:0:
224,128,14725,2,0,P|208:224|160:288,1,158.999995231629,10|0,0:0|0:0,0:0:0:0:
368,256,15094,2,0,L|384:336,1,79.4999976158143,10|2,0:0|0:0,0:0:0:0:
144,128,15340,2,0,L|128:48,1,79.4999976158143,10|2,0:0|0:0,0:0:0:0:
400,256,15586,2,0,L|480:256,2,79.4999976158143,2|2|8,0:0|0:0|0:0,0:0:0:0:
112,128,15954,2,0,L|16:128,2,79.4999976158143,2|2|2,0:0|0:0|0:0,0:0:0:0:
416,128,16323,6,0,P|352:64|288:48,1,158.999995231629,10|0,0:0|0:0,0:0:0:0:
96,256,16692,2,0,L|176:352,1,79.4999976158143,10|8,0:0|0:0,0:0:0:0:
224,336,16938,1,2,0:0:0:0:
480,336,17061,2,0,L|400:336,1,79.4999976158143,10|2,0:0|0:0,0:0:0:0:
96,192,17307,2,0,P|48:129|31:52,1,158.999995231629,10|2,0:0|0:0,0:0:0:0:
304,48,17676,1,2,0:0:0:0:
208,48,17799,5,8,0:0:0:0:
186,66,17860,1,0,0:0:0:0:
168,88,17922,1,0,0:0:0:0:
155,112,17983,1,0,0:0:0:0:
368,128,18045,2,0,L|381:165,1,39.7499988079071
144,128,18167,2,0,L|128:176,1,39.7499988079071
400,208,18290,1,8,0:0:0:0:
256,192,19520,6,0,L|256:112,2,79.4999976158143,2|2|8,0:0|0:0|0:0,0:0:0:0:
400,192,20258,6,0,L|416:32,1,158.999995231629,6|0,0:0|0:0,0:0:0:0:
288,192,20626,2,0,L|304:32,1,158.999995231629,2|0,0:0|0:0,0:0:0:0:
176,192,20995,1,2,0:0:0:0:
128,144,21118,1,0,0:0:0:0:
112,80,21241,1,4,0:0:0:0:
128,16,21364,1,0,0:0:0:0:
240,16,21487,2,0,L|160:16,1,79.4999976158143
384,16,21733,1,2,0:0:0:0:
432,64,21856,1,0,0:0:0:0:
448,128,21979,1,2,0:0:0:0:
432,192,22102,1,2,0:0:0:0:
80,80,22225,6,0,P|144:240|256:208,1,317.999990463257,2|2,0:0|0:0,0:0:0:0:
352,160,22840,2,0,L|368:256,1,79.4999976158143,2|2,0:0|0:0,0:0:0:0:
464,256,23086,2,0,L|448:336,1,79.4999976158143,2|8,0:0|0:0,0:0:0:0:
208,336,23454,1,2,0:0:0:0:
416,336,23700,1,0,0:0:0:0:
16,336,23946,1,2,0:0:0:0:
224,192,24192,6,0,P|208:112|208:32,1,158.999995231629,2|0,0:0|0:0,0:0:0:0:
336,32,24561,2,0,P|352:112|352:192,1,158.999995231629,2|0,0:0|0:0,0:0:0:0:
192,192,24930,1,2,0:0:0:0:
128,240,25053,1,0,0:0:0:0:
96,304,25176,1,4,0:0:0:0:
96,368,25299,1,0,0:0:0:0:
256,320,25422,1,0,0:0:0:0:
320,272,25545,1,0,0:0:0:0:
352,208,25667,1,2,0:0:0:0:
112,192,25790,2,0,L|208:192,2,79.4999976158143,0|2|2,0:0|0:0|0:0,0:0:0:0:
304,160,26159,6,0,L|320:80,1,79.4999976158143,2|0,0:0|0:0,0:0:0:0:
416,128,26405,2,0,L|432:16,1,79.4999976158143
272,32,26651,1,2,0:0:0:0:
208,64,26774,1,2,0:0:0:0:
176,128,26897,1,2,0:0:0:0:
176,192,27020,1,2,0:0:0:0:
208,256,27143,1,8,0:0:0:0:
400,256,27389,1,2,0:0:0:0:
96,256,27635,1,4,0:0:0:0:
352,256,27881,2,0,L|272:256,1,79.4999976158143,10|10,0:0|0:0,0:0:0:0:
192,256,28126,6,0,P|192:176|208:96,1,158.999995231629,2|0,0:0|0:0,0:0:0:0:
96,112,28495,2,0,P|96:192|80:272,1,158.999995231629,2|0,0:0|0:0,0:0:0:0:
272,192,28864,1,2,0:0:0:0:
336,144,28987,1,0,0:0:0:0:
368,80,29110,1,4,0:0:0:0:
384,16,29233,1,0,0:0:0:0:
128,64,29356,2,0,L|48:64,1,79.4999976158143
144,144,29602,2,0,L|224:208,1,79.4999976158143,2|0,0:0|0:0,0:0:0:0:
224,272,29848,1,2,0:0:0:0:
208,352,29971,1,2,0:0:0:0:
16,256,30094,6,0,P|48:192|144:176,1,158.999995231629,2|0,0:0|0:0,0:0:0:0:
352,96,30463,1,0,0:0:0:0:
256,96,30586,1,2,0:0:0:0:
304,160,30708,1,2,0:0:0:0:
320,240,30831,1,10,0:0:0:0:
304,320,30954,1,2,0:0:0:0:
256,384,31077,1,8,0:0:0:0:
32,320,31200,2,0,L|112:256,1,79.4999976158143,0|2,0:0|0:0,0:0:0:0:
176,256,31446,1,0,0:0:0:0:
400,64,31569,2,0,L|352:128,1,79.4999976158143,4|0,0:0|0:0,0:0:0:0:
288,160,31815,1,10,0:0:0:0:
224,160,31938,1,10,0:0:0:0:
32,80,32061,6,0,P|96:32|176:16,1,158.999995231629,2|0,0:0|0:0,0:0:0:0:
288,16,32430,2,0,P|224:64|144:80,1,158.999995231629,2|0,0:0|0:0,0:0:0:0:
48,80,32799,1,2,0:0:0:0:
16,160,32922,1,0,0:0:0:0:
224,80,33045,2,0,L|256:160,1,79.4999976158143,4|0,0:0|0:0,0:0:0:0:
368,80,33290,2,0,L|400:160,1,79.4999976158143
272,192,33536,1,2,0:0:0:0:
240,272,33659,1,0,0:0:0:0:
400,272,33782,6,0,P|496:240|512:176,1,158.999995231629,10|8,0:0|0:0,0:0:0:0:
336,192,34274,1,8,0:0:0:0:
160,192,34520,1,8,0:0:0:0:
0,192,34766,1,8,0:0:0:0:
448,192,35012,1,8,0:0:0:0:
320,192,35176,1,8,0:0:0:0:
192,192,35340,1,8,0:0:0:0:
64,192,35504,1,4,0:0:0:0:
304,160,35749,1,4,0:0:0:0:
339,163,35811,1,0,0:0:0:0:
370,181,35872,1,4,0:0:0:0:
391,210,35934,1,0,0:0:0:0:
208,160,35995,6,0,P|144:192|112:272,1,158.999995231629,14|2,0:0|0:0,0:0:0:0:
176,320,36364,1,10,0:0:0:0:
272,320,36487,1,4,0:0:0:0:
496,144,36733,1,10,0:0:0:0:
432,96,36856,1,2,0:0:0:0:
336,96,36979,1,8,0:0:0:0:
80,112,37225,2,0,L|160:112,2,79.4999976158143,0|0|8,0:0|0:0|0:0,0:0:0:0:
224,160,37594,1,0,0:0:0:0:
256,240,37717,1,2,0:0:0:0:
240,320,37840,1,0,0:0:0:0:
48,320,37963,6,0,P|112:256|176:240,1,158.999995231629,10|2,0:0|0:0,0:0:0:0:
304,240,38331,1,10,0:0:0:0:
384,240,38454,2,0,P|459:217|512:159,1,158.999995231629,4|10,0:0|0:0,0:0:0:0:
288,144,38823,1,2,0:0:0:0:
208,144,38946,2,0,P|240:80|336:80,1,158.999995231629,2|2,0:0|0:0,0:0:0:0:
128,144,39315,2,0,L|112:240,1,79.4999976158143,0|8,0:0|0:0,0:0:0:0:
240,224,39561,1,0,0:0:0:0:
304,176,39684,1,10,0:0:0:0:
336,112,39807,1,0,0:0:0:0:
352,48,39930,1,2,0:0:0:0:
96,48,40176,6,0,L|176:48,2,79.4999976158143,2|10|4,0:0|0:0|0:0,0:0:0:0:
416,48,40667,2,0,L|336:48,2,79.4999976158143,10|2|2,0:0|0:0|0:0,0:0:0:0:
48,80,41159,1,0,0:0:0:0:
160,80,41282,1,0,0:0:0:0:
96,128,41405,1,8,0:0:0:0:
64,208,41528,1,0,0:0:0:0:
192,208,41651,1,10,0:0:0:0:
256,256,41774,1,10,0:0:0:0:
288,336,41897,1,2,0:0:0:0:
96,80,42143,6,0,L|80:160,1,79.4999976158143,2|10,0:0|0:0,0:0:0:0:
176,160,42389,1,4,0:0:0:0:
416,80,42635,2,0,L|432:160,1,79.4999976158143,10|2,0:0|0:0,0:0:0:0:
336,160,42881,1,4,0:0:0:0:
80,144,43126,1,2,0:0:0:0:
32,208,43249,1,0,0:0:0:0:
16,288,43372,1,4,0:0:0:0:
400,208,43495,2,0,L|288:208,2,79.4999976158143,0|10|10,0:0|0:0|0:0,0:0:0:0:
192,208,43864,6,0,P|160:144|144:48,1,158.999995231629,14|2,0:0|0:0,0:0:0:0:
256,64,44233,1,10,0:0:0:0:
367,58,44356,2,0,P|354:136|320:208,1,158.999995231629,4|10,0:0|0:0,0:0:0:0:
128,208,44725,1,2,0:0:0:0:
16,208,44848,2,0,P|80:288|144:320,1,158.999995231629,2|0,0:0|0:0,0:0:0:0:
480,304,45217,2,0,L|400:304,1,79.4999976158143,0|8,0:0|0:0,0:0:0:0:
272,304,45463,1,0,0:0:0:0:
320,240,45586,1,2,0:0:0:0:
336,160,45708,1,0,0:0:0:0:
64,240,45831,6,0,P|128:160|176:128,1,158.999995231629,10|0,0:0|0:0,0:0:0:0:
256,128,46200,1,10,0:0:0:0:
448,240,46323,2,0,P|384:160|336:128,1,158.999995231629,4|10,0:0|0:0,0:0:0:0:
32,160,46815,2,0,P|96:96|160:96,1,158.999995231629,2|8,0:0|0:0,0:0:0:0:
256,96,47184,1,2,0:0:0:0:
480,160,47307,2,0,P|416:96|352:96,1,158.999995231629,4|10,0:0|0:0,0:0:0:0:
128,96,47799,5,10,0:0:0:0:
320,144,48044,1,0,0:0:0:0:
339,149,48106,1,0,0:0:0:0:
354,161,48167,1,2,0:0:0:0:
365,178,48229,1,0,0:0:0:0:
192,144,48290,1,0,0:0:0:0:
173,149,48352,1,0,0:0:0:0:
158,161,48413,1,0,0:0:0:0:
147,178,48475,1,0,0:0:0:0:
368,192,48536,2,0,L|400:224,1,39.7499988079071,10|0,0:0|0:0,0:0:0:0:
144,192,48659,2,0,L|112:224,1,39.7499988079071
416,240,48782,1,8,0:0:0:0:
160,192,49766,6,0,P|128:112|128:32,1,158.999995231628,12|2,0:0|0:0,0:0:0:0:
352,96,50135,1,10,0:0:0:0:
400,176,50258,2,0,P|432:256|432:336,1,158.999995231629,8|10,0:0|0:0,0:0:0:0:
64,192,50626,1,2,0:0:0:0:
112,256,50749,2,0,P|176:304|272:320,1,158.999995231629,8|0,0:0|0:0,0:0:0:0:
480,192,51118,2,0,L|384:192,2,79.4999976158143,8|8|0,0:0|0:0|0:0,0:0:0:0:
208,336,51487,1,10,0:0:0:0:
288,336,51610,1,10,0:0:0:0:
176,336,51733,6,0,P|112:272|96:192,1,158.999995231629,8|2,0:0|0:0,0:0:0:0:
320,240,52102,1,8,0:0:0:0:
384,192,52225,1,8,0:0:0:0:
432,128,52348,1,0,0:0:0:0:
128,192,52471,2,0,L|80:128,1,79.4999976158143,10|0,0:0|0:0,0:0:0:0:
400,304,52717,2,0,L|320:304,1,79.4999976158143,8|0,0:0|0:0,0:0:0:0:
112,304,52963,2,0,L|192:304,1,79.4999976158143,2|8,0:0|0:0,0:0:0:0:
64,224,53208,2,0,L|224:224,1,158.999995231629,8|2,0:0|0:0,0:0:0:0:
96,160,53577,1,2,0:0:0:0:
352,160,53700,6,0,L|176:160,1,158.999995231629,8|2,0:0|0:0,0:0:0:0:
320,96,54069,1,8,0:0:0:0:
48,80,54192,2,0,L|128:80,1,79.4999976158143,8|0,0:0|0:0,0:0:0:0:
240,80,54438,2,0,L|160:80,1,79.4999976158143,10|0,0:0|0:0,0:0:0:0:
464,80,54684,2,0,L|384:80,1,79.4999976158143,8|0,0:0|0:0,0:0:0:0:
272,80,54930,2,0,L|352:80,1,79.4999976158143,2|8,0:0|0:0,0:0:0:0:
144,80,55176,2,0,L|64:80,1,79.4999976158143,8|0,0:0|0:0,0:0:0:0:
176,160,55422,2,0,L|96:160,1,79.4999976158143,2|2,0:0|0:0,0:0:0:0:
480,160,55667,5,2,0:0:0:0:
256,160,55831,1,2,0:0:0:0:
384,160,55995,1,2,0:0:0:0:
32,160,56159,1,10,0:0:0:0:
256,160,56323,1,2,0:0:0:0:
128,160,56487,1,2,0:0:0:0:
400,160,56651,1,2,0:0:0:0:
256,160,56815,1,2,0:0:0:0:
112,160,56979,1,2,0:0:0:0:
400,160,57143,2,0,L|480:160,1,79.4999976158143,10|0,0:0|0:0,0:0:0:0:
112,160,57389,2,0,L|32:160,1,79.4999976158143,2|0,0:0|0:0,0:0:0:0:
256,160,57635,6,0,P|336:224|352:288,1,158.999995231629,12|2,0:0|0:0,0:0:0:0:
128,272,58004,1,10,0:0:0:0:
16,272,58126,2,0,P|45:199|111:156,1,158.999995231629,8|10,0:0|0:0,0:0:0:0:
320,160,58495,1,0,0:0:0:0:
432,128,58618,2,0,P|352:80|272:96,1,158.999995231629,8|2,0:0|0:0,0:0:0:0:
48,112,58987,2,0,L|160:112,1,79.4999976158143,8|8,0:0|0:0,0:0:0:0:
224,112,59233,1,0,0:0:0:0:
432,336,59356,1,2,0:0:0:0:
336,336,59479,1,2,0:0:0:0:
448,256,59602,6,0,L|288:256,1,158.999995231629,8|2,0:0|0:0,0:0:0:0:
64,256,59971,2,0,L|176:256,2,79.4999976158143,8|8|0,0:0|0:0|0:0,0:0:0:0:
368,272,60340,2,0,L|448:272,1,79.4999976158143,10|0,0:0|0:0,0:0:0:0:
176,272,60586,1,8,0:0:0:0:
128,208,60708,1,0,0:0:0:0:
112,128,60831,1,2,0:0:0:0:
336,272,60954,1,8,0:0:0:0:
224,192,61077,2,8,L|384:192,1,158.999995231629,8|2,0:0|0:0,0:0:0:0:
128,272,61446,1,2,0:0:0:0:
240,352,61569,6,0,L|64:352,1,158.999995231629,8|2,0:0|0:0,0:0:0:0:
432,272,61938,2,0,L|448:192,1,79.4999976158143,8|8,0:0|0:0,0:0:0:0:
320,192,62184,2,0,L|400:192,1,79.4999976158143,0|10,0:0|0:0,0:0:0:0:
80,272,62430,2,0,L|64:192,1,79.4999976158143,0|8,0:0|0:0,0:0:0:0:
192,192,62676,2,0,L|112:192,1,79.4999976158143,0|2,0:0|0:0,0:0:0:0:
352,112,62922,2,0,L|448:112,1,79.4999976158143,8|8,0:0|0:0,0:0:0:0:
96,112,63167,2,0,L|192:112,2,79.4999976158143,0|2|2,0:0|0:0|0:0,0:0:0:0:
431,112,63536,6,0,P|495:192|415:304,1,238.499992847443,8|8,0:0|0:0,0:0:0:0:
303,288,64028,2,0,L|287:208,1,79.4999976158143,8|2,0:0|0:0,0:0:0:0:
159,288,64274,2,0,L|175:208,1,79.4999976158143,8|2,0:0|0:0,0:0:0:0:
32,288,64520,2,0,P|16:192|16:128,1,158.999995231629,8|2,0:0|0:0,0:0:0:0:
144,128,64889,2,0,L|160:48,1,79.4999976158143,8|8,0:0|0:0,0:0:0:0:
288,128,65135,2,0,L|272:48,1,79.4999976158143,2|2,0:0|0:0,0:0:0:0:
416,128,65381,1,0,0:0:0:0:
64,192,65504,6,0,L|240:192,1,158.999995231629,14|0,0:0|0:0,0:0:0:0:
32,192,65872,2,0,L|224:192,1,158.999995231629,10|0,0:0|0:0,0:0:0:0:
0,192,66241,1,10,0:0:0:0:
448,192,66487,2,0,L|272:192,1,158.999995231629,10|0,0:0|0:0,0:0:0:0:
480,192,66856,2,0,L|320:192,1,158.999995231629,10|0,0:0|0:0,0:0:0:0:
512,192,67224,1,10,0:0:0:0:
160,192,67471,6,0,P|232:128|144:32,1,238.499992847443,10|10,0:0|0:0,0:0:0:0:
352,192,67963,1,0,0:0:0:0:
48,192,68208,2,0,L|208:192,1,158.999995231629,10|10,0:0|0:0,0:0:0:0:
464,192,68577,2,0,L|304:192,1,158.999995231629,0|8,0:0|0:0,0:0:0:0:
16,192,68946,2,0,L|176:192,1,158.999995231629,8|8,0:0|0:0,0:0:0:0:
512,192,69438,6,0,P|480:112|384:80,1,158.999995231629,12|2,0:0|0:0,0:0:0:0:
192,80,69807,1,10,0:0:0:0:
288,80,69930,2,0,P|336:144|336:224,1,158.999995231629,8|10,0:0|0:0,0:0:0:0:
96,192,70299,1,2,0:0:0:0:
0,192,70422,2,0,P|16:288|64:352,1,158.999995231629,8|2,0:0|0:0,0:0:0:0:
464,192,70790,1,8,0:0:0:0:
432,272,70913,1,8,0:0:0:0:
368,336,71036,1,0,0:0:0:0:
112,288,71159,1,2,0:0:0:0:
208,288,71282,1,0,0:0:0:0:
80,288,71405,6,0,P|32:208|32:144,1,158.999995231629,8|2,0:0|0:0,0:0:0:0:
336,128,71774,2,0,L|240:128,2,79.4999976158143,8|8|0,0:0|0:0|0:0,0:0:0:0:
128,96,72143,1,10,0:0:0:0:
64,160,72266,1,0,0:0:0:0:
32,240,72389,1,8,0:0:0:0:
304,224,72512,2,0,L|384:224,1,79.4999976158143,0|2,0:0|0:0,0:0:0:0:
272,224,72758,1,8,0:0:0:0:
416,160,72881,2,0,L|240:160,1,158.999995231629,8|10,0:0|0:0,0:0:0:0:
384,80,73249,1,10,0:0:0:0:
96,48,73372,6,0,L|256:48,1,158.999995231629,8|2,0:0|0:0,0:0:0:0:
128,128,73741,1,10,0:0:0:0:
400,192,73864,2,0,L|480:192,1,79.4999976158143,8|0,0:0|0:0,0:0:0:0:
368,192,74110,2,0,L|480:192,1,79.4999976158143,10|2,0:0|0:0,0:0:0:0:
112,192,74356,2,0,L|0:192,1,79.4999976158143,8|0,0:0|0:0,0:0:0:0:
144,192,74602,2,0,L|32:192,1,79.4999976158143,2|8,0:0|0:0,0:0:0:0:
432,288,74848,2,0,L|512:288,1,79.4999976158143,8|0,0:0|0:0,0:0:0:0:
80,288,75094,2,0,L|0:288,1,79.4999976158143,10|2,0:0|0:0,0:0:0:0:
464,128,75340,5,2,0:0:0:0:
192,128,75504,1,2,0:0:0:0:
320,128,75667,1,2,0:0:0:0:
176,128,75831,1,10,0:0:0:0:
336,128,75994,1,2,0:0:0:0:
48,128,76158,1,2,0:0:0:0:
400,160,76323,1,2,0:0:0:0:
256,160,76487,1,2,0:0:0:0:
112,160,76651,1,2,0:0:0:0:
432,160,76815,2,0,L|352:160,1,79.4999976158143,8|2,0:0|0:0,0:0:0:0:
80,160,77061,2,0,L|160:160,1,79.4999976158143,8|2,0:0|0:0,0:0:0:0:
416,240,77307,6,0,P|336:128|336:96,1,158.999995231629,12|2,0:0|0:0,0:0:0:0:
448,112,77676,1,10,0:0:0:0:
224,160,77799,2,0,P|304:48|304:16,1,158.999995231629,8|10,0:0|0:0,0:0:0:0:
112,32,78168,1,2,0:0:0:0:
16,32,78290,2,0,P|96:80|160:80,1,158.999995231629,8|2,0:0|0:0,0:0:0:0:
464,160,78659,1,8,0:0:0:0:
400,224,78782,1,8,0:0:0:0:
320,256,78905,1,0,0:0:0:0:
96,192,79028,1,2,0:0:0:0:
192,192,79151,1,0,0:0:0:0:
64,192,79274,6,0,P|16:112|16:48,1,158.999995231629,8|2,0:0|0:0,0:0:0:0:
368,144,79643,2,0,L|384:64,1,79.4999976158143,8|8,0:0|0:0,0:0:0:0:
144,240,79889,2,0,L|128:320,1,79.4999976158143,0|2,0:0|0:0,0:0:0:0:
336,240,80135,1,0,0:0:0:0:
384,304,80258,1,8,0:0:0:0:
400,384,80381,1,0,0:0:0:0:
80,192,80504,2,0,L|160:192,1,79.4999976158143,2|8,0:0|0:0,0:0:0:0:
464,112,80749,6,0,L|304:112,1,158.999995231629,8|10,0:0|0:0,0:0:0:0:
448,32,81118,1,10,0:0:0:0:
48,112,81241,2,0,L|208:112,1,158.999995231629,8|2,0:0|0:0,0:0:0:0:
64,32,81610,1,8,0:0:0:0:
320,320,81733,2,0,L|400:320,1,79.4999976158143,8|0,0:0|0:0,0:0:0:0:
192,320,81979,2,0,L|112:320,1,79.4999976158143,2|0,0:0|0:0,0:0:0:0:
352,240,82225,6,0,L|432:240,1,79.4999976158143,8|0,0:0|0:0,0:0:0:0:
160,240,82471,2,0,L|80:240,1,79.4999976158143,2|8,0:0|0:0,0:0:0:0:
296,144,82717,2,8,L|216:144,3,79.4999976158143,8|0|10|10,0:0|0:0|0:0|0:0,0:0:0:0:
320,272,83208,6,0,P|336:176|336:112,1,158.999995231629,8|0,0:0|0:0,0:0:0:0:
192,112,83577,2,0,P|176:208|176:272,1,158.999995231629,8|0,0:0|0:0,0:0:0:0:
368,272,83946,2,0,P|448:224|480:160,1,158.999995231629,8|8,0:0|0:0,0:0:0:0:
176,272,85176,6,0,P|144:192|144:112,1,158.999995231629,10|0,0:0|0:0,0:0:0:0:
336,112,85545,2,0,P|368:192|368:272,1,158.999995231629,10|0,0:0|0:0,0:0:0:0:
160,272,85913,1,10,0:0:0:0:
384,272,86159,2,0,P|336:192|272:160,1,158.999995231629,10|0,0:0|0:0,0:0:0:0:
128,272,86528,2,0,P|176:192|240:160,1,158.999995231629,10|0,0:0|0:0,0:0:0:0:
448,272,86897,1,10,0:0:0:0:
64,272,87143,5,14,0:0:0:0:
