osu file format v14

[General]
AudioFilename: audio.mp3
AudioLeadIn: 0
PreviewTime: 49151
Countdown: 0
SampleSet: Normal
StackLeniency: 0.7
Mode: 1
LetterboxInBreaks: 0
WidescreenStoryboard: 0

[Editor]
DistanceSpacing: 1
BeatDivisor: 4
GridSize: 32
TimelineZoom: 1.5

[Metadata]
Title:Koi wa Milk Tea
TitleUnicode:恋はみるくてぃ
Artist:petit milady
ArtistUnicode:petit milady
Creator:[R]
Version:Oni
Source:六畳間の侵略者!?
Tags:ron's franklin_dejavu fdjv プチミレディ rokujouma no shinryakusha invaders of the rokujyoma ending TV Size
BeatmapID:1493417
BeatmapSetID:706205

[Difficulty]
HPDrainRate:5
CircleSize:5
OverallDifficulty:5
ApproachRate:5
SliderMultiplier:1.4
SliderTickRate:1

[Events]
//Background and Video events
0,0,"BG.jpg",0,80
//Break Periods
//Storyboard Layer 0 (Background)
//Storyboard Layer 1 (Fail)
//Storyboard Layer 2 (Pass)
//Storyboard Layer 3 (Foreground)
//Storyboard Sound Samples

[TimingPoints]
586,491.803278688525,4,1,0,80,1,0
49766,-100,4,1,0,80,0,1
65504,-100,4,1,0,80,0,0
69438,-100,4,1,0,80,0,1
84192,-100,4,1,0,80,0,0

[HitObjects]
256,192,2553,5,4,0:0:0:0:
256,192,2922,1,0,0:0:0:0:
256,192,3290,1,8,0:0:0:0:
256,192,3536,1,0,0:0:0:0:
256,192,4028,1,8,0:0:0:0:
256,192,4274,1,0,0:0:0:0:
256,192,4397,1,0,0:0:0:0:
256,192,4520,1,0,0:0:0:0:
256,192,4889,1,0,0:0:0:0:
256,192,5258,1,0,0:0:0:0:
256,192,5504,1,8,0:0:0:0:
256,192,5995,1,8,0:0:0:0:
256,192,6241,1,8,0:0:0:0:
256,192,6364,1,8,0:0:0:0:
256,192,6487,1,0,0:0:0:0:
256,192,6856,1,0,0:0:0:0:
256,192,7225,1,0,0:0:0:0:
256,192,7471,1,8,0:0:0:0:
256,192,7963,1,0,0:0:0:0:
256,192,8208,1,8,0:0:0:0:
256,192,8331,1,0,0:0:0:0:
256,192,8454,1,0,0:0:0:0:
256,192,8823,1,0,0:0:0:0:
256,192,9192,1,0,0:0:0:0:
256,192,9438,1,8,0:0:0:0:
256,192,9602,1,8,0:0:0:0:
256,192,9766,1,8,0:0:0:0:
256,192,9930,1,8,0:0:0:0:
256,192,10422,1,4,0:0:0:0:
256,192,10790,1,0,0:0:0:0:
256,192,10913,1,8,0:0:0:0:
256,192,11159,1,8,0:0:0:0:
256,192,11282,1,8,0:0:0:0:
256,192,11405,1,0,0:0:0:0:
256,192,11651,1,0,0:0:0:0:
256,192,11897,1,8,0:0:0:0:
256,192,12143,1,8,0:0:0:0:
256,192,12389,1,0,0:0:0:0:
256,192,12758,1,8,0:0:0:0:
256,192,12881,1,0,0:0:0:0:
256,192,13126,1,0,0:0:0:0:
256,192,13372,1,8,0:0:0:0:
256,192,13495,1,8,0:0:0:0:
256,192,13618,1,0,0:0:0:0:
256,192,13741,1,0,0:0:0:0:
256,192,13864,1,8,0:0:0:0:
256,192,14110,1,8,0:0:0:0:
256,192,14356,1,0,0:0:0:0:
256,192,14725,1,0,0:0:0:0:
256,192,14848,1,8,0:0:0:0:
256,192,15094,1,8,0:0:0:0:
256,192,15217,1,8,0:0:0:0:
256,192,15340,1,0,0:0:0:0:
256,192,15586,1,0,0:0:0:0:
256,192,15831,1,8,0:0:0:0:
256,192,16077,1,8,0:0:0:0:
256,192,16323,1,0,0:0:0:0:
256,192,16692,1,8,0:0:0:0:
256,192,16815,1,0,0:0:0:0:
256,192,17061,1,8,0:0:0:0:
256,192,17307,1,0,0:0:0:0:
256,192,17430,1,0,0:0:0:0:
256,192,17553,1,8,0:0:0:0:
256,192,17676,1,8,0:0:0:0:
256,192,17799,1,0,0:0:0:0:
256,192,18045,1,0,0:0:0:0:
256,192,18290,1,12,0:0:0:0:
256,192,19520,1,0,0:0:0:0:
256,192,19643,1,0,0:0:0:0:
256,192,19766,1,8,0:0:0:0:
256,192,20258,1,4,0:0:0:0:
256,192,20626,1,0,0:0:0:0:
256,192,20995,1,8,0:0:0:0:
256,192,21241,1,0,0:0:0:0:
256,192,21487,1,0,0:0:0:0:
256,192,21610,1,0,0:0:0:0:
256,192,21733,1,8,0:0:0:0:
256,192,22225,1,0,0:0:0:0:
256,192,22717,1,0,0:0:0:0:
256,192,22963,1,0,0:0:0:0:
256,192,23208,1,8,0:0:0:0:
256,192,23454,1,0,0:0:0:0:
256,192,23700,1,8,0:0:0:0:
256,192,23946,1,8,0:0:0:0:
256,192,24192,1,0,0:0:0:0:
256,192,24561,1,0,0:0:0:0:
256,192,24930,1,0,0:0:0:0:
256,192,25176,1,8,0:0:0:0:
256,192,25422,1,8,0:0:0:0:
256,192,25545,1,0,0:0:0:0:
256,192,25667,1,8,0:0:0:0:
256,192,26159,1,0,0:0:0:0:
256,192,26651,1,0,0:0:0:0:
256,192,26897,1,0,0:0:0:0:
256,192,27143,1,8,0:0:0:0:
256,192,27389,1,0,0:0:0:0:
256,192,27635,1,8,0:0:0:0:
256,192,27881,1,8,0:0:0:0:
256,192,28004,1,8,0:0:0:0:
256,192,28126,1,0,0:0:0:0:
256,192,28495,1,8,0:0:0:0:
256,192,28864,1,0,0:0:0:0:
256,192,29110,1,8,0:0:0:0:
256,192,29356,1,8,0:0:0:0:
256,192,29479,1,8,0:0:0:0:
256,192,29602,1,0,0:0:0:0:
256,192,30094,1,8,0:0:0:0:
256,192,30586,1,0,0:0:0:0:
256,192,30831,1,0,0:0:0:0:
256,192,31077,1,8,0:0:0:0:
256,192,31323,1,0,0:0:0:0:
256,192,31569,1,8,0:0:0:0:
256,192,31815,1,0,0:0:0:0:
256,192,31938,1,8,0:0:0:0:
256,192,32061,1,0,0:0:0:0:
256,192,32430,1,8,0:0:0:0:
256,192,32799,1,0,0:0:0:0:
256,192,33045,1,8,0:0:0:0:
256,192,33290,1,0,0:0:0:0:
256,192,33413,1,0,0:0:0:0:
256,192,33536,1,8,0:0:0:0:
256,192,33782,1,0,0:0:0:0:
256,192,34028,1,8,0:0:0:0:
256,192,34274,1,0,0:0:0:0:
256,192,34520,1,0,0:0:0:0:
256,192,34766,1,0,0:0:0:0:
256,192,35012,1,8,0:0:0:0:
256,192,35176,1,8,0:0:0:0:
256,192,35340,1,8,0:0:0:0:
256,192,35504,1,0,0:0:0:0:
256,192,35995,1,12,0:0:0:0:
256,192,36364,1,0,0:0:0:0:
256,192,36487,1,0,0:0:0:0:
256,192,36733,1,12,0:0:0:0:
256,192,36979,1,0,0:0:0:0:
256,192,37225,1,0,0:0:0:0:
256,192,37471,1,8,0:0:0:0:
256,192,37717,1,8,0:0:0:0:
256,192,37840,1,8,0:0:0:0:
256,192,37963,1,0,0:0:0:0:
256,192,38331,1,0,0:0:0:0:
256,192,38454,1,8,0:0:0:0:
256,192,38700,1,8,0:0:0:0:
256,192,38946,1,0,0:0:0:0:
256,192,39192,1,8,0:0:0:0:
256,192,39438,1,0,0:0:0:0:
256,192,39930,1,12,0:0:0:0:
256,192,40299,1,0,0:0:0:0:
256,192,40422,1,0,0:0:0:0:
256,192,40667,1,12,0:0:0:0:
256,192,40913,1,0,0:0:0:0:
256,192,41159,1,0,0:0:0:0:
256,192,41405,1,8,0:0:0:0:
256,192,41651,1,8,0:0:0:0:
256,192,41774,1,8,0:0:0:0:
256,192,41897,1,0,0:0:0:0:
256,192,42143,1,0,0:0:0:0:
256,192,42266,1,0,0:0:0:0:
256,192,42389,1,8,0:0:0:0:
256,192,42635,1,0,0:0:0:0:
256,192,42881,1,8,0:0:0:0:
256,192,43372,1,8,0:0:0:0:
256,192,43618,1,0,0:0:0:0:
256,192,43864,1,12,0:0:0:0:
256,192,44110,1,0,0:0:0:0:
256,192,44233,1,0,0:0:0:0:
256,192,44356,1,8,0:0:0:0:
256,192,44602,1,12,0:0:0:0:
256,192,44848,1,0,0:0:0:0:
256,192,45094,1,0,0:0:0:0:
256,192,45217,1,0,0:0:0:0:
256,192,45340,1,8,0:0:0:0:
256,192,45586,1,8,0:0:0:0:
256,192,45831,1,4,0:0:0:0:
256,192,46077,1,8,0:0:0:0:
256,192,46200,1,8,0:0:0:0:
256,192,46323,1,0,0:0:0:0:
256,192,46569,1,0,0:0:0:0:
256,192,46815,1,12,0:0:0:0:
256,192,47061,1,0,0:0:0:0:
256,192,47184,1,8,0:0:0:0:
256,192,47307,1,0,0:0:0:0:
256,192,47553,1,8,0:0:0:0:
256,192,47799,1,4,0:0:0:0:
256,192,48045,1,8,0:0:0:0:
256,192,48167,1,8,0:0:0:0:
256,192,48290,1,0,0:0:0:0:
256,192,48536,1,0,0:0:0:0:
256,192,48782,1,12,0:0:0:0:
256,192,49274,1,8,0:0:0:0:
256,192,49520,1,8,0:0:0:0:
256,192,49766,1,4,0:0:0:0:
256,192,50258,1,8,0:0:0:0:
256,192,50504,1,0,0:0:0:0:
256,192,50749,1,8,0:0:0:0:
256,192,50872,1,0,0:0:0:0:
256,192,51118,1,0,0:0:0:0:
256,192,51241,1,8,0:0:0:0:
256,192,51487,1,0,0:0:0:0:
256,192,51733,1,8,0:0:0:0:
256,192,51979,1,8,0:0:0:0:
256,192,52102,1,8,0:0:0:0:
256,192,52225,1,0,0:0:0:0:
256,192,52471,1,8,0:0:0:0:
256,192,52717,1,0,0:0:0:0:
256,192,53208,1,0,0:0:0:0:
256,192,53454,1,8,0:0:0:0:
256,192,53700,1,0,0:0:0:0:
256,192,53946,1,8,0:0:0:0:
256,192,54069,1,0,0:0:0:0:
256,192,54192,1,8,0:0:0:0:
256,192,54438,1,8,0:0:0:0:
256,192,54684,1,0,0:0:0:0:
256,192,54930,1,0,0:0:0:0:
256,192,55053,1,0,0:0:0:0:
256,192,55176,1,8,0:0:0:0:
256,192,55667,1,0,0:0:0:0:
256,192,55831,1,0,0:0:0:0:
256,192,55995,1,8,0:0:0:0:
256,192,56159,1,0,0:0:0:0:
256,192,56323,1,0,0:0:0:0:
256,192,56487,1,8,0:0:0:0:
256,192,56651,1,0,0:0:0:0:
256,192,57143,1,8,0:0:0:0:
256,192,57389,1,8,0:0:0:0:
256,192,57635,1,4,0:0:0:0:
256,192,58126,1,8,0:0:0:0:
256,192,58372,1,0,0:0:0:0:
256,192,58618,1,8,0:0:0:0:
256,192,58741,1,0,0:0:0:0:
256,192,58987,1,0,0:0:0:0:
256,192,59110,1,8,0:0:0:0:
256,192,59356,1,8,0:0:0:0:
256,192,59602,1,0,0:0:0:0:
256,192,59848,1,0,0:0:0:0:
256,192,59971,1,0,0:0:0:0:
256,192,60094,1,8,0:0:0:0:
256,192,60340,1,0,0:0:0:0:
256,192,60586,1,8,0:0:0:0:
256,192,61077,1,8,0:0:0:0:
256,192,61323,1,0,0:0:0:0:
256,192,61569,1,8,0:0:0:0:
256,192,61815,1,0,0:0:0:0:
256,192,61938,1,0,0:0:0:0:
256,192,62061,1,8,0:0:0:0:
256,192,62307,1,0,0:0:0:0:
256,192,62553,1,8,0:0:0:0:
256,192,62799,1,8,0:0:0:0:
256,192,62922,1,8,0:0:0:0:
256,192,63045,1,0,0:0:0:0:
256,192,63290,1,8,0:0:0:0:
256,192,63536,1,0,0:0:0:0:
256,192,64028,1,8,0:0:0:0:
256,192,64274,1,0,0:0:0:0:
256,192,64397,1,0,0:0:0:0:
256,192,64520,1,8,0:0:0:0:
256,192,64889,1,0,0:0:0:0:
256,192,65258,1,8,0:0:0:0:
256,192,65504,1,4,0:0:0:0:
256,192,65872,1,4,0:0:0:0:
256,192,66241,1,12,0:0:0:0:
256,192,66487,1,4,0:0:0:0:
256,192,66856,1,4,0:0:0:0:
256,192,67225,1,4,0:0:0:0:
256,192,67471,1,12,0:0:0:0:
256,192,67840,1,4,0:0:0:0:
256,192,68208,1,12,0:0:0:0:
256,192,68454,1,4,0:0:0:0:
256,192,68823,1,0,0:0:0:0:
256,192,68946,1,8,0:0:0:0:
256,192,69192,1,8,0:0:0:0:
256,192,69438,1,4,0:0:0:0:
256,192,69807,1,0,0:0:0:0:
256,192,69930,1,8,0:0:0:0:
256,192,70176,1,0,0:0:0:0:
256,192,70421,1,8,0:0:0:0:
256,192,70544,1,0,0:0:0:0:
256,192,70790,1,0,0:0:0:0:
256,192,70913,1,8,0:0:0:0:
256,192,71159,1,0,0:0:0:0:
256,192,71405,1,8,0:0:0:0:
256,192,71651,1,8,0:0:0:0:
256,192,71774,1,8,0:0:0:0:
256,192,71897,1,0,0:0:0:0:
256,192,72020,1,0,0:0:0:0:
256,192,72143,1,8,0:0:0:0:
256,192,72389,1,0,0:0:0:0:
256,192,72880,1,0,0:0:0:0:
256,192,73126,1,8,0:0:0:0:
256,192,73372,1,0,0:0:0:0:
256,192,73618,1,8,0:0:0:0:
256,192,73741,1,0,0:0:0:0:
256,192,73864,1,0,0:0:0:0:
256,192,73987,1,0,0:0:0:0:
256,192,74110,1,8,0:0:0:0:
256,192,74356,1,0,0:0:0:0:
256,192,74602,1,0,0:0:0:0:
256,192,74725,1,0,0:0:0:0:
256,192,74848,1,8,0:0:0:0:
256,192,75339,1,0,0:0:0:0:
256,192,75503,1,0,0:0:0:0:
256,192,75667,1,8,0:0:0:0:
256,192,75831,1,0,0:0:0:0:
256,192,75995,1,0,0:0:0:0:
256,192,76159,1,8,0:0:0:0:
256,192,76323,1,0,0:0:0:0:
256,192,76692,1,0,0:0:0:0:
256,192,76815,1,8,0:0:0:0:
256,192,77061,1,8,0:0:0:0:
256,192,77307,1,4,0:0:0:0:
256,192,77676,1,0,0:0:0:0:
256,192,77798,1,8,0:0:0:0:
256,192,78044,1,0,0:0:0:0:
256,192,78290,1,8,0:0:0:0:
256,192,78413,1,0,0:0:0:0:
256,192,78659,1,0,0:0:0:0:
256,192,78782,1,8,0:0:0:0:
256,192,79028,1,8,0:0:0:0:
256,192,79274,1,0,0:0:0:0:
256,192,79520,1,0,0:0:0:0:
256,192,79643,1,0,0:0:0:0:
256,192,79766,1,8,0:0:0:0:
256,192,79889,1,8,0:0:0:0:
256,192,80012,1,0,0:0:0:0:
256,192,80258,1,8,0:0:0:0:
256,192,80749,1,8,0:0:0:0:
256,192,80995,1,0,0:0:0:0:
256,192,81241,1,8,0:0:0:0:
256,192,81487,1,0,0:0:0:0:
256,192,81610,1,8,0:0:0:0:
256,192,81733,1,8,0:0:0:0:
256,192,81856,1,8,0:0:0:0:
256,192,81979,1,0,0:0:0:0:
256,192,82225,1,8,0:0:0:0:
256,192,82471,1,8,0:0:0:0:
256,192,82594,1,8,0:0:0:0:
256,192,82717,1,0,0:0:0:0:
256,192,82962,1,8,0:0:0:0:
256,192,83208,5,0,0:0:0:0:
256,192,83700,1,8,0:0:0:0:
256,192,83946,1,0,0:0:0:0:
256,192,84069,1,0,0:0:0:0:
256,192,84192,1,8,0:0:0:0:
256,192,84561,1,0,0:0:0:0:
256,192,84930,1,8,0:0:0:0:
256,192,85176,1,4,0:0:0:0:
256,192,85545,1,4,0:0:0:0:
256,192,85913,1,12,0:0:0:0:
256,192,86159,1,4,0:0:0:0:
256,192,86528,1,4,0:0:0:0:
256,192,86897,1,4,0:0:0:0:
256,192,87143,1,12,0:0:0:0:
