osu file format v14

[General]
AudioFilename: audio.mp3
AudioLeadIn: 0
PreviewTime: 49151
Countdown: 0
SampleSet: Normal
StackLeniency: 0.7
Mode: 1
LetterboxInBreaks: 0
WidescreenStoryboard: 0

[Editor]
DistanceSpacing: 1
BeatDivisor: 4
GridSize: 32
TimelineZoom: 0.6999999

[Metadata]
Title:Koi wa Milk Tea
TitleUnicode:恋はみるくてぃ
Artist:petit milady
ArtistUnicode:petit milady
Creator:[R]
Version:Kantan
Source:六畳間の侵略者!?
Tags:ron's franklin_dejavu fdjv プチミレディ rokujouma no shinryakusha invaders of the rokujyoma ending TV Size
BeatmapID:1493416
BeatmapSetID:706205

[Difficulty]
HPDrainRate:7
CircleSize:5
OverallDifficulty:3.5
ApproachRate:5
SliderMultiplier:1.4
SliderTickRate:1

[Events]
//Background and Video events
0,0,"BG.jpg",0,80
//Break Periods
//Storyboard Layer 0 (Background)
//Storyboard Layer 1 (Fail)
//Storyboard Layer 2 (Pass)
//Storyboard Layer 3 (Foreground)
//Storyboard Sound Samples

[TimingPoints]
586,491.803278688525,4,1,0,80,1,0
49766,-100,4,1,0,80,0,1
65504,-100,4,1,0,80,0,0
69438,-100,4,1,0,80,0,1
84192,-100,4,1,0,80,0,0

[HitObjects]
256,192,2553,5,4,0:0:0:0:
256,192,3536,1,8,0:0:0:0:
256,192,4520,1,0,0:0:0:0:
256,192,5012,1,0,0:0:0:0:
256,192,5504,1,8,0:0:0:0:
256,192,6487,1,0,0:0:0:0:
256,192,7471,1,8,0:0:0:0:
256,192,8454,1,0,0:0:0:0:
256,192,9438,1,8,0:0:0:0:
256,192,9930,1,8,0:0:0:0:
256,192,10422,1,4,0:0:0:0:
256,192,11897,1,8,0:0:0:0:
256,192,12389,1,0,0:0:0:0:
256,192,13372,1,8,0:0:0:0:
256,192,14356,1,0,0:0:0:0:
256,192,15831,1,8,0:0:0:0:
256,192,16323,1,0,0:0:0:0:
256,192,17307,1,0,0:0:0:0:
256,192,18290,1,12,0:0:0:0:
256,192,20258,1,4,0:0:0:0:
256,192,21241,1,0,0:0:0:0:
256,192,21733,1,8,0:0:0:0:
256,192,22225,1,0,0:0:0:0:
256,192,23208,1,8,0:0:0:0:
256,192,24192,1,0,0:0:0:0:
256,192,25176,1,8,0:0:0:0:
256,192,25667,1,8,0:0:0:0:
256,192,26159,1,0,0:0:0:0:
256,192,27143,1,8,0:0:0:0:
256,192,28126,1,0,0:0:0:0:
256,192,29110,1,0,0:0:0:0:
256,192,29602,1,8,0:0:0:0:
256,192,30094,1,0,0:0:0:0:
256,192,31077,1,8,0:0:0:0:
256,192,32061,1,0,0:0:0:0:
256,192,33045,1,8,0:0:0:0:
256,192,33536,1,0,0:0:0:0:
256,192,34028,1,8,0:0:0:0:
256,192,35012,5,8,0:0:0:0:
256,192,35504,1,8,0:0:0:0:
256,192,35995,5,4,0:0:0:0:
256,192,37963,1,0,0:0:0:0:
256,192,38946,1,0,0:0:0:0:
256,192,39438,1,0,0:0:0:0:
256,192,39930,1,12,0:0:0:0:
256,192,41405,1,8,0:0:0:0:
256,192,41897,1,0,0:0:0:0:
256,192,42881,1,0,0:0:0:0:
256,192,43372,1,8,0:0:0:0:
256,192,43864,1,4,0:0:0:0:
256,192,44848,1,8,0:0:0:0:
256,192,45831,1,0,0:0:0:0:
256,192,46323,1,0,0:0:0:0:
256,192,46815,1,8,0:0:0:0:
256,192,47799,1,0,0:0:0:0:
256,192,49766,1,4,0:0:0:0:
256,192,50749,1,8,0:0:0:0:
256,192,51733,1,0,0:0:0:0:
256,192,52225,1,0,0:0:0:0:
256,192,52717,1,0,0:0:0:0:
256,192,53700,1,8,0:0:0:0:
256,192,54684,1,0,0:0:0:0:
256,192,55667,1,0,0:0:0:0:
256,192,56159,1,0,0:0:0:0:
256,192,56651,1,8,0:0:0:0:
256,192,57635,1,4,0:0:0:0:
256,192,58618,1,8,0:0:0:0:
256,192,59602,1,8,0:0:0:0:
256,192,60094,1,0,0:0:0:0:
256,192,60586,1,8,0:0:0:0:
256,192,61569,1,0,0:0:0:0:
256,192,62553,1,8,0:0:0:0:
256,192,63536,1,0,0:0:0:0:
256,192,65504,1,4,0:0:0:0:
256,192,66487,1,4,0:0:0:0:
256,192,67471,1,12,0:0:0:0:
256,192,68454,1,12,0:0:0:0:
256,192,69438,1,4,0:0:0:0:
256,192,70422,1,8,0:0:0:0:
256,192,71405,1,0,0:0:0:0:
256,192,71897,1,0,0:0:0:0:
256,192,72389,1,0,0:0:0:0:
256,192,73372,1,8,0:0:0:0:
256,192,74356,1,0,0:0:0:0:
256,192,75339,1,8,0:0:0:0:
256,192,75831,1,8,0:0:0:0:
256,192,76323,1,0,0:0:0:0:
256,192,77307,1,4,0:0:0:0:
256,192,78290,1,8,0:0:0:0:
256,192,79274,1,0,0:0:0:0:
256,192,79766,1,8,0:0:0:0:
256,192,80258,1,0,0:0:0:0:
256,192,81241,1,8,0:0:0:0:
256,192,82225,1,0,0:0:0:0:
256,192,83208,1,8,0:0:0:0:
256,192,85176,1,4,0:0:0:0:
256,192,86159,1,4,0:0:0:0:
256,192,87143,1,12,0:0:0:0:
