osu file format v14

[General]
AudioFilename: Hakone Hakoiri Musume.mp3
AudioLeadIn: 0
PreviewTime: 72472
Countdown: 0
SampleSet: Normal
StackLeniency: 0.7
Mode: 0
LetterboxInBreaks: 0
WidescreenStoryboard: 0

[Editor]
DistanceSpacing: 1.3
BeatDivisor: 4
GridSize: 32
TimelineZoom: 1

[Metadata]
Title:Hakone Hakoiri Musume
TitleUnicode:ハコネハコイリムスメ
Artist:petit milady
ArtistUnicode:petit milady
Creator:Rizia
Version:Simple
Source:温泉幼精ハコネちゃん
Tags:Onsen Yousei Hakone-chan opening CALENDAR GIRL kawaiwkyik StarrStyx pata-mon chaoslitz lit120 flask
BeatmapID:1008851
BeatmapSetID:370467

[Difficulty]
HPDrainRate:7
CircleSize:4
OverallDifficulty:9
ApproachRate:9.6
SliderMultiplier:1.8
SliderTickRate:1

[Events]
//Background and Video events
0,0,"bg.jpg",0,0
//Break Periods
2,98990,107009
2,170990,174645
//Storyboard Layer 0 (Background)
//Storyboard Layer 1 (Fail)
//Storyboard Layer 2 (Pass)
//Storyboard Layer 3 (Foreground)
//Storyboard Sound Samples

[TimingPoints]
609,272.727272727273,4,1,1,30,1,0
4972,-166.666666666667,4,2,1,30,0,0
7699,-166.666666666667,4,1,1,60,0,0
8245,-111.111111111111,4,1,1,60,0,0
12745,-100,4,1,1,80,0,0
15881,-125,4,1,1,80,0,0
16972,-58.8235294117647,4,1,1,80,0,0
17177,-58.8235294117647,4,1,1,5,0,0
17245,-58.8235294117647,4,1,1,80,0,0
17449,-58.8235294117647,4,1,1,5,0,0
17518,-58.8235294117647,4,1,1,80,0,0
17722,-58.8235294117647,4,1,1,5,0,0
17790,-58.8235294117647,4,1,1,80,0,0
17995,-58.8235294117647,4,1,1,5,0,0
18063,-100,4,1,1,80,0,0
26790,-125,4,2,1,60,0,0
34427,-90.9090909090909,4,2,1,70,0,0
35518,-100,4,1,1,70,0,0
61699,-125,4,1,1,70,0,0
63063,-100,4,1,1,70,0,0
63336,-66.6666666666667,4,1,1,70,0,0
63881,-100,4,1,1,80,0,1
72472,-100,4,1,1,80,0,0
72609,-100,4,1,1,80,0,1
79154,-125,4,1,1,80,0,1
79359,-125,4,1,1,5,0,1
79427,-66.6666666666667,4,1,1,80,0,1
79631,-66.6666666666667,4,1,1,5,0,1
79699,-125,4,1,1,80,0,1
79904,-125,4,1,1,5,0,1
79972,-66.6666666666667,4,1,1,80,0,1
80177,-66.6666666666667,4,1,1,5,0,1
80245,-76.9230769230769,4,1,1,80,0,1
82290,-100,4,1,1,80,0,1
85699,-125,4,1,1,80,0,1
89518,-100,4,1,1,80,0,1
89722,-100,4,1,1,5,0,1
89790,-50,4,1,1,80,0,1
89995,-50,4,1,1,5,0,1
90063,-100,4,1,1,80,0,0
96609,-125,4,1,1,80,0,0
97699,-50,4,1,1,80,0,0
97904,-50,4,1,1,5,0,0
97972,-50,4,1,1,80,0,0
98177,-50,4,1,1,5,0,0
98245,-50,4,1,1,80,0,0
98449,-50,4,1,1,5,0,0
98518,-50,4,1,1,80,0,0
98722,-50,4,1,1,5,0,0
98790,-50,4,1,1,80,0,0
107518,-100,4,1,1,80,0,0
142427,-125,4,1,1,80,0,0
144199,-125,4,1,1,60,0,0
144609,-100,4,1,1,80,0,1
151154,-125,4,1,1,80,0,1
151359,-125,4,1,1,5,0,1
151427,-66.6666666666667,4,1,1,80,0,1
151631,-66.6666666666667,4,1,1,5,0,1
151699,-125,4,1,1,80,0,1
151904,-125,4,1,1,5,0,1
151972,-66.6666666666667,4,1,1,80,0,1
152177,-66.6666666666667,4,1,1,5,0,1
152245,-100,4,1,1,80,0,1
153199,-100,4,1,1,80,0,0
153336,-100,4,1,1,80,0,1
159881,-125,4,1,1,80,0,1
160086,-125,4,1,1,5,0,1
160154,-66.6666666666667,4,1,1,80,0,1
160359,-66.6666666666667,4,1,1,5,0,1
160427,-125,4,1,1,80,0,1
160631,-125,4,1,1,5,0,1
160699,-66.6666666666667,4,1,1,80,0,1
160904,-66.6666666666667,4,1,1,5,0,1
160972,-76.9230769230769,4,1,1,80,0,1
163018,-100,4,1,1,80,0,1
166427,-125,4,1,1,80,0,1
170245,-100,4,1,1,80,0,1
170449,-100,4,1,1,5,0,1
170518,-50,4,1,1,80,0,1
170722,-50,4,1,1,5,0,1
170790,-100,4,1,1,80,0,0
175154,-111.111111111111,4,1,1,80,0,0
179518,-100,4,1,1,80,0,0
196972,-125,4,1,1,80,0,0
199154,-166.666666666667,4,2,1,60,0,0
207881,-100,4,1,1,80,0,1
214427,-125,4,1,1,80,0,1
214631,-125,4,1,1,5,0,1
214699,-66.6666666666667,4,1,1,80,0,1
214904,-66.6666666666667,4,1,1,5,0,1
214972,-125,4,1,1,80,0,1
215177,-125,4,1,1,5,0,1
215245,-66.6666666666667,4,1,1,80,0,1
215449,-66.6666666666667,4,1,1,5,0,1
215518,-76.9230769230769,4,1,1,80,0,1
217563,-100,4,1,1,80,0,1
220972,-125,4,1,1,80,0,1
224790,-100,4,1,1,80,0,1
224995,-125,4,1,1,5,0,1
225063,-50,4,1,1,80,0,1
225268,-50,4,1,1,5,0,1
225336,-100,4,1,1,80,0,0
231881,-125,4,1,1,80,0,0
232972,-50,4,1,1,80,0,0
233177,-50,4,1,1,5,0,0
233245,-50,4,1,1,80,0,0
233449,-50,4,1,1,5,0,0
233518,-50,4,1,1,80,0,0
233722,-50,4,1,1,5,0,0
233790,-50,4,1,1,80,0,0
233995,-50,4,1,1,5,0,0
234063,-100,4,1,1,80,0,0
235904,-100,4,1,1,5,0,0
235972,-50,4,1,1,80,0,0
236177,-50,4,1,1,5,0,0
236245,-111.111111111111,4,1,1,80,0,0
238427,-100,4,1,1,80,0,0
238699,-100,4,1,1,40,0,0
238836,-100,4,1,1,80,0,0
239109,-100,4,1,1,40,0,0
239245,-100,4,1,1,80,0,0
240199,-100,4,1,1,40,0,0

[Colours]
Combo1 : 0,128,0
Combo2 : 255,0,0
Combo3 : 255,128,192
Combo4 : 0,64,128

[HitObjects]
32,36,4972,6,0,L|92:44,1,53.9999983520508,2|0,0:0|0:0,0:0:0:0:
248,92,5245,2,0,L|194:99,1,53.9999983520508
52,120,5518,2,0,L|105:127,1,53.9999983520508,2|0,0:0|0:0,0:0:0:0:
228,176,5791,2,0,L|168:184,1,53.9999983520508
111,345,6063,6,0,L|119:285,1,53.9999983520508,2|0,0:0|0:0,0:0:0:0:
167,129,6336,2,0,L|174:182,1,53.9999983520508
195,325,6609,2,0,L|202:271,1,53.9999983520508,2|0,0:0|0:0,0:0:0:0:
251,149,6882,2,0,L|258:202,1,53.9999983520508
324,264,7154,5,0,0:0:0:0:
416,272,7290,1,0,0:0:0:0:
416,272,7359,1,0,0:0:0:0:
416,272,7427,1,4,0:0:0:0:
376,192,7563,1,0,0:0:0:0:
360,344,7699,5,8,0:0:0:0:
464,196,7836,1,8,0:0:0:0:
464,196,7904,1,8,0:0:0:0:
464,196,7972,1,8,0:0:0:0:
288,184,8109,1,8,0:0:0:0:
200,336,8245,6,0,L|100:328,1,80.9999975280763,0|8,0:0|0:0,0:0:0:0:
44,268,8518,1,8,0:0:0:0:
44,268,8654,1,8,0:0:0:0:
76,136,8790,5,2,0:2:0:0:
112,116,8859,1,2,0:2:0:0:
152,112,8927,1,2,0:2:0:0:
192,116,8995,1,2,0:2:0:0:
228,136,9063,1,2,0:2:0:0:
252,168,9131,1,2,0:2:0:0:
288,184,9199,1,2,0:2:0:0:
328,188,9268,1,2,0:2:0:0:
368,176,9336,5,4,0:0:0:0:
368,176,10972,5,8,0:0:0:0:
124,88,11245,1,8,0:0:0:0:
164,344,11518,1,4,0:0:0:0:
164,344,12745,5,0,0:0:0:0:
164,344,12813,1,0,0:0:0:0:
164,344,12881,1,8,0:0:0:0:
232,284,13018,1,8,0:0:0:0:
320,272,13154,1,8,0:0:0:0:
404,308,13290,1,8,0:0:0:0:
396,216,13427,5,8,0:0:0:0:
328,364,13563,1,8,0:0:0:0:
248,152,13699,1,4,0:0:0:0:
248,152,14245,6,0,B|268:116|268:116|312:180|280:256,1,180,0|8,0:0|0:0,0:0:0:0:
185,230,14654,1,8,0:0:0:0:
185,230,14790,1,12,0:0:0:0:
179,96,15336,5,8,0:0:0:0:
300,32,15472,1,0,0:0:0:0:
280,160,15609,1,8,0:0:0:0:
404,104,15745,1,0,0:0:0:0:
388,240,15881,6,0,L|380:320,1,72
172,364,16154,1,10,0:0:0:0:
180,252,16290,1,0,0:0:0:0:
284,268,16427,2,0,L|212:275,1,72
84,220,16699,1,10,0:0:0:0:
92,328,16836,1,0,0:0:0:0:
28,88,16972,6,0,P|72:24|224:48,1,229.500004377365,4|0,0:0|0:0,0:0:0:0:
336,88,17245,2,0,P|380:96|316:32,1,229.500004377365,4|0,0:0|0:0,0:0:0:0:
208,116,17518,2,0,B|188:164|188:164|220:344,1,229.500004377365,4|0,0:0|0:0,0:0:0:0:
452,302,17790,2,2,B|384:296|336:348|336:348|320:248,1,229.500004377365,2|0,0:0|0:0,0:0:0:0:
312,132,18063,5,4,0:0:0:0:
32,288,18336,2,0,P|68:260|120:264,1,90,8|0,0:0|0:0,0:0:0:0:
196,288,18609,1,0,0:0:0:0:
240,368,18745,1,0,0:0:0:0:
176,192,18881,1,8,0:0:0:0:
96,336,19018,1,0,0:0:0:0:
288,292,19154,6,0,B|332:296|332:296|376:276,1,90
396,172,19427,2,0,B|352:168|352:168|308:188,1,90,8|0,0:0|0:0,0:0:0:0:
76,220,19699,2,0,L|92:124,1,90
288,53,19972,2,0,L|310:186,1,135,4|0,0:0|0:0,0:0:0:0:
316,220,20245,6,0,P|272:252|176:180,1,180,4|8,0:0|0:0,0:0:0:0:
172,104,20654,1,0,0:0:0:0:
76,220,20790,1,0,0:0:0:0:
88,132,20927,1,0,0:0:0:0:
128,296,21063,2,0,P|80:312|40:332,1,90,8|0,0:0|0:0,0:0:0:0:
220,356,21336,6,0,L|316:360,1,90
392,276,21609,1,8,0:0:0:0:
416,380,21745,1,8,0:0:0:0:
456,200,21881,5,8,0:0:0:0:
288,248,22018,1,8,0:0:0:0:
484,288,22154,1,8,0:0:0:0:
368,124,22290,1,8,0:0:0:0:
240,256,22427,6,0,P|200:272|104:192,1,180,4|8,0:0|0:0,0:0:0:0:
276,60,22836,1,0,0:0:0:0:
368,124,22972,2,0,L|476:112,1,90
488,20,23245,2,0,L|380:32,1,90,8|0,0:0|0:0,0:0:0:0:
277,162,23518,6,0,P|273:218|301:262,1,90
448,228,23790,2,0,P|401:196|349:198,1,90,8|0,0:0|0:0,0:0:0:0:
308,344,24063,2,0,P|358:319|382:273,1,90
216,344,24336,2,0,P|168:336|60:328,1,135,4|0,0:0|0:0,0:0:0:0:
44,344,24609,6,0,P|16:300|60:184,1,180,4|8,0:0|0:0,0:0:0:0:
132,144,25018,1,0,0:0:0:0:
220,136,25154,1,0,0:0:0:0:
304,164,25290,1,0,0:0:0:0:
368,228,25427,2,0,P|412:240|488:224,1,90,8|0,0:0|0:0,0:0:0:0:
426,62,25699,6,0,L|420:152,1,90
288,344,25972,2,0,L|281:254,1,90,8|2,0:0|0:0,0:0:0:0:
281,254,26177,1,8,0:0:0:0:
281,254,26245,1,0,0:0:0:0:
164,308,26381,1,0,0:0:0:0:
216,104,26518,1,10,0:0:0:0:
216,104,26790,6,0,P|208:144|212:176,1,72
364,152,27063,2,0,L|284:144,1,72
440,192,27336,2,0,P|448:152|444:120,1,72
400,276,27609,2,0,L|471:283,1,72,8|0,0:1|0:0,0:0:0:0:
304,352,27881,5,0,0:0:0:0:
304,352,28018,1,0,0:0:0:0:
235,300,28154,2,0,L|163:307,1,72
40,240,28427,2,0,L|44:204,3,36,2|2|2|2,0:0|0:0|0:0|0:0,0:0:0:0:
64,168,28699,2,0,L|60:132,3,36,2|2|2|2,0:0|0:0|0:0|0:0,0:0:0:0:
32,96,28972,6,0,B|28:60|28:60|44:12,1,72
164,100,29245,2,0,B|168:136|168:136|152:184,1,72
180,244,29518,1,0,0:0:0:0:
256,220,29654,1,0,0:0:0:0:
336,228,29790,1,0,0:0:0:0:
404,268,29927,1,0,0:0:0:0:
428,348,30063,6,0,P|391:349|353:334,1,72
360,196,30336,2,0,P|393:184|429:186,1,72
288,300,30609,2,0,P|244:280|140:288,1,144,0|8,0:0|0:1,0:0:0:0:
12,40,31154,6,0,L|20:112,1,72
96,128,31427,2,0,L|88:56,1,72
156,16,31699,1,0,0:0:0:0:
224,56,31836,1,0,0:0:0:0:
300,32,31972,1,0,0:0:0:0:
368,76,32109,1,0,0:0:0:0:
436,32,32245,6,0,P|448:68|440:108,1,72
376,184,32518,2,0,P|364:220|372:260,1,72
444,332,32790,2,0,P|408:356|304:344,1,144,0|8,0:0|0:1,0:0:0:0:
36,256,33336,5,0,0:0:0:0:
36,256,33472,2,0,P|84:240|128:248,2,72
176,288,33881,2,0,B|188:252|188:252|184:212,1,72
56,92,34154,2,0,B|44:128|44:128|48:168,1,72
289,370,34427,6,0,L|304:272,1,99.0000030212403,4|0,0:0|0:0,0:0:0:0:
389,37,34699,2,0,L|404:136,1,99.0000030212403,4|0,0:0|0:0,0:0:0:0:
416,232,34972,5,8,0:1:0:0:
228,112,35109,1,0,0:0:0:0:
476,28,35245,1,8,0:1:0:0:
332,196,35381,1,0,0:0:0:0:
492,320,35518,6,0,P|444:308|312:356,1,180,4|10,0:0|0:0,0:0:0:0:
204,248,35927,1,0,0:0:0:0:
332,196,36063,2,0,L|348:92,1,90,2|0,0:0|0:0,0:0:0:0:
241,23,36336,2,0,L|225:127,1,90,8|0,0:0|0:0,0:0:0:0:
284,296,36609,6,0,P|328:308|400:284,1,90,2|0,0:0|0:0,0:0:0:0:
204,248,36881,1,8,0:0:0:0:
112,348,37018,1,2,0:0:0:0:
64,192,37154,2,0,B|56:128|56:128|68:76|68:76|56:0,1,180,0|8,0:0|0:0,0:0:0:0:
152,136,37563,1,0,0:0:0:0:
232,72,37699,6,0,P|276:64|319:76,1,90,2|0,0:0|0:0,0:0:0:0:
428,144,37972,2,0,B|448:104|448:104|444:52,1,90,8|0,0:0|0:0,0:0:0:0:
324,196,38245,1,2,0:0:0:0:
428,272,38381,2,0,L|552:288,1,90,0|8,0:0|0:0,0:0:0:0:
316,320,38654,6,0,L|137:296,1,180,2|0,0:0|0:0,0:0:0:0:
132,108,39063,1,8,0:0:0:0:
64,204,39199,1,0,0:0:0:0:
248,132,39336,2,0,L|372:115,1,90,2|0,0:0|0:0,0:0:0:0:
441,11,39609,2,0,L|352:24,1,90,8|0,0:0|0:0,0:0:0:0:
428,272,39881,5,2,0:0:0:0:
428,272,40018,2,0,P|444:224|432:176,1,90,0|8,0:0|0:0,0:0:0:0:
337,119,40290,1,0,0:0:0:0:
248,224,40427,2,0,P|232:272|244:320,1,90,2|0,0:0|0:0,0:0:0:0:
396,376,40699,2,0,L|496:364,1,90,10|0,0:0|0:0,0:0:0:0:
368,112,40972,5,8,0:0:0:0:
320,296,41109,1,2,0:0:0:0:
156,192,41245,2,0,P|92:184|44:180,1,90,8|0,0:0|0:0,0:0:0:0:
320,296,41518,2,0,P|364:291|409:285,1,90,8|0,0:0|0:0,0:0:0:0:
409,285,41722,1,0,0:0:0:0:
409,285,41790,1,12,0:0:0:0:
408,24,42063,6,0,P|460:68|444:180,1,180,6|8,0:0|0:0,0:0:0:0:
285,131,42472,2,0,P|333:107|377:115,1,90,0|10,0:0|0:0,0:0:0:0:
508,244,42745,2,0,P|460:268|416:260,1,90,0|8,0:0|0:0,0:0:0:0:
344,200,43018,1,0,0:0:0:0:
188,260,43154,5,10,0:0:0:0:
308,368,43290,1,0,0:0:0:0:
344,200,43427,2,0,P|296:220|248:216,1,90,8|0,0:0|0:0,0:0:0:0:
64,160,43699,2,0,L|76:52,1,90,10|0,0:0|0:0,0:0:0:0:
73,70,43904,1,4,0:3:0:0:
73,70,43972,1,8,0:3:0:0:
400,116,44245,6,0,L|496:128,1,90,4|0,0:0|0:0,0:0:0:0:
460,32,44518,2,0,L|364:20,1,90,8|0,0:0|0:0,0:0:0:0:
284,284,44790,2,0,L|380:296,1,90,2|0,0:0|0:0,0:0:0:0:
344,200,45063,2,0,L|248:188,1,90,8|2,0:0|0:0,0:0:0:0:
48,248,45336,5,0,0:0:0:0:
164,264,45472,1,2,0:0:0:0:
176,148,45609,1,8,0:0:0:0:
60,132,45745,2,0,P|56:80|84:36,1,90,2|0,0:0|0:0,0:0:0:0:
240,88,46018,1,2,0:0:0:0:
136,231,46154,2,0,L|28:251,1,90,8|2,0:0|0:0,0:0:0:0:
284,284,46427,6,0,L|392:264,1,90
484,304,46699,1,8,0:0:0:0:
372,267,46836,1,2,0:0:0:0:
456,188,46972,1,0,0:0:0:0:
400,383,47109,1,0,0:0:0:0:
256,232,47245,2,0,P|200:216|152:228,1,90,10|0,0:0|0:0,0:0:0:0:
48,348,47518,6,0,L|144:332,1,90,2|0,0:0|0:0,0:0:0:0:
204,128,47790,2,0,L|115:142,1,90,8|2,0:0|0:0,0:0:0:0:
256,232,48063,1,0,0:0:0:0:
312,48,48199,1,0,0:0:0:0:
372,168,48336,2,0,B|420:172|420:172|476:148,1,90,10|0,0:0|0:0,0:0:0:0:
184,288,48609,6,0,P|168:244|176:192,1,90,2|0,0:0|0:0,0:0:0:0:
339,201,48881,2,0,P|343:246|328:288,1,90,8|0,0:0|0:0,0:0:0:0:
156,372,49154,2,0,L|64:360,1,90,2|0,0:0|0:0,0:0:0:0:
356,372,49427,2,0,L|445:360,1,90,8|0,0:0|0:0,0:0:0:0:
496,256,49699,5,2,0:0:0:0:
428,160,49836,1,0,0:0:0:0:
464,48,49972,1,10,0:0:0:0:
384,272,50109,1,2,0:0:0:0:
240,88,50245,5,0,0:0:0:0:
308,184,50381,1,0,0:0:0:0:
356,76,50518,1,10,0:0:0:0:
196,196,50654,1,0,0:0:0:0:
380,304,50790,6,0,B|328:296|328:296|264:316|264:316|192:304,1,180,0|8,0:0|0:0,0:0:0:0:
252,212,51199,1,2,0:0:0:0:
336,376,51336,1,0,0:0:0:0:
336,376,51472,1,0,0:0:0:0:
492,288,51609,2,0,B|496:240|496:240|480:188,1,90,10|0,0:0|0:0,0:0:0:0:
308,128,51881,6,0,L|420:104,1,90,2|0,0:0|0:0,0:0:0:0:
248,48,52154,2,0,L|136:72,1,90,8|2,0:0|0:0,0:0:0:0:
24,224,52427,1,0,0:0:0:0:
136,196,52563,1,0,0:0:0:0:
72,56,52699,1,10,0:0:0:0:
96,280,52836,1,0,0:0:0:0:
288,172,52972,6,0,P|336:164|384:184,1,90,14|0,0:0|0:0,0:0:0:0:
320,308,53245,2,0,P|272:316|224:296,1,90,8|0,0:0|0:0,0:0:0:0:
136,196,53518,1,10,0:0:0:0:
192,48,53654,1,0,0:0:0:0:
288,172,53790,1,8,0:0:0:0:
136,196,53927,1,0,0:0:0:0:
320,92,54063,6,0,L|332:-8,1,90,10|0,0:0|0:0,0:0:0:0:
216,240,54336,2,0,L|226:329,1,90,8|0,0:0|0:0,0:0:0:0:
456,224,54609,2,0,L|340:208,1,90,10|0,0:0|0:0,0:0:0:0:
140,112,54881,2,0,L|229:99,1,90,8|0,0:0|0:0,0:0:0:0:
424,312,55154,5,6,0:0:0:0:
216,240,55290,1,0,0:0:0:0:
366,211,55427,1,8,0:0:0:0:
200,356,55563,1,0,0:0:0:0:
148,136,55699,1,10,0:0:0:0:
300,280,55836,1,0,0:0:0:0:
104,328,55972,2,0,L|12:320,1,90,8|0,0:0|0:0,0:0:0:0:
288,180,56245,5,10,0:0:0:0:
328,368,56381,1,8,0:0:0:0:
216,240,56518,1,10,0:0:0:0:
104,328,56654,1,8,0:0:0:0:
300,280,56790,1,10,0:0:0:0:
156,124,56927,1,8,0:0:0:0:
392,304,57063,2,0,P|436:312|492:292,1,90,10|8,0:0|0:3,0:0:0:0:
444,128,57336,6,0,L|436:224,1,90,4|0,0:0|0:0,0:0:0:0:
307,369,57609,2,0,L|299:279,1,90,8|0,0:0|0:0,0:0:0:0:
288,180,57881,1,2,0:0:0:0:
200,268,58018,1,0,0:0:0:0:
120,96,58154,1,8,0:0:0:0:
84,348,58290,6,0,P|128:316|268:336,1,180,6|0,0:0|0:0,0:0:0:0:
324,176,58699,1,8,0:0:0:0:
400,364,58836,1,0,0:0:0:0:
456,284,58972,2,0,L|352:268,1,90,2|0,0:0|0:0,0:0:0:0:
248,322,59245,1,8,0:0:0:0:
432,184,59381,1,0,0:0:0:0:
200,72,59518,6,0,P|180:120|188:172,1,90,4|0,0:0|0:0,0:0:0:0:
324,272,59790,1,8,0:0:0:0:
376,136,59927,5,2,0:0:0:0:
376,136,59995,1,0,0:0:0:0:
376,136,60063,1,8,0:0:0:0:
200,72,60199,1,8,0:0:0:0:
136,248,60336,1,8,0:0:0:0:
312,312,60472,1,8,0:0:0:0:
256,192,60745,5,0,0:0:0:0:
136,248,60881,2,0,L|40:236,1,90,8|0,0:0|0:0,0:0:0:0:
236,324,61154,1,0,0:0:0:0:
144,140,61290,1,4,0:3:0:0:
372,56,61427,1,8,0:3:0:0:
372,56,61699,6,0,L|360:128,1,72
372,198,61972,2,0,L|360:126,1,72,8|0,0:0|0:0,0:0:0:0:
232,40,62245,2,0,L|220:112,1,72
96,256,62518,2,0,L|84:184,1,72,8|0,0:0|0:0,0:0:0:0:
68,336,62790,6,0,P|108:340|156:320,1,72
216,240,63063,2,0,P|264:232|320:252,1,90,8|0,0:0|0:0,0:0:0:0:
424,336,63336,6,0,P|472:352|420:252,1,270.000010299683,0|2,0:0|0:3,0:0:0:0:
356,280,63745,1,0,0:0:0:0:
152,320,63881,6,0,P|116:268|144:160,1,180,4|8,0:0|0:0,0:0:0:0:
280,52,64290,1,0,0:0:0:0:
297,223,64427,2,0,L|208:236,1,90,2|0,0:0|0:0,0:0:0:0:
372,84,64699,2,0,L|461:71,1,90,8|0,0:0|0:0,0:0:0:0:
440,232,64972,5,0,0:0:0:0:
291,136,65109,2,0,P|273:95|279:51,1,90,2|8,0:0|0:0,0:0:0:0:
356,280,65381,2,0,P|362:324|344:364,1,90,2|0,0:0|0:0,0:0:0:0:
216,184,65654,1,0,0:0:0:0:
440,232,65790,1,8,0:0:0:0:
276,312,65927,1,0,0:0:0:0:
376,112,66063,5,2,0:0:0:0:
436,328,66199,1,0,0:0:0:0:
308,184,66336,1,8,0:0:0:0:
240,340,66472,1,2,0:0:0:0:
132,260,66609,2,0,B|88:256|88:256|40:272,1,90
240,340,66881,2,0,B|284:344|284:344|332:328,1,90,8|0,0:0|0:0,0:0:0:0:
176,80,67154,5,2,0:0:0:0:
116,171,67290,2,0,L|132:260,1,90,0|8,0:0|0:0,0:0:0:0:
276,84,67563,1,2,0:0:0:0:
352,200,67699,2,0,P|396:200|440:176,1,90
184,276,67972,2,0,P|162:314|160:364,1,90,8|8,0:0|0:3,0:0:0:0:
200,88,68245,6,0,P|177:49|135:23,1,90,2|0,0:0|0:0,0:0:0:0:
16,140,68518,2,0,L|32:236,1,90,8|0,0:0|0:0,0:0:0:0:
264,340,68790,2,0,L|278:251,1,90,2|0,0:0|0:0,0:0:0:0:
184,276,69063,1,8,0:0:0:0:
360,308,69199,1,0,0:0:0:0:
464,168,69336,6,0,P|464:124|448:80,1,90,2|0,0:0|0:0,0:0:0:0:
288,156,69609,2,0,L|388:140,1,90,8|0,0:0|0:0,0:0:0:0:
452,268,69881,1,2,0:0:0:0:
200,184,70018,1,8,0:0:0:0:
328,40,70154,1,4,0:3:0:0:
360,308,70290,1,4,0:3:0:0:
124,232,70427,6,0,L|16:224,1,90
200,357,70699,2,0,P|260:313|388:349,1,180,4|0,0:0|0:0,0:0:0:0:
467,240,71109,1,0,0:0:0:0:
272,111,71245,2,0,P|274:173|284:229,1,90,4|0,0:0|0:0,0:0:0:0:
165,31,71518,5,0,0:0:0:0:
36,196,71654,1,2,0:0:0:0:
208,152,71790,1,8,0:0:0:0:
68,108,71927,1,2,0:0:0:0:
228,252,72063,1,8,0:0:0:0:
24,300,72199,1,10,0:0:0:0:
312,184,72336,1,8,0:0:0:0:
60,72,72473,1,2,0:0:0:0:
104,220,72609,6,0,P|136:240|240:144,1,180,4|8,0:0|0:0,0:0:0:0:
172,76,73018,1,0,0:0:0:0:
172,76,73154,2,0,P|156:128|168:176,1,90,2|0,0:0|0:0,0:0:0:0:
320,264,73427,2,0,L|436:256,1,90,8|0,0:0|0:0,0:0:0:0:
224,296,73699,5,0,0:0:0:0:
352,160,73836,2,0,P|364:112|368:72,1,90,2|8,0:0|0:0,0:0:0:0:
292,368,74109,1,2,0:0:0:0:
240,212,74245,2,0,P|192:216|148:252,1,90
388,320,74518,2,0,P|408:276|399:220,1,90,8|0,0:0|0:0,0:0:0:0:
292,80,74790,5,2,0:0:0:0:
448,160,74927,1,0,0:0:0:0:
240,212,75063,1,8,0:0:0:0:
440,128,75199,1,2,0:0:0:0:
272,64,75336,2,0,L|184:80,1,90
352,244,75609,2,0,L|440:228,1,90,10|0,0:0|0:0,0:0:0:0:
320,132,75881,5,2,0:0:0:0:
216,232,76018,1,0,0:0:0:0:
388,320,76154,1,8,0:0:0:0:
196,252,76290,2,0,P|200:200|216:136,1,90,2|0,0:0|0:0,0:0:0:0:
368,280,76563,1,0,0:0:0:0:
208,360,76699,2,0,P|152:368|96:380,1,90,10|0,0:0|0:0,0:0:0:0:
32,136,76972,6,0,P|68:96|192:108,1,180,2|8,0:0|0:0,0:0:0:0:
316,168,77381,1,0,0:0:0:0:
132,260,77518,2,0,L|120:164,1,90,2|0,0:0|0:0,0:0:0:0:
216,124,77790,1,8,0:0:0:0:
296,280,77927,1,0,0:0:0:0:
327,78,78063,6,0,L|315:174,1,90,2|0,0:0|0:0,0:0:0:0:
224,336,78336,2,0,L|212:246,1,90,8|0,0:0|0:0,0:0:0:0:
440,144,78609,1,2,0:0:0:0:
232,168,78745,1,8,0:0:0:0:
356,16,78881,1,4,0:3:0:0:
388,272,79018,1,4,0:3:0:0:
160,120,79154,6,0,P|200:128|264:80,1,108
276,64,79427,6,0,L|244:300,1,202.500007724762,12|0,0:0|0:0,0:0:0:0:
136,360,79699,6,0,P|112:288|144:236,1,108
144,240,79972,6,0,P|196:276|336:212,1,202.500007724762,12|0,0:0|0:0,0:0:0:0:
360,160,80245,6,0,L|344:288,1,116.999994644165
132,92,80518,2,0,L|148:220,1,116.999994644165,8|0,0:0|0:0,0:0:0:0:
360,36,80790,1,8,0:0:0:0:
256,240,80927,1,8,0:0:0:0:
256,240,80995,1,8,0:0:0:0:
256,240,81063,1,8,0:0:0:0:
144,116,81199,1,0,0:0:0:0:
380,180,81336,5,4,0:0:0:0:
112,272,81472,1,0,0:0:0:0:
384,336,81609,1,8,0:0:0:0:
384,336,82290,6,0,P|348:300|200:296,1,180,4|0,0:0|0:0,0:0:0:0:
128,360,82699,1,10,0:0:0:0:
168,140,82836,1,0,0:0:0:0:
172,168,82904,1,0,0:0:0:0:
176,196,82972,1,2,0:0:0:0:
204,368,83109,1,0,0:0:0:0:
60,236,83245,1,10,0:0:0:0:
296,136,83381,1,0,0:0:0:0:
88,252,83518,5,2,0:0:0:0:
376,260,83654,1,0,0:0:0:0:
224,24,83790,1,8,0:0:0:0:
308,384,84472,6,0,P|316:324|340:188,1,180,4|0,0:0|0:0,0:0:0:0:
424,64,84881,1,8,0:0:0:0:
480,256,85018,1,0,0:0:0:0:
452,252,85086,1,0,0:0:0:0:
424,248,85154,1,8,0:0:0:0:
216,264,85290,1,8,0:0:0:0:
440,156,85427,1,2,0:0:0:0:
232,68,85563,1,0,0:0:0:0:
88,320,85699,6,0,L|168:308,1,72
280,140,85972,2,0,L|268:220,1,72,8|0,0:0|0:0,0:0:0:0:
336,384,86245,2,0,L|324:304,1,72,8|0,0:0|0:0,0:0:0:0:
112,152,86518,2,0,L|122:223,1,72,8|0,0:0|0:0,0:0:0:0:
368,72,86790,6,0,L|356:152,1,72,8|0,0:0|0:0,0:0:0:0:
200,72,87063,1,8,0:0:0:0:
200,72,87199,1,0,0:0:0:0:
352,240,87336,2,0,P|392:232|440:224,1,72,8|0,0:0|0:0,0:0:0:0:
182,165,87609,2,0,P|146:158|111:151,1,72,8|0,0:0|0:0,0:0:0:0:
212,344,87881,5,0,0:0:0:0:
284,148,88018,1,0,0:0:0:0:
352,240,88154,1,8,0:0:0:0:
124,296,88290,1,0,0:0:0:0:
348,320,88427,5,0,0:0:0:0:
168,204,88563,1,0,0:0:0:0:
380,152,88699,1,8,0:0:0:0:
100,268,88836,1,0,0:0:0:0:
360,352,88972,5,8,0:0:0:0:
60,172,89109,1,8,0:0:0:0:
396,48,89245,1,12,0:0:0:0:
204,368,89381,1,8,0:0:0:0:
184,36,89518,6,0,L|200:196,1,135
200,192,89790,6,0,P|294:197|250:61,1,270,2|0,0:0|0:0,0:0:0:0:
80,92,90063,1,4,0:0:0:0:
80,92,91699,5,8,0:0:0:0:
428,216,91972,1,8,0:0:0:0:
184,328,92245,1,4,0:0:0:0:
236,40,93472,5,0,0:0:0:0:
236,40,93540,1,0,0:0:0:0:
236,40,93609,1,8,0:0:0:0:
204,124,93745,1,8,0:0:0:0:
224,212,93881,1,8,0:0:0:0:
284,280,94018,1,8,0:0:0:0:
372,276,94154,5,8,0:0:0:0:
284,152,94290,1,0,0:0:0:0:
220,356,94427,1,4,0:0:0:0:
336,356,94972,6,0,P|344:300|368:172,1,180,0|8,0:0|0:0,0:0:0:0:
272,292,95381,1,8,0:0:0:0:
420,72,95517,1,4,0:0:0:0:
96,84,96063,5,8,0:0:0:0:
243,137,96199,1,0,0:0:0:0:
92,208,96336,1,8,0:0:0:0:
236,56,96472,1,0,0:0:0:0:
176,272,96609,6,0,L|164:364,1,72
372,332,96881,2,0,L|276:320,1,72,8|0,0:0|0:0,0:0:0:0:
72,188,97154,6,0,L|143:178,1,72
344,200,97427,2,0,L|332:104,1,72,8|0,0:0|0:0,0:0:0:0:
155,317,97699,6,0,P|107:337|99:181,1,270,4|0,0:0|0:0,0:0:0:0:
357,317,97972,2,0,P|405:337|413:181,1,270,4|0,0:0|0:0,0:0:0:0:
256,124,98245,2,0,B|188:112|216:16|332:36|292:116|244:136|236:184|268:300,1,270,4|0,0:0|0:0,0:0:0:0:
168,352,98518,2,0,P|254:265|344:348,1,270,2|0,0:0|0:0,0:0:0:0:
256,352,98790,5,4,0:0:0:0:
88,64,107518,6,0,L|192:72,1,90,4|0,0:0|0:0,0:0:0:0:
268,132,107790,2,0,P|284:76|276:28,1,90,8|0,0:0|0:0,0:0:0:0:
176,172,108063,2,0,P|174:216|189:258,1,90
288,300,108336,2,0,L|377:293,1,90,8|0,0:0|0:0,0:0:0:0:
456,220,108609,5,0,0:0:0:0:
456,220,108745,1,0,0:0:0:0:
368,156,108881,2,0,L|278:162,1,90,8|0,0:0|0:0,0:0:0:0:
108,320,109154,6,0,L|36:308,1,45
176,172,109290,2,0,L|188:244,1,45,2|0,0:2|0:0,0:0:0:0:
243,307,109427,2,0,L|288:300,1,45,8|0,0:0|0:0,0:0:0:0:
76,168,109563,2,0,L|83:123,1,45,2|0,0:2|0:0,0:0:0:0:
152,344,109699,5,0,0:0:0:0:
188,152,109836,1,0,0:0:0:0:
280,252,109972,1,8,0:0:0:0:
236,72,110109,1,0,0:0:0:0:
156,176,110245,2,0,L|60:168,1,90
120,64,110518,1,8,0:0:0:0:
288,160,110654,1,0,0:0:0:0:
136,272,110790,6,0,P|120:316|128:360,1,90
304,324,111063,2,0,L|424:308,1,90,8|0,0:0|0:0,0:0:0:0:
492,224,111336,2,0,L|372:208,1,90
288,160,111609,2,0,P|296:104|316:40,1,90,8|0,0:0|0:0,0:0:0:0:
376,236,111881,6,0,P|324:272|188:240,1,180,0|8,0:0|0:0,0:0:0:0:
152,184,112290,1,0,0:0:0:0:
196,96,112427,2,0,L|212:4,1,90
52,160,112699,2,0,L|67:248,1,90,8|0,0:0|0:0,0:0:0:0:
232,296,112972,6,0,P|192:292|132:324,1,90
320,376,113245,2,0,P|343:343|345:275,1,90,8|0,0:0|0:0,0:0:0:0:
280,184,113518,1,0,0:0:0:0:
416,96,113654,1,0,0:0:0:0:
444,256,113790,1,8,0:0:0:0:
320,100,113927,1,0,0:0:0:0:
320,100,113995,1,0,0:0:0:0:
320,100,114063,6,0,B|272:92|272:92|208:108|208:108|132:92,1,180,0|8,0:0|0:0,0:0:0:0:
204,16,114472,1,0,0:0:0:0:
280,184,114609,1,0,0:0:0:0:
144,94,114745,1,0,0:0:0:0:
76,240,114881,2,0,B|68:288|68:288|84:352,1,90,8|0,0:0|0:0,0:0:0:0:
272,284,115154,6,0,L|156:292,1,90,4|0,0:0|0:0,0:0:0:0:
372,176,115427,1,8,0:0:0:0:
432,352,115563,1,0,0:0:0:0:
272,284,115699,5,12,0:0:0:0:
464,208,115836,1,0,0:0:0:0:
464,208,115904,1,0,0:0:0:0:
464,208,115972,1,8,0:0:0:0:
304,68,116109,1,0,0:0:0:0:
308,372,116245,6,0,P|260:376|204:352,1,90,4|0,0:0|0:0,0:0:0:0:
236,196,116518,2,0,P|284:192|340:216,1,90,10|0,0:0|0:0,0:0:0:0:
156,252,116790,2,0,P|135:208|139:147,1,90
376,0,117063,2,0,P|396:43|392:104,1,90,10|0,0:0|0:0,0:0:0:0:
236,196,117336,6,0,P|263:156|318:129,1,90,2|0,0:0|0:0,0:0:0:0:
476,224,117609,2,0,P|428:219|377:186,1,90,8|0,0:0|0:0,0:0:0:0:
244,312,117881,2,0,P|283:291|328:288,1,90,2|0,0:0|0:0,0:0:0:0:
468,352,118154,1,8,0:0:0:0:
391,200,118290,1,0,0:0:0:0:
244,312,118427,6,0,B|208:324|208:324|152:316,1,90,2|0,0:0|0:0,0:0:0:0:
76,232,118699,2,0,B|112:220|112:220|168:228,1,90,8|0,0:0|0:0,0:0:0:0:
336,360,118972,1,2,0:0:0:0:
308,196,119109,2,0,L|292:88,1,90,0|8,0:0|0:0,0:0:0:0:
137,49,119381,6,0,L|163:227,1,180,2|0,0:0|0:0,0:0:0:0:
308,196,119790,2,0,P|360:184|404:180,1,90,8|0,0:0|0:0,0:0:0:0:
304,336,120063,1,2,0:0:0:0:
163,227,120199,1,0,0:0:0:0:
300,80,120336,1,8,0:0:0:0:
252,264,120472,1,0,0:0:0:0:
96,160,120609,6,0,P|56:160|16:188,1,90,2|0,0:0|0:0,0:0:0:0:
76,348,120881,2,0,L|84:248,1,90,8|2,0:0|0:0,0:0:0:0:
232,140,121154,1,0,0:0:0:0:
252,264,121290,1,0,0:0:0:0:
388,184,121427,2,0,L|395:94,1,90,10|0,0:0|0:0,0:0:0:0:
360,296,121699,6,0,L|449:303,1,90,8|0,0:0|0:0,0:0:0:0:
142,132,121972,2,0,L|231:139,1,90,8|0,0:0|0:0,0:0:0:0:
76,348,122245,1,8,0:0:0:0:
252,264,122381,1,0,0:0:0:0:
252,264,122449,1,0,0:0:0:0:
252,264,122518,1,8,0:0:0:0:
56,68,122790,6,0,P|100:80|208:4,1,180,4|8,0:0|0:0,0:0:0:0:
456,124,123199,2,0,P|400:96|348:100,1,90,2|8,0:0|0:0,0:0:0:0:
160,208,123472,2,0,P|224:192|284:180,1,90,0|10,0:0|0:0,0:0:0:0:
376,200,123745,1,0,0:0:0:0:
232,104,123881,5,10,0:0:0:0:
264,304,124018,1,0,0:0:0:0:
364,188,124154,1,8,0:0:0:0:
164,308,124290,1,0,0:0:0:0:
392,368,124427,5,10,0:0:0:0:
244,268,124563,1,0,0:0:0:0:
472,176,124699,1,8,0:3:0:0:
48,72,124972,6,0,L|40:168,1,90,6|0,0:0|0:0,0:0:0:0:
128,212,125245,2,0,L|136:116,1,90,8|0,0:0|0:0,0:0:0:0:
453,195,125518,2,0,L|357:187,1,90,2|0,0:0|0:0,0:0:0:0:
313,275,125791,2,0,L|409:283,1,90,8|2,0:0|0:0,0:0:0:0:
327,75,126063,5,0,0:0:0:0:
215,111,126199,1,2,0:0:0:0:
251,223,126336,1,8,0:0:0:0:
363,187,126472,1,2,0:0:0:0:
252,40,126609,5,0,0:0:0:0:
175,189,126745,1,2,0:0:0:0:
324,265,126882,1,8,0:0:0:0:
401,115,127018,1,2,0:0:0:0:
124,112,127154,6,0,P|88:164|136:280,1,180,2|8,0:0|0:0,0:0:0:0:
248,340,127563,1,0,0:0:0:0:
264,179,127699,2,0,L|175:189,1,90,2|0,0:0|0:0,0:0:0:0:
272,344,127972,2,0,L|361:353,1,90,8|0,0:0|0:0,0:0:0:0:
508,144,128245,6,0,B|456:140|456:140|400:160|400:160|320:152,1,180,2|8,0:0|0:0,0:0:0:0:
160,212,128654,1,0,0:0:0:0:
124,112,128790,2,0,B|120:64|120:64|144:12,1,90,2|0,0:0|0:0,0:0:0:0:
264,179,129063,2,0,B|268:227|268:227|244:279,1,90,8|0,0:0|0:0,0:0:0:0:
124,328,129336,6,0,L|32:312,1,90,2|0,0:0|0:0,0:0:0:0:
228,284,129609,2,0,P|240:348|228:384,1,90,8|0,0:0|0:0,0:0:0:0:
117,198,129881,2,0,P|110:153|123:111,1,90,2|0,0:0|0:0,0:0:0:0:
232,56,130154,2,0,L|324:72,1,90,8|0,0:0|0:0,0:0:0:0:
472,140,130427,6,0,L|380:156,1,90,2|0,0:0|0:0,0:0:0:0:
228,284,130699,2,0,B|216:232|216:232|232:176,1,90,8|2,0:0|0:0,0:0:0:0:
444,240,130972,2,0,B|456:292|456:292|440:348,1,90
240,372,131245,1,10,0:0:0:0:
368,288,131381,1,0,0:0:0:0:
248,188,131518,6,0,P|224:136|280:16,1,180,2|8,0:0|0:0,0:0:0:0:
364,116,131927,1,0,0:0:0:0:
228,284,132063,2,0,L|128:296,1,90,2|0,0:0|0:0,0:0:0:0:
332,200,132336,2,0,L|432:212,1,90,8|0,0:0|0:0,0:0:0:0:
164,30,132609,6,0,P|145:71|148:116,1,90,2|0,0:0|0:0,0:0:0:0:
364,116,132881,2,0,P|366:71|347:30,1,90,8|0,0:0|0:0,0:0:0:0:
128,208,133154,1,2,0:0:0:0:
256,360,133290,1,0,0:0:0:0:
384,208,133427,1,8,0:0:0:0:
256,256,133563,1,0,0:0:0:0:
356,348,133699,6,0,L|456:340,1,90,6|0,0:0|0:0,0:0:0:0:
156,348,133972,2,0,L|56:340,1,90,8|0,0:0|0:0,0:0:0:0:
128,208,134245,1,10,0:0:0:0:
248,88,134381,1,0,0:0:0:0:
292,256,134518,1,8,0:0:0:0:
128,208,134654,1,0,0:0:0:0:
344,168,134790,6,0,L|464:184,1,90,10|0,0:0|0:0,0:0:0:0:
245,336,135063,2,0,L|125:352,1,90,8|0,0:0|0:0,0:0:0:0:
372,372,135336,2,0,P|392:324|384:276,1,90,10|0,0:0|0:0,0:0:0:0:
248,88,135609,2,0,P|228:136|236:184,1,90,8|0,0:0|0:0,0:0:0:0:
452,200,135881,5,14,0:0:0:0:
332,128,136018,1,0,0:0:0:0:
388,287,136154,1,8,0:0:0:0:
444,56,136290,1,0,0:0:0:0:
228,128,136427,1,10,0:0:0:0:
424,212,136563,1,0,0:0:0:0:
264,328,136699,2,0,L|164:316,1,90,8|0,0:0|0:0,0:0:0:0:
44,192,136972,5,10,0:0:0:0:
148,168,137109,1,8,0:0:0:0:
120,272,137245,1,8,0:0:0:0:
152,72,137381,1,8,0:0:0:0:
44,192,137518,1,14,0:0:0:0:
232,248,137654,1,8,0:0:0:0:
20,296,137790,1,8,0:0:0:0:
248,136,137927,1,0,0:0:0:0:
268,344,138063,6,0,P|308:360|372:352,1,90,6|0,0:0|0:0,0:0:0:0:
480,256,138336,2,0,P|440:240|376:248,1,90,8|0,0:0|0:0,0:0:0:0:
232,248,138609,1,2,0:0:0:0:
324,64,138745,1,0,0:0:0:0:
232,248,138881,1,8,0:0:0:0:
71,169,139018,6,0,P|52:124|144:20,1,180,6|0,0:0|0:0,0:0:0:0:
356,172,139427,1,8,0:0:0:0:
216,36,139563,1,0,0:0:0:0:
144,264,139699,2,0,L|160:360,1,90,2|0,0:0|0:0,0:0:0:0:
341,260,139972,2,0,L|355:171,1,90,8|0,0:0|0:0,0:0:0:0:
216,36,140245,6,0,P|156:24|72:104,1,180,6|8,0:0|0:0,0:0:0:0:
176,144,140654,1,0,0:0:0:0:
176,144,140722,1,0,0:0:0:0:
176,144,140790,1,10,0:0:0:0:
324,96,140927,1,8,0:0:0:0:
224,312,141063,1,8,0:0:0:0:
68,136,141199,1,12,0:0:0:0:
256,192,141472,5,0,0:0:0:0:
332,256,141609,2,0,P|352:216|344:148,1,90,8|0,0:0|0:0,0:0:0:0:
159,171,141881,2,0,P|160:216|180:256,1,90,8|0,0:0|0:0,0:0:0:0:
256,84,142154,1,4,0:3:0:0:
185,70,142427,6,0,L|269:86,1,72
327,70,142699,2,0,L|243:86,1,72,8|0,0:0|0:0,0:0:0:0:
88,157,142972,2,0,L|172:173,1,72
424,157,143245,2,0,L|340:173,1,72,8|0,0:0|0:0,0:0:0:0:
118,297,143518,6,0,P|153:296|188:308,1,72
324,356,143790,2,0,P|359:356|393:345,1,72,8|0,0:0|0:0,0:0:0:0:
472,244,144063,1,0,0:0:0:0:
324,148,144199,2,0,L|328:92,2,36,2|2|2,0:3|0:3|0:3,0:0:0:0:
316,240,144472,1,0,0:0:0:0:
88,157,144609,6,0,P|76:101|148:1,1,180,4|8,0:0|0:0,0:0:0:0:
240,184,145018,1,0,0:0:0:0:
118,297,145154,2,0,L|22:285,1,90,2|0,0:0|0:0,0:0:0:0:
324,148,145427,2,0,L|420:160,1,90,8|0,0:0|0:0,0:0:0:0:
236,272,145699,5,0,0:0:0:0:
172,80,145836,1,2,0:0:0:0:
324,148,145972,1,8,0:0:0:0:
136,224,146109,2,0,P|92:220|40:212,1,90,2|0,0:0|0:0,0:0:0:0:
264,80,146381,1,0,0:0:0:0:
345,250,146518,2,0,P|346:295|328:336,1,90,8|0,0:0|0:0,0:0:0:0:
136,224,146790,6,0,P|135:179|153:138,1,90,2|0,0:0|0:0,0:0:0:0:
384,8,147063,1,8,0:0:0:0:
312,176,147199,1,0,0:0:0:0:
168,44,147336,2,0,P|116:20|8:96,1,180,2|10,0:0|0:0,0:0:0:0:
136,224,147745,1,0,0:0:0:0:
396,176,147881,5,2,0:0:0:0:
396,176,148018,2,0,P|400:128|384:80,1,90,0|8,0:0|0:0,0:0:0:0:
316,268,148290,2,0,P|355:295|405:305,1,90,0|2,0:0|0:0,0:0:0:0:
500,240,148563,1,0,0:0:0:0:
276,156,148699,2,0,P|232:176|198:214,1,90,8|8,0:0|0:3,0:0:0:0:
116,376,148972,6,0,L|104:264,1,90,2|0,0:0|0:0,0:0:0:0:
285,66,149245,2,0,L|276:156,1,90,8|0,0:0|0:0,0:0:0:0:
402,276,149518,2,0,B|366:260|366:260|310:268,1,90,2|0,0:0|0:0,0:0:0:0:
200,368,149790,2,0,B|236:384|236:384|292:376,1,90,8|0,0:0|0:0,0:0:0:0:
112,108,150063,6,0,B|96:144|96:144|104:200,1,90,2|0,0:0|0:0,0:0:0:0:
315,267,150335,2,0,B|331:231|331:231|323:175,1,90,8|0,0:0|0:0,0:0:0:0:
216,208,150609,1,10,0:0:0:0:
416,288,150745,1,8,0:0:0:0:
308,88,150881,1,4,0:3:0:0:
296,368,151018,1,4,0:3:0:0:
88,256,151154,6,0,P|124:224|200:232,1,108
208,244,151427,6,0,L|7:213,1,202.500007724762,12|0,0:0|0:0,0:0:0:0:
72,128,151699,6,0,L|178:144,1,108
284,180,151972,6,0,P|328:132|280:-12,1,202.500007724762,12|0,0:0|0:0,0:0:0:0:
200,68,152245,5,4,0:0:0:0:
420,192,152381,1,0,0:0:0:0:
184,264,152518,1,8,0:0:0:0:
372,88,152654,1,0,0:0:0:0:
328,336,152790,1,8,0:0:0:0:
256,168,152927,1,0,0:0:0:0:
256,168,152995,1,8,0:3:0:0:
256,168,153063,1,8,0:3:0:0:
432,284,153199,1,4,0:3:0:0:
200,368,153336,6,0,P|192:316|180:264,1,90,4|0,0:0|0:0,0:0:0:0:
356,104,153609,2,0,P|346:148|340:192,1,90,8|0,0:0|0:0,0:0:0:0:
96,156,153881,2,0,P|144:136|200:144,1,90,2|0,0:0|0:0,0:0:0:0:
397,261,154154,2,0,P|356:280|312:280,1,90,8|0,0:0|0:0,0:0:0:0:
181,137,154427,5,0,0:0:0:0:
286,37,154563,2,0,P|315:71|326:115,1,90,2|8,0:0|0:0,0:0:0:0:
136,312,154836,2,0,L|148:216,1,90,2|0,0:0|0:0,0:0:0:0:
380,168,155109,1,0,0:0:0:0:
456,328,155245,2,8,B|416:348|416:348|352:344,1,90,8|0,0:0|0:0,0:0:0:0:
284,236,155518,5,2,0:0:0:0:
472,168,155654,1,0,0:0:0:0:
296,72,155790,1,8,0:0:0:0:
397,261,155927,1,0,0:0:0:0:
225,319,156063,2,0,L|125:311,1,90,2|0,0:0|0:0,0:0:0:0:
296,152,156336,1,8,0:0:0:0:
328,352,156472,1,0,0:0:0:0:
188,200,156609,5,2,0:0:0:0:
392,92,156745,2,0,P|408:40|400:-20,1,90,0|8,0:0|0:0,0:0:0:0:
296,152,157018,1,2,0:0:0:0:
397,261,157154,2,0,L|496:248,1,90
296,152,157427,2,0,L|197:165,1,90,10|0,0:0|0:0,0:0:0:0:
56,252,157699,6,0,P|32:208|36:152,1,90,2|0,0:0|0:0,0:0:0:0:
208,0,157972,2,0,P|232:44|228:100,1,90,8|0,0:0|0:0,0:0:0:0:
136,348,158245,2,0,L|36:336,1,90,2|0,0:0|0:0,0:0:0:0:
117,152,158518,2,0,L|206:162,1,90,8|0,0:0|0:0,0:0:0:0:
328,352,158790,6,0,L|428:340,1,90,2|0,0:0|0:0,0:0:0:0:
496,224,159063,1,8,0:0:0:0:
356,116,159199,1,0,0:0:0:0:
360,144,159268,1,0,0:0:0:0:
364,172,159336,1,10,0:0:0:0:
472,128,159472,1,8,0:0:0:0:
376,268,159609,1,4,0:3:0:0:
256,60,159745,1,4,0:3:0:0:
216,312,159881,6,0,P|176:324|108:276,1,108
76,316,160154,6,0,P|64:260|176:256,1,202.500007724762,12|0,0:0|0:0,0:0:0:0:
280,372,160427,6,0,P|300:332|288:260,1,108
224,164,160699,6,0,B|152:148|84:196|84:196|100:124,1,202.500007724762,12|0,0:0|0:0,0:0:0:0:
110,26,160972,6,0,L|94:150,1,116.999994644165
380,100,161245,2,0,L|396:224,1,116.999994644165,8|0,0:0|0:0,0:0:0:0:
136,288,161518,1,8,0:0:0:0:
368,204,161654,1,8,0:0:0:0:
368,204,161722,1,8,0:0:0:0:
368,204,161790,1,8,0:0:0:0:
192,128,161927,1,0,0:0:0:0:
384,308,162063,5,4,0:0:0:0:
96,196,162199,1,0,0:0:0:0:
340,12,162336,1,8,0:0:0:0:
256,356,163018,6,0,P|220:300|248:192,1,180,4|0,0:0|0:0,0:0:0:0:
408,80,163427,1,10,0:0:0:0:
368,204,163563,1,0,0:0:0:0:
368,204,163631,1,0,0:0:0:0:
368,204,163699,1,2,0:0:0:0:
284,104,163836,1,0,0:0:0:0:
492,180,163972,1,10,0:0:0:0:
332,324,164109,1,0,0:0:0:0:
172,240,164245,5,2,0:0:0:0:
440,304,164381,1,0,0:0:0:0:
328,32,164518,1,8,0:0:0:0:
56,112,165199,6,0,P|72:192|80:312,1,180,4|0,0:0|0:0,0:0:0:0:
180,200,165609,1,8,0:0:0:0:
160,360,165745,1,0,0:0:0:0:
160,360,165813,1,0,0:0:0:0:
160,360,165881,1,8,0:0:0:0:
88,260,166018,1,8,0:0:0:0:
252,336,166154,1,2,0:0:0:0:
288,124,166290,1,0,0:0:0:0:
124,48,166427,6,0,L|132:128,1,72
268,228,166699,2,0,L|260:148,1,72,8|0,0:0|0:0,0:0:0:0:
336,64,166972,2,0,L|416:76,1,72,8|0,0:0|0:0,0:0:0:0:
448,192,167245,2,0,L|368:180,1,72,8|0,0:0|0:0,0:0:0:0:
252,336,167518,6,0,L|332:324,1,72,8|0,0:0|0:0,0:0:0:0:
160,264,167790,1,8,0:0:0:0:
160,264,167927,1,0,0:0:0:0:
296,200,168063,2,0,P|304:156|296:112,1,72,8|0,0:0|0:0,0:0:0:0:
80,232,168336,2,0,P|77:267|85:302,1,72,8|0,0:0|0:0,0:0:0:0:
220,156,168609,5,0,0:0:0:0:
344,280,168745,1,0,0:0:0:0:
332,92,168881,1,8,0:0:0:0:
252,336,169018,1,0,0:0:0:0:
192,132,169154,5,0,0:0:0:0:
272,368,169290,1,0,0:0:0:0:
360,72,169427,1,8,0:0:0:0:
120,232,169563,1,0,0:0:0:0:
428,296,169699,5,8,0:0:0:0:
96,352,169836,1,8,0:0:0:0:
216,24,169972,1,12,0:0:0:0:
380,364,170109,1,8,0:0:0:0:
36,180,170245,6,8,P|72:144|160:140,1,135
212,208,170518,6,0,P|244:144|96:64,1,270,2|0,0:0|0:0,0:0:0:0:
120,232,170790,5,4,0:0:0:0:
128,96,175154,6,0,L|232:108,1,80.9999975280763,4|0,0:0|0:0,0:0:0:0:
236,208,175427,2,0,L|132:196,1,80.9999975280763,8|0,0:0|0:0,0:0:0:0:
68,260,175699,1,0,0:0:0:0:
68,260,175768,1,0,0:0:0:0:
68,260,175836,1,0,0:0:0:0:
184,352,175972,2,0,P|248:340|340:340,1,121.499996292114,12|0,0:0|0:0,0:0:0:0:
380,372,176245,6,0,P|388:332|372:284,1,80.9999975280763
332,196,176518,1,8,0:0:0:0:
332,196,176586,1,0,0:0:0:0:
332,196,176654,1,0,0:0:0:0:
244,116,176790,5,2,0:2:0:0:
235,77,176858,1,2,0:2:0:0:
250,40,176926,1,2,0:2:0:0:
284,18,176994,1,2,0:2:0:0:
323,20,177062,1,2,0:2:0:0:
355,44,177130,1,2,0:2:0:0:
368,82,177199,1,2,0:2:0:0:
236,232,177336,6,0,P|192:220|144:224,1,80.9999975280763
432,164,177609,2,0,P|476:176|524:172,1,80.9999975280763,12|0,0:0|0:0,0:0:0:0:
368,372,177881,2,0,L|352:284,1,80.9999975280763,12|0,0:0|0:0,0:0:0:0:
250,152,178154,2,0,L|235:231,1,80.9999975280763,12|0,0:0|0:0,0:0:0:0:
120,288,178427,5,12,0:0:0:0:
132,176,178563,1,0,0:0:0:0:
132,176,178631,1,0,0:0:0:0:
132,176,178699,1,8,0:0:0:0:
212,320,178836,1,8,0:0:0:0:
36,220,178972,5,8,0:0:0:0:
176,64,179109,1,8,0:0:0:0:
344,196,179245,1,8,0:0:0:0:
168,88,179381,1,8,0:0:0:0:
200,304,179518,6,0,P|264:288|392:280,1,180,4|8,0:0|0:0,0:0:0:0:
460,152,179927,1,0,0:0:0:0:
460,152,179995,1,0,0:0:0:0:
460,152,180063,2,0,P|455:107|443:63,1,90
264,136,180336,2,0,P|252:179|247:224,1,90,8|0,0:0|0:0,0:0:0:0:
388,356,180609,6,0,P|356:324|319:298,1,90,0|0,0:0|0:2,0:0:0:0:
140,348,180881,2,0,P|183:336|224:317,1,90,8|0,0:0|0:0,0:0:0:0:
336,204,181154,1,0,0:0:0:0:
176,108,181290,1,0,0:0:0:0:
104,252,181427,2,0,B|72:264|72:264|0:256,1,90,8|0,0:0|0:0,0:0:0:0:
120,36,181699,6,0,B|180:28|180:28|232:40|232:40|320:24,1,180,0|8,0:0|0:0,0:0:0:0:
460,160,182109,1,0,0:0:0:0:
296,120,182245,1,0,0:0:0:0:
436,28,182381,1,0,0:0:0:0:
356,232,182518,2,0,P|352:276|368:332,1,90,8|0,0:0|0:0,0:0:0:0:
464,344,182790,6,0,P|404:324|308:396,1,180,0|8,0:0|0:0,0:0:0:0:
180,272,183199,1,0,0:0:0:0:
180,272,183268,1,0,0:0:0:0:
180,272,183336,2,0,L|192:168,1,90
368,60,183609,2,0,L|378:149,1,90,8|0,0:0|0:0,0:0:0:0:
96,156,183881,6,0,P|136:108|260:120,1,180,0|8,0:0|0:0,0:0:0:0:
432,216,184290,2,0,B|390:234|390:234|332:229,1,90
190,182,184563,1,0,0:0:0:0:
192,40,184699,2,0,B|233:21|233:21|291:26,1,90,8|0,0:0|0:0,0:0:0:0:
448,340,184972,6,0,L|348:356,1,90
132,264,185245,2,0,L|232:280,1,90,8|0,0:0|0:0,0:0:0:0:
320,200,185518,1,0,0:0:0:0:
256,372,185654,1,0,0:0:0:0:
172,136,185790,1,8,0:0:0:0:
320,288,185927,1,0,0:0:0:0:
80,348,186063,6,0,P|44:312|60:192,1,180,0|8,0:0|0:0,0:0:0:0:
160,24,186472,1,0,0:0:0:0:
252,72,186609,2,0,P|272:120|264:176,1,90
201,265,186881,2,0,P|156:269|112:276,1,90,8|0,0:0|0:0,0:0:0:0:
404,364,187154,6,0,P|428:320|416:228,1,135,8|0,0:0|0:0,0:0:0:0:
396,208,187427,1,8,0:0:0:0:
236,304,187563,1,8,0:0:0:0:
108,125,187699,6,0,P|84:169|96:261,1,135,8|0,0:0|0:0,0:0:0:0:
116,281,187972,2,0,B|156:261|156:261|204:265,1,90,4|0,0:0|0:0,0:0:0:0:
364,128,188245,6,0,L|349:39,1,90,4|0,0:0|0:0,0:0:0:0:
148,256,188518,2,0,L|162:344,1,90,8|0,0:0|0:0,0:0:0:0:
192,84,188790,2,0,L|103:98,1,90,8|0,0:0|0:0,0:0:0:0:
320,300,189063,2,0,L|408:285,1,90,8|0,0:0|0:0,0:0:0:0:
364,128,189336,5,8,0:0:0:0:
148,256,189472,1,0,0:0:0:0:
192,84,189609,1,8,0:0:0:0:
320,300,189745,1,0,0:0:0:0:
296,33,189881,5,8,0:0:0:0:
215,350,190017,1,0,0:0:0:0:
414,232,190154,1,8,0:0:0:0:
97,151,190290,1,0,0:0:0:0:
428,352,190427,6,0,P|448:304|436:236,1,90,4|0,0:0|0:0,0:0:0:0:
256,72,190699,2,0,L|256:176,1,90,8|0,0:0|0:0,0:0:0:0:
84,352,190972,2,0,P|64:304|76:236,1,90,8|0,0:0|0:0,0:0:0:0:
364,128,191245,1,8,0:0:0:0:
148,128,191381,1,0,0:0:0:0:
256,316,191518,5,8,0:0:0:0:
428,68,191654,1,8,0:0:0:0:
84,68,191790,1,0,0:0:0:0:
256,360,191927,2,0,B|242:300|242:300|268:252|268:252|256:188,1,180,4|0,0:0|0:0,0:0:0:0:
200,61,192336,1,8,0:0:0:0:
200,61,192472,1,8,0:3:0:0:
152,264,192609,5,4,0:0:0:0:
341,112,192745,1,0,0:0:0:0:
108,142,192881,1,8,0:0:0:0:
239,328,193018,1,0,0:0:0:0:
255,58,193155,1,4,0:0:0:0:
37,201,193291,1,0,0:0:0:0:
364,268,193427,1,8,0:0:0:0:
92,86,193563,6,0,P|157:24|246:41,1,180,4|0,0:0|0:0,0:0:0:0:
411,47,193972,1,8,0:0:0:0:
187,120,194109,1,0,0:0:0:0:
475,263,194245,1,4,0:0:0:0:
216,219,194381,1,0,0:0:0:0:
373,129,194518,1,8,0:0:0:0:
344,368,194654,1,0,0:0:0:0:
132,204,194790,6,0,B|199:192|199:192|247:208|247:208|307:200,1,180,4|8,0:0|0:0,0:0:0:0:
103,300,195199,1,0,0:0:0:0:
103,300,195268,1,0,0:0:0:0:
103,300,195336,1,8,0:0:0:0:
295,165,195472,1,8,0:0:0:0:
73,63,195609,1,8,0:0:0:0:
256,340,195745,1,12,0:0:0:0:
256,340,196018,5,0,0:0:0:0:
381,220,196154,1,8,0:0:0:0:
184,132,196290,1,0,0:0:0:0:
407,79,196427,5,0,0:0:0:0:
222,229,196563,1,8,0:3:0:0:
436,300,196699,1,4,0:3:0:0:
436,300,196972,6,0,P|452:256|448:208,1,72
284,152,197245,2,0,P|268:196|272:244,1,72,8|0,0:0|0:0,0:0:0:0:
348,344,197518,2,0,L|432:336,1,72
267,220,197790,2,0,L|183:228,1,72,8|0,0:0|0:0,0:0:0:0:
112,288,198063,5,0,0:0:0:0:
108,188,198199,1,0,0:0:0:0:
200,328,198336,1,8,0:0:0:0:
20,248,198472,1,0,0:0:0:0:
188,120,198609,2,0,P|208:88|140:8,1,144,0|2,0:0|0:3,0:0:0:0:
157,8,199018,1,0,0:0:0:0:
284,80,199154,6,0,P|336:84|396:64,1,107.999996704102,4|0,0:1|0:0,0:0:0:0:
456,16,199563,1,0,0:0:0:0:
456,16,199699,2,0,P|443:56|435:132,1,107.999996704102,2|0,0:0|0:0,0:0:0:0:
348,276,200245,5,0,0:0:0:0:
160,200,200381,2,0,L|112:204,2,26.9999991760254,8|8|8,0:1|0:1|0:1,0:0:0:0:
344,136,200654,1,8,0:1:0:0:
344,136,200722,1,8,0:1:0:0:
344,136,200790,1,8,0:1:0:0:
200,96,200927,5,0,0:0:0:0:
388,204,201063,1,8,0:1:0:0:
168,304,201199,1,0,0:0:0:0:
436,340,201336,6,0,P|448:300|464:176,1,161.999995056153,4|0,0:0|0:0,0:0:0:0:
463,181,201881,2,0,B|428:192|428:192|340:172,1,107.999996704102,8|8,0:1|0:3,0:0:0:0:
272,156,202290,1,8,0:3:0:0:
168,304,202427,6,0,L|184:232,1,53.9999983520508
208,100,202699,1,0,0:0:0:0:
119,155,202836,2,0,P|89:199|92:252,1,107.999996704102,4|8,0:0|0:3,0:0:0:0:
248,352,203245,1,0,0:0:0:0:
248,352,203381,1,0,0:0:0:0:
344,288,203518,6,0,B|376:280|376:280|448:300,2,107.999996704102,4|0|0,0:0|0:0|0:0,0:0:0:0:
344,288,204336,1,2,0:0:0:0:
223,143,204609,6,0,B|191:135|191:135|119:155,2,107.999996704102
288,184,205290,1,8,0:1:0:0:
292,108,205427,1,0,0:0:0:0:
292,108,205972,6,0,L|416:88,1,107.999996704102,4|0,0:0|0:0,0:0:0:0:
256,256,206518,2,0,L|132:236,1,107.999996704102,4|0,0:0|0:0,0:0:0:0:
156,368,206927,5,0,0:0:0:0:
156,368,206995,1,0,0:0:0:0:
156,368,207063,1,8,0:1:0:0:
336,304,207199,1,0,0:0:0:0:
336,304,207268,1,0,0:0:0:0:
336,304,207336,1,8,0:1:0:0:
212,128,207472,1,0,0:0:0:0:
212,128,207540,1,0,0:0:0:0:
212,128,207609,1,8,0:1:0:0:
256,348,207745,1,8,0:3:0:0:
444,220,207881,6,0,P|408:184|280:184,1,180,4|8,0:0|0:0,0:0:0:0:
123,171,208290,1,0,0:0:0:0:
296,92,208427,2,0,P|308:44|296:-4,1,90,2|0,0:0|0:0,0:0:0:0:
128,84,208699,2,0,P|116:132|128:180,1,90,8|0,0:0|0:0,0:0:0:0:
260,272,208972,5,0,0:0:0:0:
260,272,209109,2,0,L|352:264,1,90,2|8,0:0|0:0,0:0:0:0:
176,360,209381,1,2,0:0:0:0:
244,180,209518,1,0,0:0:0:0:
328,344,209654,1,0,0:0:0:0:
120,256,209790,2,0,B|88:252|88:252|16:272,1,90,8|0,0:0|0:0,0:0:0:0:
288,96,210063,5,2,0:0:0:0:
260,272,210199,1,0,0:0:0:0:
296,80,210336,1,8,0:0:0:0:
100,160,210472,1,2,0:0:0:0:
332,220,210609,2,0,P|376:204|420:212,1,90
432,348,210881,2,0,P|388:364|344:356,1,90,10|0,0:0|0:0,0:0:0:0:
164,328,211154,5,2,0:0:0:0:
380,284,211290,1,0,0:0:0:0:
248,184,211427,1,8,0:0:0:0:
256,380,211563,1,2,0:0:0:0:
420,276,211699,2,0,B|436:240|436:240|420:180,1,90
172,136,211972,2,0,B|156:172|156:172|172:232,1,90,10|0,0:0|0:0,0:0:0:0:
432,96,212245,6,0,L|336:80,1,90,2|0,0:0|0:0,0:0:0:0:
80,235,212518,2,0,L|176:219,1,90,8|0,0:0|0:0,0:0:0:0:
276,276,212790,1,2,0:0:0:0:
254,68,212927,1,0,0:0:0:0:
448,188,213063,2,0,P|388:196|348:212,1,90,8|0,0:0|0:0,0:0:0:0:
220,376,213336,6,0,P|243:320|249:277,1,90,2|0,0:0|0:0,0:0:0:0:
168,84,213609,2,0,P|204:131|238:158,1,90,8|0,0:0|0:0,0:0:0:0:
344,304,213881,1,2,0:0:0:0:
148,324,214018,1,8,0:0:0:0:
227,150,214154,1,4,0:3:0:0:
451,333,214290,1,4,0:3:0:0:
492,124,214427,6,0,P|448:112|376:156,1,108
368,164,214699,6,0,P|336:124|408:8,1,202.500007724762,12|0,0:0|0:0,0:0:0:0:
448,188,214972,6,0,L|436:308,1,108
246,324,215245,6,0,P|242:276|338:320,1,202.500007724762,12|0,0:0|0:0,0:0:0:0:
160,364,215518,6,0,P|144:308|152:244,1,116.999994644165,4|0,0:0|0:0,0:0:0:0:
378,50,215790,2,0,P|383:107|367:163,1,116.999994644165,8|0,0:0|0:0,0:0:0:0:
112,168,216063,1,8,0:0:0:0:
264,28,216199,1,8,0:0:0:0:
264,28,216268,1,8,0:0:0:0:
264,28,216336,1,8,0:0:0:0:
343,303,216472,1,0,0:0:0:0:
96,192,216609,5,4,0:0:0:0:
312,88,216745,1,0,0:0:0:0:
304,380,216881,1,8,0:0:0:0:
88,256,217563,6,0,P|52:200|128:116,1,180,4|0,0:0|0:0,0:0:0:0:
264,80,217972,1,10,0:0:0:0:
128,192,218109,1,0,0:0:0:0:
156,196,218177,1,0,0:0:0:0:
184,200,218245,1,2,0:0:0:0:
320,212,218381,1,0,0:0:0:0:
92,288,218518,1,10,0:0:0:0:
348,200,218654,1,0,0:0:0:0:
172,80,218790,5,2,0:0:0:0:
230,342,218927,1,0,0:0:0:0:
496,222,219063,1,8,0:0:0:0:
344,44,219745,6,0,P|352:104|380:224,1,180,4|0,0:0|0:0,0:0:0:0:
440,120,220154,1,8,0:0:0:0:
408,376,220290,1,0,0:0:0:0:
412,340,220359,1,0,0:0:0:0:
416,304,220427,1,8,0:0:0:0:
456,108,220563,1,8,0:0:0:0:
248,176,220699,1,2,0:0:0:0:
420,272,220836,1,0,0:0:0:0:
268,96,220972,6,0,P|220:96|196:112,1,72
228,264,221245,2,0,P|276:264|300:248,1,72,8|0,0:0|0:0,0:0:0:0:
148,236,221518,2,0,B|140:268|140:268|156:320,1,72,8|0,0:0|0:0,0:0:0:0:
348,124,221790,2,0,B|356:92|356:92|340:40,1,72,8|0,0:0|0:0,0:0:0:0:
120,148,222063,6,0,L|40:136,1,72,8|0,0:0|0:0,0:0:0:0:
200,52,222336,1,8,0:0:0:0:
200,52,222472,1,0,0:0:0:0:
228,264,222609,2,0,L|308:252,1,72,8|0,0:0|0:0,0:0:0:0:
419,134,222881,2,0,L|339:122,1,72,8|0,0:0|0:0,0:0:0:0:
244,164,223154,5,8,0:0:0:0:
400,232,223290,1,0,0:0:0:0:
400,232,223359,1,0,0:0:0:0:
400,232,223427,1,8,0:0:0:0:
340,16,223563,1,0,0:0:0:0:
340,16,223631,1,0,0:0:0:0:
340,16,223699,1,8,0:0:0:0:
120,160,223836,1,0,0:0:0:0:
120,160,223904,1,0,0:0:0:0:
120,160,223972,1,8,0:0:0:0:
312,336,224109,1,0,0:0:0:0:
312,336,224177,1,0,0:0:0:0:
312,336,224245,5,8,0:0:0:0:
416,132,224381,1,8,0:0:0:0:
184,264,224518,1,12,0:0:0:0:
448,364,224654,1,8,0:0:0:0:
200,72,224790,6,0,P|138:66|72:136,1,135,8|0,0:0|0:0,0:0:0:0:
80,128,225063,6,0,P|160:148|160:0,1,270,2|0,0:0|0:0,0:0:0:0:
44,24,225336,5,4,0:0:0:0:
384,332,226972,5,8,0:0:0:0:
128,52,227245,1,8,0:0:0:0:
256,192,227518,1,4,0:0:0:0:
116,308,228745,5,0,0:0:0:0:
116,308,228813,1,0,0:0:0:0:
116,308,228881,1,8,0:0:0:0:
136,220,229018,1,8,0:0:0:0:
224,240,229154,1,8,0:0:0:0:
204,328,229291,1,8,0:0:0:0:
52,252,229427,5,8,0:0:0:0:
200,152,229563,1,8,0:0:0:0:
288,308,229699,1,4,0:0:0:0:
444,56,230245,6,0,P|392:80|264:92,1,180,0|8,0:0|0:0,0:0:0:0:
208,40,230654,1,8,0:0:0:0:
388,168,230790,1,4,0:0:0:0:
80,252,231336,5,8,0:0:0:0:
228,232,231472,2,0,L|176:240,1,45
128,160,231609,1,8,0:0:0:0:
144,328,231745,1,0,0:0:0:0:
304,288,231881,6,0,P|352:272|384:280,1,72
456,180,232154,2,0,P|420:181|387:167,1,72,8|0,0:0|0:0,0:0:0:0:
320,92,232427,2,0,L|340:12,1,72
210,162,232699,2,0,L|227:231,1,72,8|0,0:0|0:0,0:0:0:0:
92,344,232972,6,0,P|28:288|156:268,1,270,4|0,0:0|0:0,0:0:0:0:
220,316,233245,2,0,P|268:340|408:212,1,270,4|0,0:0|0:0,0:0:0:0:
348,76,233518,2,0,B|320:0|264:56|268:112|348:120|360:184|352:240|264:280,1,270,4|0,0:0|0:0,0:0:0:0:
252,188,233790,2,0,P|127:183|96:304,1,270,2|0,0:0|0:0,0:0:0:0:
216,364,234063,6,0,L|304:349,1,90,8|0,0:0|0:0,0:0:0:0:
416,328,234336,1,8,0:0:0:0:
296,20,234472,1,0,0:0:0:0:
296,20,234540,1,0,0:0:0:0:
296,20,234609,2,0,L|207:34,1,90,8|0,0:0|0:0,0:0:0:0:
96,56,234881,1,8,0:0:0:0:
256,192,235018,1,0,0:0:0:0:
256,192,235086,1,0,0:0:0:0:
256,192,235154,5,12,0:0:0:0:
403,92,235290,1,8,0:0:0:0:
108,291,235427,1,12,0:0:0:0:
355,339,235563,1,8,0:0:0:0:
156,44,235699,6,0,L|176:180,1,135,12|0,0:0|0:0,0:0:0:0:
180,204,235972,6,0,P|212:228|232:92,1,270,2|0,0:0|0:0,0:0:0:0:
76,128,236245,5,0,0:0:0:0:
44,252,236381,2,0,L|-4:256,2,40.4999987640381,0|0|4,0:0|0:0|0:0,0:0:0:0:
176,236,236654,1,0,0:0:0:0:
116,368,236790,2,0,L|197:361,1,80.9999975280763,8|8,0:0|0:0,0:0:0:0:
196,361,236995,1,8,0:0:0:0:
196,361,237063,1,8,0:0:0:0:
328,352,237199,1,8,0:3:0:0:
264,216,237336,5,4,0:3:0:0:
352,376,237472,1,8,0:0:0:0:
376,168,237609,1,8,0:0:0:0:
236,380,237745,1,8,0:0:0:0:
184,180,237881,5,8,0:0:0:0:
204,144,237949,1,8,0:0:0:0:
240,128,238018,1,8,0:0:0:0:
280,124,238086,1,8,0:0:0:0:
316,140,238154,1,8,0:0:0:0:
392,320,238290,1,8,0:3:0:0:
168,352,238427,6,0,B|128:320|88:332|88:332|64:308|64:308|24:308|-24:272,1,180,12|0,0:0|2:0,0:0:0:0:
160,32,238836,2,0,B|153:82|183:111|183:111|174:144|174:144|194:178|187:238,1,180,12|0,0:0|2:0,0:0:0:0:
348,360,239246,2,2,P|444:300|228:296,1,630,6|0,0:0|2:0,0:0:0:0:
